osu file format v7

[General]
AudioFilename: Narwhals.mp3
AudioLeadIn: 3000
PreviewTime: -1
Countdown: 1
SampleSet: Soft
StackLeniency: 0.7
Mode: 0
LetterboxInBreaks: 1

[Editor]
DistanceSpacing: 0.400000005960464
BeatDivisor: 4
GridSize: 8

[Metadata]
Title:Narwhals
Artist:Weebl
Creator:StrayerFox
Version:Shish Kebab
Source:
Tags:weebl mrweeble mr narwhals youtube you tube

[Difficulty]
HPDrainRate:7
CircleSize:5
OverallDifficulty:7
SliderMultiplier:2
SliderTickRate:2

[Events]
//Background and Video events
0,0,"narw.jpg"
Video,0,"Narwhals.flv"
//Break Periods
//Storyboard Layer 0 (Background)
//Storyboard Layer 1 (Fail)
//Storyboard Layer 2 (Pass)
//Storyboard Layer 3 (Foreground)
//Storyboard Sound Samples
//Background Colour Transformations
3,100,202,202,255

[TimingPoints]
49.697144020866,397.350993377483,4,2,0,100,1,0
20711,-200,4,2,0,100,0,1
33427,-100,4,2,0,100,0,0
54089,-200,4,1,0,100,0,1
65215,-100,4,2,0,100,0,0
65612,-100,4,1,0,100,0,0
65811,-100,4,2,0,100,0,0
66556,-100,4,1,0,100,0,0
66804,-100,4,1,0,100,0,1

[Colours]
Combo1 : 219,219,219
Combo2 : 0,128,255
Combo3 : 169,214,199

[HitObjects]
72,40,49,2,0,B|16:80|72:128,1,100
104,152,347,1,8
152,168,447,1,0
440,344,844,2,0,B|496:304|440:256,1,100
408,232,1142,1,8
360,216,1242,1,0
472,40,1639,6,8,B|384:104|384:104,1,100
240,40,2036,2,8,B|200:144|200:144,1,100
64,48,2433,2,0,B|64:152|64:152,1,100,0|2
64,312,2831,1,4
472,344,3228,6,8,B|384:280|384:280,1,100
240,344,3625,2,8,B|200:240|200:240,1,100
64,336,4022,2,0,B|64:232|64:232,1,100,0|2
64,72,4420,1,4
224,32,4817,6,12,B|120:32|120:32,1,100
288,88,5215,2,12,B|392:88|392:88,1,100
224,144,5612,2,12,B|120:144|120:144,1,100
288,200,6009,2,12,B|392:200|392:200,1,100,12|4
256,112,6407,5,0
176,192,6605,1,0
256,272,6804,1,8
336,192,7003,2,4,B|456:168|456:168,1,100
336,192,7400,1,8
256,112,7599,1,2
176,192,7798,1,8
256,272,7996,6,2,B|160:336|160:336,5,100
472,128,9188,1,12
256,272,9586,6,2,B|352:336|352:336,5,100
40,128,10778,1,12
40,128,10976,1,4
256,104,11175,6,2,B|256:160|256:160,1,50
256,280,11374,2,2,B|256:224|256:224,1,50
318,129,11572,2,2,B|278:169|278:169,1,50
193,254,11771,2,2,B|233:214|233:214,1,50
318,254,11970,2,2,B|278:214|278:214,1,50
193,129,12169,2,2,B|233:169|233:169,1,50
256,32,12367,1,6
128,40,12764,6,2,B|176:88|120:136,1,100
384,40,13162,2,2,B|336:88|392:136,1,100
128,40,13559,2,2,B|176:88|120:136,1,100
384,40,13957,2,2,B|336:88|392:136,1,100
256,192,14354,5,6
384,344,14553,2,2,B|336:296|392:248,1,100
128,344,14951,2,2,B|176:296|120:248,1,100
384,344,15348,2,2,B|336:296|392:248,1,100
128,344,15746,2,2,B|176:296|120:248,1,100
256,192,16143,5,4
456,192,16341,1,2
456,192,16539,1,4
256,192,16738,1,0
256,192,16937,1,12
56,192,17135,1,2
56,192,17334,1,4
256,32,17533,5,4
256,32,17731,5,0
328,80,17930,1,0
184,80,18129,1,0
328,80,18327,1,0
256,208,18625,1,0
256,208,18725,1,0
256,304,18923,1,0
256,208,19122,5,0
360,208,19321,1,0
256,208,19519,1,0
152,208,19718,1,0
208,48,19917,1,2
256,48,20016,1,0
304,48,20115,1,2
280,96,20215,1,0
232,96,20314,1,2
256,136,20413,1,0
256,136,20513,2,10,B|288:152|288:152,4,25,8|0|8|0|12
352,88,21109,6,0,B|384:96|392:136,1,50,0|8
160,88,21506,2,0,B|128:96|120:136,1,50,0|8
80,208,21904,2,0,B|152:192|152:192,1,50,0|8
432,208,22301,2,0,B|360:192|360:192,1,50
160,296,22698,6,0,B|128:288|120:248,1,50
352,296,23095,2,0,B|384:288|392:248,1,50
432,176,23493,2,8,B|360:192|360:192,1,50
80,176,23890,2,8,B|152:192|152:192,1,50,8|0
152,96,24288,6,0,B|160:64|200:56,1,50
152,288,24685,2,0,B|160:320|200:328,1,50
272,368,25083,2,0,B|256:296|256:296,1,50
272,16,25480,2,2,B|256:88|256:88,1,50
360,288,25877,6,2,B|352:320|312:328,1,50
360,96,26274,2,0,B|352:64|312:56,1,50,8|0
240,16,26672,2,2,B|256:88|256:88,1,50
240,368,27069,2,0,B|256:296|256:296,1,50,8|0
160,296,27466,6,0,B|128:288|120:248,1,50
352,296,27863,2,2,B|384:288|392:248,1,50
432,176,28261,2,2,B|360:192|360:192,1,50
80,176,28658,2,0,B|152:192|152:192,1,50,8|0
352,88,29055,6,0,B|384:96|392:136,1,50,8|8
160,88,29452,2,8,B|128:96|120:136,1,50
80,208,29850,2,4,B|152:192|152:192,1,50
432,208,30247,2,4,B|360:192|360:192,1,50
256,192,30645,12,4,31639
256,64,31838,5,0
168,128,32036,1,4
344,128,32235,1,0
104,200,32434,1,4
408,200,32632,1,0
256,312,32831,1,6
256,312,33029,1,14
440,344,33427,6,0,B|496:304|440:256,1,100
408,232,33725,1,8
360,216,33825,1,0
72,40,34222,2,0,B|16:80|72:128,1,100
104,152,34520,1,8
152,168,34620,1,0
40,344,35017,6,8,B|128:280|128:280,1,100
272,344,35414,2,8,B|312:240|312:240,1,100
448,336,35811,2,0,B|448:232|448:232,1,100,0|2
448,72,36209,1,4
40,40,36606,6,8,B|128:104|128:104,1,100
272,40,37003,2,8,B|312:144|312:144,1,100
448,48,37400,2,0,B|448:152|448:152,1,100,0|2
448,312,37798,1,4
288,352,38195,6,12,B|392:352|392:352,1,100
224,296,38593,2,12,B|120:296|120:296,1,100
288,240,38990,2,12,B|392:240|392:240,1,100
224,184,39387,2,12,B|120:184|120:184,1,100,12|4
256,272,39785,5,0
336,192,39983,1,0
256,112,40182,1,8
176,192,40381,2,4,B|56:216|56:216,1,100
176,192,40778,1,8
256,272,40977,1,2
336,192,41176,1,8
256,112,41374,6,2,B|352:48|352:48,5,100
40,256,42566,1,12
256,112,42964,6,2,B|160:48|160:48,5,100
472,256,44156,1,12
472,256,44354,1,4
256,280,44553,6,2,B|256:224|256:224,1,50
256,104,44752,2,2,B|256:160|256:160,1,50
193,254,44950,2,2,B|233:214|233:214,1,50
318,129,45149,2,2,B|278:169|278:169,1,50
193,129,45348,2,2,B|233:169|233:169,1,50
318,254,45547,2,2,B|278:214|278:214,1,50
256,352,45745,1,6
384,344,46142,6,2,B|336:296|392:248,1,100
128,344,46540,2,2,B|176:296|120:248,1,100
384,344,46937,2,2,B|336:296|392:248,1,100
128,344,47335,2,2,B|176:296|120:248,1,100
256,192,47732,5,6
128,40,47931,2,2,B|176:88|120:136,1,100
384,40,48329,2,2,B|336:88|392:136,1,100
128,40,48726,2,2,B|176:88|120:136,1,100
384,40,49124,2,2,B|336:88|392:136,1,100
256,192,49521,5,4
56,192,49719,1,2
56,192,49917,1,4
256,192,50116,1,0
256,192,50315,1,12
456,192,50513,1,2
456,192,50712,1,4
256,352,50911,5,4
256,352,51109,5,0
184,304,51308,1,0
328,304,51507,1,0
184,304,51705,1,0
256,176,52003,1,0
256,176,52103,1,0
256,80,52301,1,0
256,176,52500,5,0
152,176,52699,1,0
256,176,52897,1,0
360,176,53096,1,0
304,336,53295,1,2
256,336,53394,1,0
208,336,53493,1,2
232,288,53593,1,0
280,288,53692,1,2
256,248,53791,1,0
256,248,53891,2,10,B|224:232|224:232,4,25,8|0|8|0|12
160,296,54487,6,0,B|128:288|120:248,1,50,0|8
352,296,54884,2,0,B|384:288|392:248,1,50,0|8
432,176,55282,2,0,B|360:192|360:192,1,50,0|8
80,176,55679,2,0,B|152:192|152:192,1,50
352,88,56076,6,0,B|384:96|392:136,1,50
160,88,56473,2,0,B|128:96|120:136,1,50
80,208,56871,2,8,B|152:192|152:192,1,50
432,208,57268,2,8,B|360:192|360:192,1,50,8|0
360,288,57666,6,0,B|352:320|312:328,1,50
360,96,58063,2,0,B|352:64|312:56,1,50
240,16,58461,2,0,B|256:88|256:88,1,50
240,368,58858,2,2,B|256:296|256:296,1,50
152,96,59255,6,2,B|160:64|200:56,1,50
152,288,59652,2,0,B|160:320|200:328,1,50,8|0
272,368,60050,2,2,B|256:296|256:296,1,50
272,16,60447,2,0,B|256:88|256:88,1,50,8|0
352,88,60844,6,0,B|384:96|392:136,1,50
160,88,61241,2,2,B|128:96|120:136,1,50
80,208,61639,2,2,B|152:192|152:192,1,50
432,208,62036,2,0,B|360:192|360:192,1,50,8|0
160,296,62433,6,0,B|128:288|120:248,1,50,8|8
352,296,62830,2,8,B|384:288|392:248,1,50
432,176,63228,2,4,B|360:192|360:192,1,50
80,176,63625,2,4,B|152:192|152:192,1,50
256,192,64023,12,4,65017
256,320,65216,5,6
344,256,65413,1,12
168,256,65613,1,6
408,184,65812,1,12
104,184,66010,1,6
256,72,66209,1,12
256,72,66407,1,14
256,192,66456,12,4,66804
