osu file format v7

[General]
AudioFilename: Narwhals.mp3
AudioLeadIn: 3000
PreviewTime: -1
Countdown: 1
SampleSet: Soft
StackLeniency: 0.7
Mode: 0
LetterboxInBreaks: 1

[Editor]
DistanceSpacing: 0.600000023841858
BeatDivisor: 2
GridSize: 8

[Metadata]
Title:Narwhals
Artist:Weebl
Creator:StrayerFox
Version:Narmal
Source:
Tags:weebl mrweeble mr narwhals youtube you tube

[Difficulty]
HPDrainRate:5
CircleSize:4
OverallDifficulty:3
SliderMultiplier:1.4
SliderTickRate:2

[Events]
//Background and Video events
0,0,"narw.jpg"
Video,0,"Narwhals.flv"
//Break Periods
//Storyboard Layer 0 (Background)
//Storyboard Layer 1 (Fail)
//Storyboard Layer 2 (Pass)
//Storyboard Layer 3 (Foreground)
//Storyboard Sound Samples
//Background Colour Transformations
3,100,202,202,255

[TimingPoints]
49.697144020866,397.350993377483,4,2,0,100,1,0

[Colours]
Combo1 : 219,219,219
Combo2 : 0,128,255
Combo3 : 169,214,199

[HitObjects]
32,40,49,2,0,B|88:104|112:0|192:64,1,140
136,128,844,2,0,B|192:192|216:88|296:152,1,140
256,192,1639,6,0,B|160:192|160:192,1,70,0|8
256,192,2036,2,0,B|208:256|208:256,1,70,0|8
256,192,2433,2,0,B|256:280|256:280,2,70,0|8|0
328,280,3228,6,4,B|376:248|376:192|328:160,1,140
432,160,4023,2,0,B|384:128|384:72|432:40,1,140
256,40,4817,2,0,B|184:40|184:40,1,70,4|8
232,112,5215,2,0,B|152:112|152:112,1,70,4|8
80,112,5612,1,0
80,112,6009,1,4
48,280,6407,6,10,B|104:216|128:320|208:256,1,140
152,192,7202,2,10,B|208:128|232:232|312:168,1,140
368,192,7997,6,0,B|464:192|464:192,1,70,0|8
368,192,8394,2,0,B|416:256|416:256,1,70,0|8
368,192,8791,2,0,B|368:280|368:280,2,70,0|8|0
304,56,9586,6,2,B|232:32|160:72,1,140
168,67,10182,1,2
168,67,10380,2,2,B|96:112|120:192,1,140
118,186,10976,5,2
118,186,11175,2,2,B|144:272|248:248,3,140
256,328,12764,5,0
320,272,13162,1,8
368,208,13559,1,0
392,128,13956,1,8
384,48,14354,1,0
344,40,14553,5,0
304,48,14751,1,8
208,48,15149,1,0
168,40,15348,1,0
128,48,15546,1,8
64,104,15943,2,2,B|104:128|48:144|88:160,2,70,0|0|8
48,232,16738,6,0,B|136:248|136:248,1,70
160,248,17135,2,0,B|180:164|180:164,1,70
184,136,17533,1,4
256,192,17731,12,0,20711
168,232,21109,6,2,B|256:312|368:224,1,210
358,230,21904,1,8
360,144,22301,2,2,B|272:64|160:152,1,210
168,144,23096,1,8
88,168,23493,1,8
48,240,23890,1,4
88,312,24288,6,2,B|176:392|288:304,1,210
280,312,25083,1,8
208,272,25480,6,2,B|296:192|408:280,1,210
400,272,26275,1,8
472,224,26672,1,0
416,160,27069,1,4
344,232,27466,6,2,B|256:312|144:224,1,210
153,230,28261,1,8
152,144,28658,2,2,B|240:64|352:152,1,210
344,144,29453,1,8
424,168,29850,1,8
464,240,30247,1,4
424,312,30645,6,2,B|336:392|224:304,1,210
232,312,31440,1,8
304,272,31837,6,2,B|216:192|104:280,1,210
112,272,32632,1,8
40,224,33029,1,8
480,40,33427,6,8,B|424:104|400:0|320:64,1,140
376,128,34222,2,8,B|320:192|296:88|216:152,1,140
256,192,35017,6,0,B|352:192|352:192,1,70,0|8
256,192,35414,2,0,B|304:256|304:256,1,70,0|8
256,192,35811,2,0,B|256:280|256:280,2,70,0|8|0
184,280,36606,6,4,B|136:248|136:192|184:160,1,140
80,160,37401,2,0,B|128:128|128:72|80:40,1,140
256,40,38195,6,0,B|328:40|328:40,1,70,4|8
280,112,38593,2,0,B|360:112|360:112,1,70,4|8
432,112,38990,1,0
432,112,39387,1,4
464,280,39785,6,10,B|408:216|384:320|304:256,1,140
360,192,40580,2,10,B|304:128|280:232|200:168,1,140
144,192,41375,6,0,B|48:192|48:192,1,70,0|8
144,192,41772,2,0,B|96:256|96:256,1,70,0|8
144,192,42169,2,0,B|144:280|144:280,2,70,0|8|0
208,56,42964,6,2,B|280:32|352:72,1,140
343,67,43560,1,2
343,67,43758,2,2,B|416:112|392:192,1,140
393,186,44354,5,2
393,186,44553,2,2,B|368:272|264:248,3,140
256,328,46142,5,0
192,272,46540,1,8
144,208,46937,1,0
120,128,47334,1,8
128,48,47732,1,0
168,40,47931,5,0
208,48,48129,1,8
304,48,48527,1,0
344,40,48726,1,0
384,48,48924,1,8
448,104,49321,2,2,B|408:128|464:144|424:160,2,70,0|0|8
464,232,50116,6,0,B|376:248|376:248,1,70
352,248,50513,2,0,B|331:164|331:164,1,70
328,136,50911,1,4
256,192,51109,12,0,54089
344,232,54487,6,2,B|256:312|144:224,1,210
153,230,55282,1,8
152,144,55679,2,2,B|240:64|352:152,1,210
344,144,56474,1,8
424,168,56871,1,8
464,240,57268,1,4
424,312,57666,6,2,B|336:392|224:304,1,210
232,312,58461,1,8
304,272,58858,6,2,B|216:192|104:280,1,210
112,272,59653,1,8
40,224,60050,1,0
96,160,60447,1,4
168,232,60844,6,2,B|256:312|368:224,1,210
358,230,61639,1,8
360,144,62036,6,2,B|272:64|160:152,1,210
168,144,62831,1,8
88,168,63228,1,8
48,240,63625,1,4
88,312,64023,6,2,B|176:392|288:304,1,210
280,312,64818,1,8
208,272,65215,6,2,B|296:192|408:280,1,210
400,272,66010,1,8
472,224,66407,1,8
