osu file format v7

[General]
AudioFilename: Narwhals.mp3
AudioLeadIn: 3000
PreviewTime: -1
Countdown: 1
SampleSet: Soft
StackLeniency: 0.7
Mode: 0
LetterboxInBreaks: 1

[Editor]
DistanceSpacing: 1.60000002384186
BeatDivisor: 4
GridSize: 8

[Metadata]
Title:Narwhals
Artist:Weebl
Creator:StrayerFox
Version:Nard
Source:
Tags:weebl mrweeble mr narwhals youtube you tube

[Difficulty]
HPDrainRate:6
CircleSize:5
OverallDifficulty:6
SliderMultiplier:1.4
SliderTickRate:2

[Events]
//Background and Video events
0,0,"narw.jpg"
Video,0,"Narwhals.flv"
//Break Periods
//Storyboard Layer 0 (Background)
//Storyboard Layer 1 (Fail)
//Storyboard Layer 2 (Pass)
//Storyboard Layer 3 (Foreground)
//Storyboard Sound Samples
//Background Colour Transformations
3,100,202,202,255

[TimingPoints]
49.697144020866,397.350993377483,4,2,0,100,1,0
23294,-50,4,2,0,100,0,0
27069,-100,4,2,0,100,0,0
56672,-50,4,2,0,100,0,0
60447,-100,4,2,0,100,0,0
66208,-100,4,1,0,100,0,0
66407,-100,4,2,0,100,0,1

[Colours]
Combo1 : 219,219,219
Combo2 : 0,128,255
Combo3 : 169,214,199

[HitObjects]
256,80,49,2,0,B|176:96|176:96,1,70
104,64,447,2,8,B|56:128|56:128,1,70
32,208,844,2,0,B|120:240|120:240,1,70
184,264,1241,2,8,B|232:192|232:192,1,70
448,56,1639,5,0
360,32,1837,1,0
272,56,2036,1,8
360,32,2235,1,4
448,56,2433,2,0,B|528:88|416:120|488:176,1,140,4|8
64,328,3228,5,0
152,352,3426,1,0
240,328,3625,1,8
152,352,3824,1,4
64,328,4022,2,0,B|-16:296|96:264|24:208,1,140,4|8
448,328,4817,6,2,B|376:328|376:328,1,70
448,272,5215,2,2,B|376:272|376:272,1,70,10|2
448,216,5612,2,2,B|376:216|376:216,2,70,2|10|10
256,80,6407,6,0,B|336:96|336:96,1,70
408,64,6805,2,8,B|456:128|456:128,1,70
480,208,7202,2,0,B|392:240|392:240,1,70
328,264,7599,2,8,B|280:192|280:192,1,70
192,336,7996,5,0
192,264,8195,1,0
192,192,8394,1,8
192,120,8592,1,8
192,48,8791,2,0,B|136:80|96:16|32:64,1,140
416,344,9586,6,0,B|488:296|488:296,1,70
424,232,9983,1,8
360,280,10182,2,0,B|312:224|312:224,1,70
360,280,10579,2,0,B|389:205|389:205,1,70,0|8
336,144,10976,5,0
336,144,11175,1,0
336,56,11374,1,0
256,24,11572,1,8
216,16,11672,1,0
176,24,11771,1,8
104,64,11970,2,0,B|56:104|88:144,1,70
104,200,12367,1,8
120,352,12764,6,2,B|200:352|200:352,1,70,2|10
128,296,13162,2,2,B|208:296|208:296,1,70,2|10
136,240,13559,2,2,B|216:240|216:240,1,70,2|10
144,184,13956,1,2
224,160,14155,1,10
152,112,14354,1,2
392,32,14553,6,2,B|312:32|312:32,1,70,2|10
384,88,14951,2,2,B|304:88|304:88,1,70,2|10
376,144,15348,2,2,B|296:144|296:144,1,70,2|10
368,200,15745,1,2
288,224,15944,1,10
160,296,16341,6,8,B|160:344|224:336,1,70
352,296,16738,2,8,B|352:344|288:336,1,70
88,184,17135,2,8,B|88:232|152:224,1,70
424,184,17533,2,8,B|424:232|360:224,1,70
256,192,17930,12,8,20314
256,192,20711,5,6
360,96,21109,2,2,B|320:104|336:144|280:144,1,70
160,88,21506,2,2,B|168:128|208:112|208:168,1,70
152,288,21904,2,2,B|192:280|176:240|232:240,1,70
352,296,22301,6,2,B|344:256|304:272|304:216,1,70
256,192,22897,1,6
256,192,23294,2,4,C|232:184|272:184|272:184|232:176|272:176|232:168|272:168|232:160|272:160|232:152|232:144|280:144,1,420
256,192,24288,5,6
256,192,24685,2,4,C|280:200|240:200|240:200|280:208|240:208|280:216|240:216|280:224|240:224|280:232|280:240|232:240,1,420
256,72,25480,5,0
328,120,25678,1,8
184,120,25877,1,0
368,184,26076,1,8
144,184,26274,1,0
184,264,26473,2,4,C|254:283|328:264|328:264,1,140
256,112,27069,5,6
328,104,27268,1,10
400,120,27466,1,2
456,168,27665,2,2,C|464:208|440:240,1,70,10|2
392,272,28062,2,2,C|352:280|328:256,1,70,10|2
296,200,28460,1,10
248,144,28658,5,6
176,136,28857,1,10
104,152,29055,1,2
48,200,29254,2,2,C|40:240|64:272,1,70,10|2
112,304,29651,2,2,C|152:312|176:288,1,70,10|2
208,232,30049,1,10
256,112,30248,5,6
256,200,30645,2,4,C|256:344,2,140,4|4|8
256,128,31639,1,2
256,56,31837,5,2
368,56,32036,2,2,C|400:88|384:128,1,70
144,56,32433,2,2,C|112:88|128:128,1,70
200,192,32831,1,4
312,192,33029,1,8
256,80,33427,6,0,B|336:96|336:96,1,70
408,64,33825,2,8,B|456:128|456:128,1,70
480,208,34222,2,0,B|392:240|392:240,1,70
328,264,34619,2,8,B|280:192|280:192,1,70
64,56,35017,5,0
152,32,35215,1,0
240,56,35414,1,8
152,32,35613,1,4
64,56,35811,2,0,B|-16:88|96:120|24:176,1,140,4|8
448,328,36606,5,0
360,352,36804,1,0
272,328,37003,1,8
360,352,37202,1,4
448,328,37400,2,0,B|528:296|416:264|488:208,1,140,4|8
64,328,38195,6,2,B|136:328|136:328,1,70
64,272,38593,2,2,B|136:272|136:272,1,70,10|2
64,216,38990,2,2,B|136:216|136:216,2,70,2|10|10
256,80,39785,6,0,B|176:96|176:96,1,70
104,64,40183,2,8,B|56:128|56:128,1,70
32,208,40580,2,0,B|120:240|120:240,1,70
184,264,40977,2,8,B|232:192|232:192,1,70
320,336,41374,5,0
320,264,41573,1,0
320,192,41772,1,8
320,120,41970,1,8
320,48,42169,2,0,B|376:80|416:16|480:64,1,140
96,344,42964,6,0,B|24:296|24:296,1,70
88,232,43361,1,8
152,280,43560,2,0,B|200:224|200:224,1,70
152,280,43957,2,0,B|122:206|122:206,1,70,0|8
176,144,44354,1,0
176,144,44553,5,0
176,56,44752,1,0
256,24,44950,1,8
296,16,45050,1,0
336,24,45149,1,8
408,64,45348,2,0,B|456:104|424:144,1,70
408,200,45745,1,8
392,352,46142,6,2,B|312:352|312:352,1,70,2|10
384,296,46540,2,2,B|304:296|304:296,1,70,2|10
376,240,46937,2,2,B|296:240|296:240,1,70,2|10
368,184,47334,1,2
288,160,47533,1,10
360,112,47732,1,2
120,32,47931,6,2,B|200:32|200:32,1,70,2|10
128,88,48329,2,2,B|208:88|208:88,1,70,2|10
136,144,48726,2,2,B|216:144|216:144,1,70,2|10
144,200,49123,1,2
224,224,49322,1,10
352,296,49719,6,8,B|352:344|288:336,1,70
160,296,50116,2,8,B|160:344|224:336,1,70
424,184,50513,2,8,B|424:232|360:224,1,70
88,184,50911,2,8,B|88:232|152:224,1,70
256,192,51308,12,8,53692
256,192,54089,5,6
152,96,54487,6,2,B|192:104|176:144|232:144,1,70
352,88,54884,2,2,B|344:128|304:112|304:168,1,70
360,288,55282,2,2,B|320:280|336:240|280:240,1,70
160,296,55679,2,2,B|168:256|208:272|208:216,1,70
256,192,56275,5,6
256,192,56672,2,4,C|280:184|240:184|240:184|280:176|240:176|280:168|240:168|280:160|240:160|280:152|280:144|232:144,1,420
256,192,57665,5,6
256,192,58063,2,4,C|232:200|272:200|272:200|232:208|272:208|232:216|272:216|232:224|272:224|232:232|232:240|280:240,1,420
256,72,58857,5,0
184,120,59055,1,8
328,120,59254,1,0
144,184,59453,1,8
368,184,59651,1,0
328,264,59850,2,4,C|258:283|184:264|184:264,1,140
256,112,60447,5,6
184,104,60646,1,10
112,120,60844,1,2
56,168,61043,2,2,C|48:208|72:240,1,70,10|2
120,272,61440,2,2,C|160:280|184:256,1,70,10|2
216,200,61838,1,10
264,144,62036,5,6
336,136,62235,1,10
408,152,62433,1,2
464,200,62632,2,2,C|472:240|448:272,1,70,10|2
400,304,63029,2,2,C|360:312|336:288,1,70,10|2
304,232,63427,1,10
256,112,63626,5,6
256,200,64023,2,4,C|256:344,2,140,4|4|8
256,128,65017,1,2
256,56,65215,5,6
144,56,65414,2,6,C|112:88|128:128,1,70
368,56,65811,2,6,C|400:88|384:128,1,70
312,192,66209,1,6
200,192,66407,1,8
