osu file format v10

[General]
AudioFilename: Amazing Horse.mp3
AudioLeadIn: 0
PreviewTime: 3631
Countdown: 0
SampleSet: Soft
StackLeniency: 0.7
Mode: 0
LetterboxInBreaks: 0

[Editor]
DistanceSpacing: 0.8
BeatDivisor: 4
GridSize: 4

[Metadata]
Title:Amazing Horse
TitleUnicode:Amazing Horse
Artist:Weebl
ArtistUnicode:Weebl
Creator:Blue Dragon
Version:Normal
Source:
Tags:weebl's stuff look at my horse
BeatmapID:166020
BeatmapSetID:54631

[Difficulty]
HPDrainRate:4
CircleSize:3
OverallDifficulty:4
ApproachRate:4
SliderMultiplier:1.2
SliderTickRate:2

[Events]
//Background and Video events
0,0,"bg.jpg"
//Break Periods
2,29490,34370
//Storyboard Layer 0 (Background)
//Storyboard Layer 1 (Fail)
//Storyboard Layer 2 (Pass)
//Storyboard Layer 3 (Foreground)
//Storyboard Sound Samples
//Background Colour Transformations
3,100,163,162,255

[TimingPoints]
3690,400,4,2,0,80,1,0

[Colours]
Combo1 : 188,124,103
Combo2 : 222,152,159
Combo3 : 124,238,96
Combo4 : 137,156,192

[HitObjects]
227,345,3690,2,0,B|256:361|284:345,2,60,0|2|8,0:0|0:0|0:0,0:0:0
197,249,4490,2,0,B|256:270|314:249,1,120,2|0,0:0|0:0,0:0:0
256,168,5290,1,2,0:0:0
200,92,5690,1,0,0:0:0
200,92,5890,2,0,B|256:52|312:92,1,120,2|2,0:0|0:0,0:0:0
448,140,6890,6,0,B|444:252|340:264,1,180,2|2,0:0|0:0,0:0:0
220,340,8090,1,8,0:0:0
169,263,8490,6,0,B|68:252|64:140,1,180,2|2,0:0|0:0,0:0:0
208,128,9690,1,8,0:0:0
272,200,10090,6,0,B|306:148|308:72|236:40,2,180,2|2|2,0:0|0:0|0:0,0:0:0
208,128,11690,2,0,B|160:184|176:260|248:288,2,180,2|2|2,0:0|0:0|0:0,0:0:0
304,128,13290,1,2,0:0:0
400,128,13690,1,0,0:0:0
400,128,13890,1,2,0:0:0
448,264,14490,5,2,0:0:0
352,252,14890,2,0,B|300:364,1,120,2|8,0:0|0:0,0:0:0
210,360,15690,2,0,B|160:252,1,120,2|8,0:0|0:0,0:0:0
160,156,16490,5,4,0:0:0
208,72,16890,1,8,0:0:0
304,72,17290,1,2,0:0:0
352,156,17690,1,8,0:0:0
256,156,18090,6,0,B|256:340,2,180,2|2|8,0:0|0:0|0:0,0:0:0
160,152,19690,2,0,B|160:92|160:92|208:56,1,120,2|8,0:0|0:0,0:0:0
304,56,20490,2,0,B|352:92|352:92|352:152,1,120,2|8,0:0|0:0,0:0:0
384,244,21290,5,2,0:0:0
304,300,21690,1,8,0:0:0
208,300,22090,1,2,0:0:0
128,244,22490,1,8,0:0:0
196,176,22890,6,0,B|316:176,1,120,2|8,0:0|0:0,0:0:0
408,148,23690,1,2,0:0:0
408,148,23890,1,0,0:0:0
408,148,24090,1,8,0:0:0
371,59,24490,6,0,B|250:23|260:119|140:83,2,240,2|2|4,0:0|0:0|0:0,0:0:0
460,92,26490,5,0,0:0:0
500,180,26890,1,2,0:0:0
480,276,27290,1,8,0:0:0
404,336,27690,2,0,B|368:341|338:320|328:286|336:260,1,120,2|0,0:0|0:0,0:0:0
268,193,28490,1,2,0:0:0
268,193,28690,1,0,0:0:0
268,193,28890,1,0,0:0:0
312,108,29290,5,4,0:0:0
208,40,35690,5,2,0:0:0
304,40,36090,1,8,0:0:0
256,124,36490,2,0,B|216:179|256:236|256:236|294:292|256:348,1,240,2|2,0:0|0:0,0:0:0
176,296,37690,1,8,0:0:0
148,204,38090,2,0,B|136:144|160:76|216:48,2,180,2|2|8,0:0|0:0|0:0,0:0:0
176,296,39690,5,2,0:0:0
256,352,40090,1,0,0:0:0
332,296,40490,2,0,B|408:132,2,180,2|2|2,0:0|0:0|0:0,0:0:0
256,352,42090,1,4,0:0:0
256,256,42490,5,2,0:0:0
199,174,42890,2,0,B|256:140|312:174,1,120,2|8,0:0|0:0,0:0:0
348,84,43690,1,2,0:0:0
256,56,44090,1,0,0:0:0
256,56,44490,5,2,0:0:0
164,84,44890,1,8,0:0:0
200,176,45290,1,2,0:0:0
256,252,45690,2,0,B|256:376,2,120,8|2|8,0:0|0:0|0:0,0:0:0
332,192,46890,5,4,0:0:0
256,132,47290,2,0,B|256:72,2,60,8|0|2,0:0|0:0|0:0,0:0:0
180,192,48090,1,8,0:0:0
180,192,48290,1,4,0:0:0
