osu file format v14

[General]
AudioFilename: Mapping Styles.mp3
AudioLeadIn: 0
PreviewTime: 90
Countdown: 0
SampleSet: Soft
StackLeniency: 0.7
Mode: 0
LetterboxInBreaks: 0
WidescreenStoryboard: 1

[Editor]
Bookmarks: 4757
DistanceSpacing: 0.5
BeatDivisor: 8
GridSize: 4
TimelineZoom: 2.6

[Metadata]
Title:mapping styles
TitleUnicode:mapping styles
Artist:Weber
ArtistUnicode:Weber
Creator:Shizuku-
Version:thank mr emanfman
Source:
Tags:Spongebob Squarepants Reddit Meme Kaine -BM Jon Strategas Torren Avishay Farfarr3 Exile- AlneCraft ohad1881 -Nishiki- Supev MILES Wojowu Hydria Anxient -Faded- xLolicore- squirrelpascals JamesHappy Last Spell -GriM- KuranteMelodii kml1584 Underforest PokeFan16 strickluke [-obee58-] Tatsumaki
BeatmapID:919690
BeatmapSetID:422972

[Difficulty]
HPDrainRate:7
CircleSize:5
OverallDifficulty:8
ApproachRate:9
SliderMultiplier:2.4
SliderTickRate:0.5

[Events]
//Background and Video events
0,0,"Monstrata.png",0,0
//Break Periods
//Storyboard Layer 0 (Background)
//Storyboard Layer 1 (Fail)
//Storyboard Layer 2 (Pass)
//Storyboard Layer 3 (Foreground)
//Storyboard Sound Samples

[TimingPoints]
90,333.333333333333,4,2,0,100,1,0
131,-100,4,2,0,5,0,0
256,-100,4,2,0,100,0,0
298,-100,4,2,0,5,0,0
423,-100,4,2,0,100,0,0
464,-100,4,2,0,5,0,0
673,333.333333333333,4,2,0,100,1,0
673,-100,4,2,0,100,0,0
714,-100,4,2,0,5,0,0
839,-100,4,2,0,100,0,0
881,-100,4,2,0,5,0,0
1089,-100,4,2,0,100,0,0
1131,-100,4,2,0,5,0,0
1297,333.333333333333,4,2,0,100,1,0
1505,-100,4,2,0,5,0,0
1671,333.333333333333,4,2,0,100,1,0
1712,-100,4,2,0,5,0,0
2337,-100,4,2,0,100,0,0
2630,333.333333333333,4,2,0,100,1,0
2672,-100,4,2,0,100,0,0
3421,333.333333333333,4,2,0,100,1,0
3422,-100,4,2,0,100,0,0
4535,222.222222222222,4,2,0,100,1,0

[HitObjects]
112,176,90,5,0,0:0:0:0:
180,72,256,1,0,0:0:0:0:
260,192,423,1,0,0:0:0:0:
264,328,673,5,0,0:0:0:0:
356,184,839,1,0,0:0:0:0:
440,336,1089,1,0,0:0:0:0:
436,60,1297,5,0,0:0:0:0:
416,80,1380,1,0,0:0:0:0:
440,88,1464,1,0,0:0:0:0:
112,240,1712,5,0,0:0:0:0:
132,192,1754,1,0,0:0:0:0:
160,240,1795,1,0,0:0:0:0:
112,240,1837,1,0,0:0:0:0:
128,192,1879,1,0,0:0:0:0:
160,240,1920,1,0,0:0:0:0:
112,240,1962,1,0,0:0:0:0:
132,192,2004,1,0,0:0:0:0:
160,240,2045,1,0,0:0:0:0:
112,240,2087,1,0,0:0:0:0:
132,184,2129,1,0,0:0:0:0:
160,240,2170,1,0,0:0:0:0:
112,240,2212,1,0,0:0:0:0:
384,80,2337,5,0,0:0:0:0:
384,112,2379,1,0,0:0:0:0:
348,112,2420,1,0,0:0:0:0:
344,80,2462,1,0,0:0:0:0:
272,268,2671,5,0,0:0:0:0:
272,300,2713,1,0,0:0:0:0:
308,300,2754,1,0,0:0:0:0:
312,268,2796,1,0,0:0:0:0:
272,268,2838,1,0,0:0:0:0:
272,300,2880,1,0,0:0:0:0:
308,300,2921,1,0,0:0:0:0:
312,268,2963,1,0,0:0:0:0:
272,268,3004,1,0,0:0:0:0:
272,300,3046,1,0,0:0:0:0:
308,300,3087,1,0,0:0:0:0:
312,268,3129,1,0,0:0:0:0:
272,268,3171,1,0,0:0:0:0:
272,300,3213,1,0,0:0:0:0:
308,300,3254,1,0,0:0:0:0:
312,268,3296,1,0,0:0:0:0:
256,192,3421,12,0,4212,0:0:0:0:
88,88,4535,5,0,0:0:0:0:
145,72,4590,1,0,0:0:0:0:
205,67,4646,1,0,0:0:0:0:
265,71,4701,1,0,0:0:0:0:
323,85,4757,1,0,0:0:0:0:
375,113,4812,1,0,0:0:0:0:
404,164,4868,1,0,0:0:0:0:
384,219,4923,1,0,0:0:0:0:
338,257,4979,1,0,0:0:0:0:
283,282,5035,1,0,0:0:0:0:
225,294,5090,1,0,0:0:0:0:
165,293,5146,1,0,0:0:0:0:
143,252,5201,1,0,0:0:0:0:
191,216,5257,1,0,0:0:0:0:
245,190,5312,1,0,0:0:0:0:
299,164,5368,1,0,0:0:0:0:
356,146,5423,1,0,0:0:0:0:
406,173,5479,1,0,0:0:0:0:
413,231,5535,1,0,0:0:0:0:
387,285,5590,1,0,0:0:0:0:
343,325,5646,1,0,0:0:0:0:
288,350,5701,1,0,0:0:0:0:
231,352,5757,1,0,0:0:0:0:
212,297,5812,1,0,0:0:0:0:
211,237,5868,1,0,0:0:0:0:
215,177,5923,1,0,0:0:0:0:
222,118,5979,1,0,0:0:0:0:
228,58,6035,1,0,0:0:0:0:
