osu file format v14

[General]
AudioFilename: Mapping Styles.mp3
AudioLeadIn: 0
PreviewTime: 90
Countdown: 0
SampleSet: Soft
StackLeniency: 0.7
Mode: 0
LetterboxInBreaks: 0
WidescreenStoryboard: 1

[Editor]
Bookmarks: 4757
DistanceSpacing: 0.5
BeatDivisor: 16
GridSize: 4
TimelineZoom: 2.6

[Metadata]
Title:mapping styles
TitleUnicode:mapping styles
Artist:Weber
ArtistUnicode:Weber
Creator:Shizuku-
Version:TAG4
Source:
Tags:Spongebob Squarepants Reddit Meme Kaine -BM Jon Strategas Torren Avishay Farfarr3 Exile- AlneCraft ohad1881 -Nishiki- Supev MILES Wojowu Hydria Anxient -Faded- xLolicore- squirrelpascals JamesHappy Last Spell -GriM- KuranteMelodii kml1584 Underforest PokeFan16 strickluke [-obee58-] Tatsumaki
BeatmapID:919688
BeatmapSetID:422972

[Difficulty]
HPDrainRate:6
CircleSize:4
OverallDifficulty:9
ApproachRate:10
SliderMultiplier:2.4
SliderTickRate:0.5

[Events]
//Background and Video events
0,0,"Monstrata.png",0,0
//Break Periods
//Storyboard Layer 0 (Background)
//Storyboard Layer 1 (Fail)
//Storyboard Layer 2 (Pass)
//Storyboard Layer 3 (Foreground)
//Storyboard Sound Samples

[TimingPoints]
90,333.333333333333,4,2,0,100,1,0
131,-100,4,2,0,5,0,0
256,-100,4,2,0,100,0,0
298,-100,4,2,0,5,0,0
423,-100,4,2,0,100,0,0
464,-100,4,2,0,5,0,0
673,333.333333333333,4,2,0,100,1,0
673,-100,4,2,0,100,0,0
714,-100,4,2,0,5,0,0
839,-100,4,2,0,100,0,0
881,-100,4,2,0,5,0,0
922,-66.6666666666667,4,2,0,5,0,0
1089,-100,4,2,0,100,0,0
1131,-100,4,2,0,5,0,0
1297,333.333333333333,4,2,0,100,1,0
1505,-100,4,2,0,5,0,0
1671,333.333333333333,4,2,0,100,1,0
1712,-100,4,2,0,5,0,0
1754,-100,4,2,0,5,0,0
2337,-100,4,2,0,100,0,0
2441,-50,4,2,0,100,0,0
2630,333.333333333333,4,2,0,100,1,0
2672,-100,4,2,0,100,0,0
2853,-50,4,2,0,100,0,0
3421,333.333333333333,4,2,0,100,1,0
3422,-100,4,2,0,100,0,0
3530,-66.6666666666667,4,2,0,100,0,0
3609,-50,4,2,0,100,0,0
3991,-50,4,2,0,100,0,0
4535,222.222222222222,4,2,0,100,1,0

[HitObjects]
144,152,152,5,0,0:0:0:0:
240,232,235,6,0,L|276:168,1,60
148,144,464,5,0,0:0:0:0:
360,276,527,5,0,0:0:0:0:
252,184,589,5,0,0:0:0:0:
356,132,652,5,0,0:0:0:0:
148,264,714,5,0,0:0:0:0:
132,140,777,6,0,B|132:100|132:100|188:96,1,90
380,244,964,6,0,B|380:284|380:284|324:288,1,90
216,196,1110,6,0,L|252:196,5,30
56,36,1837,5,0,0:0:0:0:
476,32,1879,5,0,0:0:0:0:
480,368,1920,5,0,0:0:0:0:
32,376,1962,5,0,0:0:0:0:
476,32,2004,5,0,0:0:0:0:
480,368,2045,5,0,0:0:0:0:
56,36,2087,5,0,0:0:0:0:
32,376,2129,5,0,0:0:0:0:
480,368,2170,5,0,0:0:0:0:
256,188,2316,5,0,0:0:0:0:
468,368,2462,5,0,0:0:0:0:
48,372,2504,5,0,0:0:0:0:
44,36,2545,5,0,0:0:0:0:
492,28,2587,5,0,0:0:0:0:
48,372,2629,5,0,0:0:0:0:
44,36,2670,5,0,0:0:0:0:
468,368,2712,5,0,0:0:0:0:
492,28,2754,5,0,0:0:0:0:
44,36,2795,5,0,0:0:0:0:
32,200,3213,6,0,L|32:136,1,60
488,136,3441,6,0,L|488:184,1,45.0000017166138
28,136,3691,6,0,L|28:200,1,60
488,181,3920,6,0,L|488:133,1,45.0000017166138
212,152,4525,5,0,0:0:0:0:
212,152,4743,5,0,0:0:0:0:
212,152,4965,5,0,0:0:0:0:
296,240,5173,5,0,0:0:0:0:
244,32,5409,5,0,0:0:0:0:
40,376,5437,5,0,0:0:0:0:
468,376,5465,5,0,0:0:0:0:
188,92,5493,5,0,0:0:0:0:
384,380,5521,5,0,0:0:0:0:
64,296,5548,1,0,0:0:0:0:
440,304,5576,5,0,0:0:0:0:
312,92,5604,5,0,0:0:0:0:
128,376,5632,5,0,0:0:0:0:
144,160,5659,5,0,0:0:0:0:
396,240,5687,5,0,0:0:0:0:
104,224,5715,5,0,0:0:0:0:
360,164,5743,5,0,0:0:0:0:
296,380,5771,5,0,0:0:0:0:
212,372,5798,5,0,0:0:0:0:
80,32,5826,5,0,0:0:0:0:
468,384,5854,5,0,0:0:0:0:
496,32,5882,5,0,0:0:0:0:
44,376,5909,5,0,0:0:0:0:
