osu file format v9

[General]
AudioFilename: Friday Is Forever.mp3
AudioLeadIn: 0
PreviewTime: 33141
Countdown: 1
SampleSet: Soft
StackLeniency: 0.5
Mode: 0
LetterboxInBreaks: 0

[Editor]
Bookmarks: 56505,59816,109471,112781,139264,145885
DistanceSpacing: 0.8
BeatDivisor: 4
GridSize: 4

[Metadata]
Title:Friday Is Forever
Artist:We the Kings
Creator:Krisom
Version:Insane
Source:
Tags:Rebecca Black Larto narakucrimson IceBeam WTK

[Difficulty]
HPDrainRate:6
CircleSize:5
OverallDifficulty:8
ApproachRate:8
SliderMultiplier:1.94
SliderTickRate:2

[Events]
//Background and Video events
0,0,"BG.jpg"
Video,0,"FiF yo.AVI"
//Break Periods
2,56720,59081
2,109685,112046
2,139479,145150
//Storyboard Layer 0 (Background)
//Storyboard Layer 1 (Fail)
//Storyboard Layer 2 (Pass)
//Storyboard Layer 3 (Foreground)
//Storyboard Sound Samples
//Background Colour Transformations
3,100,163,162,255

[TimingPoints]
245,413.793103448276,4,2,1,90,1,0
19382,-100,4,2,0,90,0,0
20055,-100,4,2,1,90,0,0
29934,-100,4,2,1,65,0,0
30141,-100,4,2,1,90,0,0
30762,-100,4,2,1,65,0,0
30969,-100,4,2,1,90,0,0
31589,-100,4,2,1,65,0,0
31796,-100,4,2,1,90,0,0
33141,-86.9565217391304,4,2,1,100,0,1
56520,-100,4,2,0,100,0,0
56624,-100,4,2,1,90,0,0
72348,-100,4,2,0,90,0,0
73020,-100,4,2,1,90,0,0
82900,-100,4,2,1,65,0,0
83107,-100,4,2,1,90,0,0
83727,-100,4,2,1,65,0,0
83934,-100,4,2,1,90,0,0
84555,-100,4,2,1,65,0,0
84762,-100,4,2,1,90,0,0
86107,-86.9565217391304,4,2,1,100,0,1
109486,-100,4,2,0,100,0,0
112589,-133.333333333333,4,2,0,100,0,0
113520,-133.333333333333,4,1,0,80,0,0
113831,-133.333333333333,4,2,0,100,0,0
115279,-133.333333333333,4,1,0,80,0,0
115382,-133.333333333333,4,2,0,100,0,0
116831,-133.333333333333,4,1,0,80,0,0
117245,-133.333333333333,4,2,0,100,0,0
118486,-133.333333333333,4,1,0,80,0,0
118693,-133.333333333333,4,2,0,100,0,0
120141,-133.333333333333,4,1,0,80,0,0
120451,-133.333333333333,4,2,0,100,0,0
121796,-133.333333333333,4,1,0,80,0,0
122003,-133.333333333333,4,2,0,100,0,0
125107,-133.333333333333,4,1,0,90,0,0
125727,-133.333333333333,4,2,0,100,0,0
126762,-133.333333333333,4,1,0,80,0,0
127072,-133.333333333333,4,2,0,100,0,0
128520,-133.333333333333,4,1,0,80,0,0
128624,-133.333333333333,4,2,0,100,0,0
130072,-133.333333333333,4,1,0,80,0,0
130486,-133.333333333333,4,2,0,100,0,0
131727,-133.333333333333,4,1,0,80,0,0
131934,-133.333333333333,4,2,0,100,0,0
133382,-133.333333333333,4,1,0,80,0,0
133693,-133.333333333333,4,2,0,100,0,0
135038,-133.333333333333,4,1,0,80,0,0
135245,-133.333333333333,4,2,0,100,0,0
145900,-100,4,2,1,50,0,0
146727,-100,4,2,1,60,0,0
147555,-100,4,2,1,70,0,0
147969,-100,4,1,1,70,0,0
148382,-100,4,1,1,80,0,0
149003,-86.9565217391304,4,1,0,100,0,0
149107,-86.9565217391304,4,1,0,80,0,0
149831,-86.9565217391304,4,1,0,100,0,0
149934,-86.9565217391304,4,1,0,80,0,0
150658,-86.9565217391304,4,1,0,100,0,0
150762,-86.9565217391304,4,1,0,80,0,0
150865,-86.9565217391304,4,2,1,100,0,0
152313,-86.9565217391304,4,2,1,100,0,1
172279,-86.9565217391304,4,2,1,100,0,0
172382,-86.9565217391304,4,2,1,100,0,1
172486,-86.9565217391304,4,2,1,100,0,0
172589,-86.9565217391304,4,2,1,90,0,0
173003,-86.9565217391304,4,2,1,80,0,0
173417,-86.9565217391304,4,2,1,70,0,0
173831,-86.9565217391304,4,2,1,60,0,0
174245,-86.9565217391304,4,2,1,50,0,0
174658,-86.9565217391304,4,2,1,40,0,0
175279,-86.9565217391304,4,2,1,30,0,0
175900,-86.9565217391304,4,2,1,20,0,0
176520,-86.9565217391304,4,2,1,10,0,0
177141,-86.9565217391304,4,2,1,0,0,0

[Colours]
Combo1 : 250,194,5
Combo2 : 255,47,52
Combo3 : 100,216,14
Combo4 : 61,179,250

[HitObjects]
440,356,6865,2,0,B|512:268|440:180,1,194,4|8
368,212,7486,1,8
344,140,7693,2,0,B|256:68|168:140,1,194,2|8
168,64,8313,2,0,B|168:256,1,194
108,212,8934,2,0,B|108:312,1,97,8|8
48,212,9348,2,0,B|48:112,1,97,2|0
88,48,9762,1,8
144,100,9969,1,0
200,152,10176,6,0,B|252:192|292:160|332:128|384:168,1,194,0|8
420,236,10796,1,8
468,300,11003,2,0,B|384:300|384:300|360:312|360:312|276:312,1,194,2|8
200,312,11624,2,0,B|128:224|200:136,1,194,0|0
212,60,12244,2,0,B|228:110|277:125,1,97,8|8
292,48,12658,2,0,B|340:80|384:48,1,97,2|0
456,24,13072,1,8
472,100,13279,1,8
476,112,13382,1,8
480,124,13486,6,0,B|500:180|500:180|504:232|448:264|408:216,1,194,0|8
372,148,14107,1,8
348,76,14313,2,0,B|256:23|164:76,1,194,2|8
84,80,14934,2,0,B|156:168|84:256,1,194,0|0
20,300,15555,1,8
92,332,15762,1,8
84,256,15969,1,2
80,180,16176,1,0
148,212,16382,1,8
144,136,16589,1,0
188,72,16796,6,0,B|384:72,1,194,0|8
460,72,17417,2,0,B|400:160|456:256,1,194,8|2
492,324,18038,2,0,B|444:360|400:320,1,97,8|0
372,252,18451,1,0
336,184,18658,1,2
264,216,18865,1,8
300,284,19072,1,8
228,316,19279,2,0,B|180:344|136:316,1,97,2|8
24,232,19693,2,8,B|69:208|117:232,1,97
129,236,20003,1,8
140,240,20107,5,4
168,168,20313,1,2
200,96,20520,2,8,B|244:60|288:96,1,97
364,96,20934,2,0,B|364:56|364:56|356:40|356:40|356:-4,2,97,2|0|8
348,172,21555,2,0,B|296:212|256:180|216:148|164:188,1,194,2|0
112,244,22176,1,8
184,276,22382,2,0,B|160:328|96:320,1,97,8|2
118,163,22796,2,0,B|60:160|40:208,2,97,0|8|0
168,104,23417,6,0,B|256:176|344:104,1,194,0|8
420,124,24038,1,8
372,184,24244,2,0,B|396:232|368:280,1,97,2|0
308,324,24658,2,0,B|284:276|312:232,1,97,8|0
312,232,25279,1,0
280,160,25486,1,8
280,160,25693,1,8
244,92,25900,2,0,B|200:92|200:92|188:100|188:100|148:100,2,97,2|0|8
320,96,26520,1,8
320,96,26624,1,8
320,96,26727,6,0,B|408:168|496:96,1,194,0|8
496,176,27348,1,8
496,252,27555,2,0,B|408:180|320:252,1,194,2|8
320,328,28176,1,0
252,292,28382,2,0,B|199:304|158:261,1,97,0|2
226,220,28796,2,0,B|175:195|177:136,1,97,8|8
216,76,29210,1,2
292,88,29417,1,0
368,100,29624,1,8
444,112,29831,1,0
444,36,30038,6,0,B|444:240,1,194,6|8
412,300,30658,1,8
372,368,30865,2,0,B|276:312|308:200,1,194,6|8
336,128,31486,1,0
400,172,31693,2,0,B|359:229|288:216|256:168|258:128,1,194,6|8
256,56,32313,1,0
188,96,32520,2,0,B|148:96|148:96|132:112|132:112|96:112,2,97,2|8|8
256,56,33141,6,0,B|356:56|356:56|436:56|436:132,1,223.100007313788,4|0
436,220,33762,2,0,B|384:248|328:224,1,111.550003656894,8|8
276,152,34176,2,0,B|326:122|382:154,1,111.550003656894,2|0
328,224,34589,1,8
352,312,34796,2,0,B|304:364|252:332|256:312|260:292|208:260|160:312,1,223.100007313788,4|0
88,260,35417,1,8
20,316,35624,2,0,B|-16:264|16:208,1,111.550003656894,8|2
84,88,36038,2,8,B|119:139|89:192,2,111.550003656894
84,76,36555,1,8
84,64,36658,5,0
160,16,36865,2,0,B|204:60|264:40,2,111.550003656894,2|8|8
156,104,37486,1,2
240,128,37693,1,0
324,152,37900,1,8
412,132,38107,2,0,B|500:232|412:332,1,223.100007313788,2|0
324,312,38727,1,8
256,252,38934,2,0,B|204:288|152:252,1,111.550003656894,8|2
256,188,39348,2,8,B|308:152|360:188,1,111.550003656894,0|8
364,88,39762,6,0,B|256:136|148:88,1,223.100007313788,4|0
64,120,40382,2,0,B|64:84|64:84|52:52|52:52|52:12,2,111.550003656894,8|8|2
64,208,41003,1,0
64,296,41210,1,8
4,364,41417,2,0,B|60:248|192:288,1,223.100007313788,4|0
276,308,42038,2,0,B|312:252|276:200,1,111.550003656894,8|8
224,68,42451,2,0,B|188:123|222:172,2,111.550003656894,2|8|8
304,28,43072,1,8
316,40,43176,1,8
328,52,43279,6,0,B|356:68|356:68|436:68,1,111.550003656894,0|2
464,152,43693,2,0,B|436:136|436:136|356:136,1,111.550003656894,8|8
272,104,44107,1,2
188,132,44313,1,0
256,192,44520,1,8
332,240,44727,2,0,B|308:316|256:328|204:316|180:240,1,223.100007313788,2|0
208,156,45348,2,0,B|164:108|104:140,1,111.550003656894,8|8
304,156,45762,2,0,B|348:108|408:140,1,111.550003656894,2|8
372,224,46176,1,8
420,300,46382,6,0,B|256:333|256:333|92:300,1,334.650010970682,4|8
76,212,47210,1,8
68,124,47417,2,0,B|136:120|160:184,1,111.550003656894,2|0
76,212,47831,1,8
100,300,48038,2,0,B|184:336|256:272|256:272|328:336|412:300,1,334.650010970682,4|8
436,212,48865,1,8
508,160,49072,2,0,B|444:184|404:132,1,111.550003656894,2|8
396,128,49382,1,0
388,120,49486,1,8
476,76,49693,1,0
508,160,49900,6,0,B|436:264|508:368,1,223.100007313788,0|8
420,352,50520,1,8
332,340,50727,2,0,B|280:372|224:340,1,111.550003656894,2|0
276,268,51141,2,0,B|328:236|384:268,1,111.550003656894,8|0
276,268,51555,2,0,B|364:168|276:68,1,223.100007313788,4|8
196,32,52176,1,8
204,120,52382,2,0,B|238:168|304:172|360:144|365:68,1,223.100007313788,4|8
276,68,53003,1,8
276,68,53107,1,8
276,68,53210,5,4
204,120,53417,2,0,B|152:152|96:116,1,111.550003656894,0|8
7,205,53831,2,0,B|58:173|112:208,1,111.550003656894,8|2
172,276,54245,1,0
256,304,54451,1,8
340,276,54658,1,0
380,196,54865,2,0,B|344:144|376:92,1,111.550003656894,0|2
444,196,55279,2,0,B|480:248|447:300,1,111.550003656894,8|8
404,380,55693,1,2
316,364,55900,1,0
256,304,56107,1,8
196,364,56313,1,0
108,380,56520,1,6
56,152,59831,22,0,B|-16:240|56:328,1,194,4|8
120,284,60451,1,8
184,328,60658,2,0,B|232:352|276:328,2,97,2|0|8
120,284,61279,2,0,B|160:224|128:192|96:160|136:100,1,194,2|0
168,28,61900,1,8
220,88,62107,2,0,B|268:108|316:88,1,97,8|2
448,144,62520,2,0,B|400:124|354:144,2,97,0|8|0
400,208,63141,6,0,B|476:296|400:384,1,194,0|8
328,352,63762,1,8
256,384,63969,2,0,B|180:296|256:208,1,194,2|8
332,208,64589,2,0,B|132:208,1,194
184,144,65210,2,8,B|84:144,1,97
132,80,65624,2,0,B|24:80,2,97,2|0|8
212,80,66245,1,8
228,80,66348,1,8
244,80,66451,6,0,B|340:40|432:80,1,194,0|8
400,152,67072,1,8
476,144,67279,2,0,B|548:232|476:320,1,194,2|8
404,348,67900,2,0,B|344:380|312:352|312:344|280:316|220:348,1,194,2|0
148,376,68520,1,8
76,348,68727,1,8
136,300,68934,2,0,B|168:256|144:208,1,97,2|0
80,248,69348,2,0,B|68:192|12:188,1,97,8|0
20,112,69762,6,0,B|80:112|80:112|120:88|180:100|196:144,1,194,0|8
128,180,70382,1,8
192,220,70589,2,0,B|240:244|284:220,2,97,2|0|8
128,180,71210,2,0,B|60:268|120:360,1,194,2|0
184,316,71831,1,8
248,360,72038,1,8
312,316,72245,2,0,B|360:344|404:316,1,97,2|8
497,239,72658,2,8,B|451:215|403:239,1,97
392,243,72969,1,8
381,247,73072,5,4
308,224,73279,1,2
232,244,73486,2,8,B|188:208|144:244,1,97
64,244,73900,2,0,B|64:284|64:284|56:300|56:300|56:344,2,97,2|0|8
64,168,74520,2,0,B|156:224|248:168,1,194,2|0
316,200,75141,1,8
388,168,75348,1,8
460,200,75555,2,0,B|484:248|460:300,1,97,2|0
400,340,75969,2,0,B|372:296|396:248,1,97,8|0
344,188,76382,6,0,B|256:260|168:188,1,194,0|8
104,148,77003,2,0,B|80:100|108:52,1,97,8|2
32,152,77417,2,0,B|56:200|28:244,1,97,0|8
28,324,77831,2,0,B|88:356|120:328|120:320|152:292|212:324,1,194,2|0
256,260,78451,1,8
304,196,78658,1,8
352,136,78865,2,0,B|396:164|444:136,2,97,2|0|8
396,72,79486,1,8
396,72,79589,1,8
396,72,79693,6,0,B|308:0|220:72,1,194,0|8
272,128,80313,1,8
220,184,80520,2,0,B|308:256|396:184,1,194,2|8
452,236,81141,1,0
452,312,81348,2,0,B|423:357|363:356,1,97,0|2
382,279,81762,2,0,B|328:297|287:254,1,97,8|8
348,204,82176,2,0,B|292:188|288:132,1,97,2|0
368,128,82589,1,8
424,76,82796,1,0
372,20,83003,6,0,B|296:20|296:20|216:20|216:84,1,194,6|8
216,164,83624,1,8
140,164,83831,2,0,B|216:164|216:164|296:164|296:228,1,194,6|8
296,308,84451,1,0
372,308,84658,2,0,B|296:308|296:308|216:308|216:372,1,194,6|8
136,372,85279,1,0
64,340,85486,2,0,B|20:372,2,48.5,2|8|8
128,292,85900,1,8
48,256,86107,6,0,B|-40:156|48:56,1,223.100007313788,4|0
124,108,86727,2,0,B|88:160|124:212,1,111.550003656894,8|8
196,268,87141,2,0,B|226:218|194:162,1,111.550003656894,2|0
124,108,87555,1,8
60,44,87762,2,0,B|160:44|288:44,1,223.100007313788,4|0
372,64,88382,1,8
460,44,88589,2,0,B|496:96|464:152,1,111.550003656894,8|2
396,272,89003,2,8,B|361:221|391:168,2,111.550003656894
404,280,89520,1,8
412,288,89624,5,0
352,356,89831,1,2
292,288,90038,2,0,B|240:316|184:288,1,111.550003656894,8|8
112,240,90451,1,2
40,292,90658,2,0,B|40:324|40:324|68:344|68:344|68:396,2,111.550003656894,0|8|0
40,292,91486,1,2
40,204,91693,2,0,B|148:268|252:204,1,223.100007313788,8|2
328,164,92313,1,0
400,216,92520,1,8
472,164,92727,6,0,B|560:264|472:364,1,223.100007313788,4|2
400,312,93348,2,0,B|348:344|292:312,1,111.550003656894,8|8
185,232,93762,2,0,B|237:200|292:232,2,111.550003656894,2|0|8
184,324,94382,2,0,B|184:92,1,223.100007313788,4|2
264,56,95003,1,8
340,100,95210,1,8
420,56,95417,2,0,B|452:116|420:164,2,111.550003656894,2|8|8
340,100,96038,1,8
340,100,96141,1,8
340,100,96245,6,0,B|288:128|288:128|232:128,1,111.550003656894,0|2
176,216,96658,2,0,B|228:188|228:188|284:188,1,111.550003656894,8|8
364,220,97072,1,2
448,188,97279,1,0
448,100,97486,1,8
364,64,97693,2,0,B|316:12|264:44|268:64|272:84|220:116|172:64,1,223.100007313788,0|0
96,20,98313,2,0,B|64:72|92:128,1,111.550003656894,8|8
156,248,98727,2,0,B|187:196|160:141,2,111.550003656894,2|0|8
112,328,99348,6,0,B|144:384|216:384|256:344|256:344|296:384|368:384|400:328,1,334.650010970682,4|8
400,236,100176,1,8
400,148,100382,2,0,B|444:148|444:148|472:160|472:160|512:160,2,111.550003656894,2|0|8
400,56,101003,2,0,B|368:0|296:0|256:40|256:40|216:0|144:0|112:56,1,334.650010970682,4|8
112,148,101831,1,8
112,236,102038,2,0,B|152:184|216:216,1,111.550003656894,2|8
216,220,102348,1,0
220,228,102451,1,8
256,308,102658,1,0
344,296,102865,6,0,B|372:232|332:192|332:192|372:152|344:88,1,223.100007313788,0|8
256,72,103486,1,8
172,104,103693,2,0,B|68:164,1,111.550003656894,2|0
196,168,104107,2,0,B|96:228,1,111.550003656894,8|0
32,284,104520,2,0,B|136:356|240:284,1,223.100007313788,4|8
256,192,105141,1,8
272,99,105348,2,0,B|376:28|480:100,1,223.100007313788,4|8
480,188,105969,1,8
480,200,106072,1,8
480,212,106176,6,0,B|428:248|376:212,1,111.550003656894,4|2
296,176,106589,1,8
216,216,106796,1,8
132,180,107003,2,0,B|132:300,1,111.550003656894,2|0
68,228,107417,2,0,B|68:112,1,111.550003656894,8|0
72,28,107831,2,0,B|128:56|184:28,1,111.550003656894,0|2
287,121,108245,2,0,B|231:94|180:120,1,111.550003656894,8|8
152,204,108658,1,2
124,288,108865,1,0
100,372,109072,2,0,B|48:372|48:372|32:364|32:364|-8:364,2,111.550003656894,8|0|6
328,328,112796,22,0,B|396:372|464:328,1,145.499995663762,4|0
424,276,113417,1,0
464,224,113624,2,0,B|396:180|328:224,1,145.499995663762,0|0
288,172,114245,1,0
320,116,114451,2,0,B|364:36|256:-47|148:36|192:116,1,290.999991327524,0|0
196,180,115486,2,0,B|128:220|56:180,1,145.499995663762
56,116,116107,6,0,B|56:76|56:76|44:56|44:56|44:8,2,109.124996747822
108,156,116934,2,0,B|108:196|108:196|120:216|120:216|120:264,2,109.124996747822,0|0|0
160,116,117762,2,0,B|160:76|160:76|172:56|172:56|172:8,2,109.124996747822,0|0|0
212,156,118589,1,0
212,156,119003,1,0
212,156,119417,6,0,B|280:204|348:156,1,145.499995663762
412,156,120038,1,0
412,92,120245,2,0,B|412:236,1,145.499995663762,0|0
412,304,120865,1,0
412,368,121072,2,0,B|464:396|520:368,2,109.124996747822
348,368,121900,1,0
348,368,122313,1,0
288,252,122727,6,0,B|332:192|332:192|256:71|256:71|180:192|180:192|224:252,1,436.499986991287,2|2
308,356,124382,2,0,B|256:384|204:356,2,109.124996747822
256,304,125210,1,0
256,304,125624,1,0
160,216,126038,6,0,B|92:172|24:216,1,145.499995663762,4|0
24,148,126658,1,0
24,84,126865,2,0,B|92:40|160:84,1,145.499995663762,0|0
224,100,127486,1,0
224,164,127693,2,0,B|224:268|224:268|256:316|288:268|288:268|288:164,1,290.999991327524,0|0
288,100,128727,2,0,B|356:60|428:100,1,145.499995663762
404,160,129348,6,0,B|444:160|444:160|464:172|464:172|512:172,2,109.124996747822
357,206,130176,2,0,B|385:234|385:234|390:256|390:256|424:290,2,109.124996747822,0|0|0
310,252,131003,2,0,B|310:292|310:292|298:312|298:312|298:360,2,109.124996747822,0|0|0
256,212,131831,1,0
256,212,132245,1,0
256,212,132658,6,0,B|188:164|120:212,1,145.499995663762
56,212,133279,1,0
56,277,133486,2,0,B|124:325|192:277,1,145.499995663762,0|0
256,280,134107,1,0
256,216,134313,2,0,B|256:168|256:108,2,109.124996747822
256,280,135141,1,0
256,280,135555,1,0
140,216,135969,6,0,B|96:148|176:64|256:148|256:148|336:64|416:148|372:216,1,436.499986991287,2|0
256,192,137624,12,4,139279
256,274,145900,37,2
256,274,146107,1,0
193,192,146313,1,8
193,192,146520,1,0
256,109,146727,1,2
256,109,146934,1,0
318,192,147141,1,8
318,192,147348,1,0
256,274,147555,22,0,B|207:317|144:288,1,97,2|0
193,192,147969,2,0,B|149:143|178:80,1,97,0|0
256,109,148382,2,0,B|304:66|367:95,1,97
318,192,148796,2,0,B|362:240|333:303,1,97,0|4
52,192,149417,37,0
52,192,149624,1,0
52,192,149831,1,4
460,192,150245,21,0
460,192,150451,1,0
460,192,150658,1,4
336,352,151072,5,2
360,268,151279,2,0,B|256:340|152:268,1,223.100007313788,8|2
176,352,151900,1,8
176,352,152107,1,8
88,344,152313,22,0,B|-37:192|88:40,1,334.650010970682,4|8
176,64,153141,1,8
256,108,153348,1,2
336,64,153555,1,8
336,64,153762,1,8
424,40,153969,2,0,B|549:192|424:344,1,334.650010970682,4|8
340,316,154796,2,0,B|288:352|236:316,1,111.550003656894,8|2
144,252,155210,1,8
144,252,155313,1,0
144,252,155417,2,0,B|195:216|247:251,1,111.550003656894,8|0
288,332,155831,6,0,B|200:232|288:132,1,223.100007313788,0|8
368,96,156451,1,8
448,136,156658,2,0,B|472:192|448:252,1,111.550003656894,2|0
380,188,157072,2,0,B|368:252|312:272,1,111.550003656894,8|0
292,184,157486,2,0,B|184:136|76:184,1,223.100007313788,4|8
76,272,158107,1,0
76,360,158313,2,0,B|184:408|292:360,1,223.100007313788,4|8
292,272,158934,1,8
292,260,159038,1,8
292,248,159141,6,0,B|400:296|508:248,1,223.100007313788,4|8
508,160,159762,1,8
448,92,159969,2,0,B|424:140|424:140|368:140,2,111.550003656894,2|0|8
376,40,160589,2,0,B|280:40|280:40|240:56|240:56|148:56,1,223.100007313788,4|0
216,124,161210,2,0,B|104:124,1,111.550003656894,8|8
164,192,161624,2,0,B|40:192,2,111.550003656894,2|0|8
280,328,162451,5,4
356,284,162658,1,0
432,328,162865,2,0,B|472:276|440:220,1,111.550003656894,8|8
389,52,163279,2,0,B|350:103|380:156,1,111.550003656894,2|0
456,112,163693,1,8
456,112,163900,2,0,B|352:160|240:112,1,223.100007313788,4|0
152,132,164520,1,8
64,112,164727,2,0,B|64:164|64:164|52:180|52:180|52:220,2,111.550003656894,8|2|0
64,24,165348,1,8
224,104,165762,6,0,B|344:104,2,111.550003656894,8|0|0
284,168,166382,2,0,B|396:168,2,111.550003656894,8|2|0
344,236,167003,2,0,B|236:284|128:236,1,223.100007313788,8|8
76,164,167624,1,0
124,88,167831,1,0
72,16,168038,2,0,B|208:16,2,111.550003656894,8|2|0
124,88,168658,1,8
311,39,169072,6,0,B|288:102|288:102|266:162,1,111.550003656894,8|0
408,247,169486,2,0,B|345:224|345:224|285:202,1,111.550003656894,0|8
200,344,169899,2,0,B|223:281|223:281|245:221,1,111.550003656894,2|0
103,136,170313,2,0,B|166:159|166:159|226:181,1,111.550003656894,8|0
403,123,170727,2,0,B|342:151|342:151|284:178,1,111.550003656894,8|8
324,339,171141,2,0,B|296:278|296:278|269:220,1,111.550003656894,8|8
108,260,171554,2,0,B|169:232|169:232|227:205,1,111.550003656894,8|8
187,44,171968,2,0,B|215:105|215:105|242:163,1,111.550003656894,8|8
256,232,172382,5,6
256,192,172589,12,0,177348
