osu file format v9

[General]
AudioFilename: Friday Is Forever.mp3
AudioLeadIn: 0
PreviewTime: 33141
Countdown: 1
SampleSet: Soft
StackLeniency: 0.5
Mode: 0
LetterboxInBreaks: 0

[Editor]
Bookmarks: 56505,59816,109471,112781,139264,145885
DistanceSpacing: 0.9
BeatDivisor: 4
GridSize: 4

[Metadata]
Title:Friday Is Forever
Artist:We the Kings
Creator:Krisom
Version:Hard
Source:
Tags:Rebecca Black Larto narakucrimson IceBeam WTK

[Difficulty]
HPDrainRate:5
CircleSize:4
OverallDifficulty:6
ApproachRate:6
SliderMultiplier:1.62
SliderTickRate:2

[Events]
//Background and Video events
0,0,"BG.jpg"
Video,0,"FiF yo.AVI"
//Break Periods
2,56720,58781
2,109686,111746
2,139479,144850
//Storyboard Layer 0 (Background)
//Storyboard Layer 1 (Fail)
//Storyboard Layer 2 (Pass)
//Storyboard Layer 3 (Foreground)
//Storyboard Sound Samples
//Background Colour Transformations
3,100,163,162,255

[TimingPoints]
245,413.793103448276,4,2,1,90,1,0
19382,-100,4,2,0,90,0,0
20055,-100,4,2,1,90,0,0
29934,-100,4,2,1,65,0,0
30141,-100,4,2,1,90,0,0
30762,-100,4,2,1,65,0,0
30969,-100,4,2,1,90,0,0
31589,-100,4,2,1,65,0,0
31796,-100,4,2,1,90,0,0
33141,-86.9565217391304,4,2,1,100,0,1
56520,-100,4,2,0,100,0,0
56624,-100,4,2,1,90,0,0
72348,-100,4,2,0,90,0,0
73020,-100,4,2,1,90,0,0
82900,-100,4,2,1,65,0,0
83107,-100,4,2,1,90,0,0
83727,-100,4,2,1,65,0,0
83934,-100,4,2,1,90,0,0
84555,-100,4,2,1,65,0,0
84762,-100,4,2,1,90,0,0
86107,-86.9565217391304,4,2,1,100,0,1
109486,-100,4,2,0,100,0,0
112589,-133.333333333333,4,2,0,100,0,0
113520,-133.333333333333,4,1,0,80,0,0
113831,-133.333333333333,4,2,0,100,0,0
115279,-133.333333333333,4,1,0,80,0,0
115382,-133.333333333333,4,2,0,100,0,0
116831,-133.333333333333,4,1,0,80,0,0
117245,-133.333333333333,4,2,0,100,0,0
118486,-133.333333333333,4,1,0,80,0,0
118693,-133.333333333333,4,2,0,100,0,0
120141,-133.333333333333,4,1,0,80,0,0
120451,-133.333333333333,4,2,0,100,0,0
121796,-133.333333333333,4,1,0,80,0,0
122003,-133.333333333333,4,2,0,100,0,0
125107,-133.333333333333,4,1,0,90,0,0
125727,-133.333333333333,4,2,0,100,0,0
126762,-133.333333333333,4,1,0,80,0,0
127072,-133.333333333333,4,2,0,100,0,0
128520,-133.333333333333,4,1,0,80,0,0
128624,-133.333333333333,4,2,0,100,0,0
130072,-133.333333333333,4,1,0,80,0,0
130486,-133.333333333333,4,2,0,100,0,0
131727,-133.333333333333,4,1,0,80,0,0
131934,-133.333333333333,4,2,0,100,0,0
133382,-133.333333333333,4,1,0,80,0,0
133693,-133.333333333333,4,2,0,100,0,0
135038,-133.333333333333,4,1,0,80,0,0
135245,-133.333333333333,4,2,0,100,0,0
145900,-100,4,2,1,50,0,0
146727,-100,4,2,1,60,0,0
147555,-100,4,2,1,70,0,0
147969,-100,4,1,1,70,0,0
148382,-86.9565217391304,4,1,1,80,0,0
149003,-86.9565217391304,4,1,0,100,0,0
149107,-86.9565217391304,4,1,0,80,0,0
149831,-86.9565217391304,4,1,0,100,0,0
149934,-86.9565217391304,4,1,0,80,0,0
150658,-86.9565217391304,4,1,0,100,0,0
150762,-86.9565217391304,4,1,0,80,0,0
150865,-86.9565217391304,4,2,1,100,0,0
152313,-86.9565217391304,4,2,1,100,0,1
172279,-86.9565217391304,4,2,1,100,0,0
172382,-86.9565217391304,4,2,1,100,0,1
172486,-86.9565217391304,4,2,1,100,0,0
172589,-86.9565217391304,4,2,1,90,0,0
173003,-86.9565217391304,4,2,1,80,0,0
173417,-86.9565217391304,4,2,1,70,0,0
173831,-86.9565217391304,4,2,1,60,0,0
174245,-86.9565217391304,4,2,1,50,0,0
174658,-86.9565217391304,4,2,1,40,0,0
175279,-86.9565217391304,4,2,1,30,0,0
175900,-86.9565217391304,4,2,1,20,0,0
176520,-86.9565217391304,4,2,1,10,0,0
177141,-86.9565217391304,4,2,1,0,0,0

[Colours]
Combo1 : 250,194,5
Combo2 : 255,47,52
Combo3 : 100,216,14
Combo4 : 61,179,250

[HitObjects]
428,352,6865,1,4
448,208,7279,1,8
468,64,7693,2,0,B|392:24|304:64,1,162,2|8
336,128,8313,2,0,B|256:148|176:128,2,162,0|2|0
336,200,9348,2,0,B|256:220|176:200,1,162,0|8
104,216,9969,1,0
32,200,10176,5,0
60,344,10590,1,8
204,344,11003,2,0,B|272:344|272:344|336:344|352:300,1,162,2|8
332,232,11624,2,0,B|288:196|256:220|224:244|180:208,1,162,0|2
228,152,12245,1,8
256,84,12451,1,8
112,96,12865,1,8
148,32,13072,1,8
12,32,13486,6,0,B|-32:112|4:188,1,162,0|8
64,320,14313,2,0,B|108:240|72:164,1,162,2|8
112,104,14934,1,0
256,104,15348,1,2
400,104,15762,1,0
439,164,15969,2,0,B|404:240|448:320,1,162,0|8
384,356,16589,1,0
320,320,16796,6,0,B|300:368|256:364|212:368|192:320,1,162,0|8
156,256,17417,2,0,B|188:196|256:184|324:196|356:256,1,243,8|8
320,320,18245,1,2
192,320,18658,1,0
156,256,18865,2,0,B|80:300|0:256,1,162,8|0
12,184,19486,1,8
24,112,19693,1,8
36,40,19900,1,8
108,40,20107,5,4
256,40,20520,1,8
404,40,20934,1,2
436,184,21348,1,8
448,256,21555,2,0,B|372:300|292:272,1,162,2|0
256,208,22176,1,8
220,144,22382,2,0,B|140:116|64:160,1,162,2|0
76,232,23003,1,8
175,339,23417,6,0,B|335:339,1,162,0|8
384,200,24245,1,2
428,60,24658,1,8
428,60,24865,2,0,B|356:96|344:28|272:64,2,162,0|2|0
500,60,25900,2,0,B|460:140|492:220,1,162,2|8
372,300,26727,6,0,B|296:336|212:300,1,162,0|8
164,164,27555,2,0,B|240:128|324:164,1,162,2|8
396,160,28176,1,0
508,252,28589,1,2
372,300,29003,1,0
337,236,29210,2,0,B|169:236,1,162,2|8
128,180,29831,1,2
84,120,30038,6,0,B|-12:228|68:344,1,243,4|8
135,344,30865,2,4,B|383:344,1,243,4|8
445,341,31693,2,0,B|524:228|428:120,1,243,4|8
364,88,32520,2,0,B|344:44|288:52,1,81,2|8
248,104,32934,1,8
180,84,33141,6,0,B|92:136|4:84,1,186.30000610739,4|2
20,168,33762,1,8
36,252,33969,1,8
52,336,34176,1,0
136,320,34382,1,0
332,300,34796,2,0,B|420:248|508:300,1,186.30000610739,4|2
492,216,35417,1,8
476,132,35624,1,8
460,48,35831,1,0
376,64,36037,1,2
256,180,36451,5,2
300,252,36658,1,0
348,324,36865,2,0,B|256:352|164:324,1,186.30000610739,2|8
80,324,37486,2,0,B|120:236|84:140,1,186.30000610739,2|8
84,60,38107,1,2
84,60,38520,1,2
168,76,38727,2,0,B|256:128|344:76,1,186.30000610739,8|2
428,60,39348,1,0
448,228,39762,6,0,B|448:288|392:288|392:288|296:288,1,186.30000610739,4|2
216,296,40382,1,8
132,288,40589,1,8
140,204,40796,1,0
224,212,41003,1,2
64,156,41417,2,0,B|64:96|120:96|120:96|216:96,1,186.30000610739,4|2
296,88,42037,1,8
380,96,42244,1,8
372,180,42451,1,0
288,172,42658,1,2
256,336,43072,5,2
180,304,43279,1,0
104,336,43486,2,0,B|40:252|100:160,1,186.30000610739,2|8
162,108,44107,2,0,B|350:108,1,186.30000610739,2|8
413,162,44727,2,0,B|472:252|408:336,1,186.30000610739,2|0
332,304,45348,1,8
180,304,45762,1,2
96,312,45969,1,8
12,320,46176,1,8
48,244,46382,6,0,B|72:156|228:140|256:259|256:259|284:140|440:156|464:244,1,558.90001832217,4|2
496,324,47831,1,8
420,356,48038,2,0,B|316:356|316:268|316:268|316:160|255:162|196:160|196:268|196:268|196:356|92:356,1,558.90001832217,4|2
16,324,49486,1,8
12,240,49693,1,8
4,156,49900,6,0,B|32:108|88:108|88:108|172:108,1,186.30000610739,0|8
172,192,50520,2,0,B|172:272|256:336|340:272|340:192,1,279.450009161085,8|8
338,108,51348,2,0,B|424:108|424:108|480:108|508:156,1,186.30000610739,4|0
508,240,51969,1,8
508,324,52176,2,0,B|416:364|328:324,1,186.30000610739,4|0
256,280,52796,1,8
184,323,53003,6,0,B|96:364|4:324,1,186.30000610739,4|2
32,244,53624,1,8
80,176,53831,1,8
128,108,54038,1,2
180,40,54245,1,0
327,60,54658,2,0,B|416:20|508:60,1,186.30000610739,4|2
480,140,55279,1,8
432,208,55486,1,8
384,276,55693,1,2
332,344,55900,1,0
256,312,56107,2,0,B|256:216,2,93.1500030536951,8|2|6
96,348,59831,21,4
80,204,60245,1,8
64,60,60658,2,0,B|116:104|184:64,2,121.5,2|0|2
80,204,61693,1,2
96,348,62107,2,0,B|176:384|256:352,1,162,2|0
256,280,62727,1,8
416,348,63141,5,0
432,204,63555,1,8
448,60,63969,2,0,B|388:32|328:64,2,121.5,2|0|2
432,204,65003,1,2
416,348,65417,2,0,B|332:332|256:352,1,162,2|0
188,320,66038,2,0,B|148:340|104:320,1,81,8|0
40,336,66451,6,0,B|12:256|40:176,1,162,0|8
104,48,67279,2,0,B|132:128|104:208,1,162,2|8
96,280,67900,1,2
256,300,68313,2,0,B|256:384,2,81,0|8|8
416,280,69141,1,0
416,280,69348,1,8
332,160,69762,6,0,B|256:112|180:160,1,162,0|8
68,252,70589,2,0,B|144:300|220:252,1,162,2|8
292,252,71210,2,0,B|368:300|444:252,1,162,2|0
448,180,71831,1,8
372,56,72245,2,0,B|398:38|398:38|416:36|416:36|450:14,2,81,0|8|8
228,56,73072,6,0,B|172:60|152:36|152:36|132:60|76:56,1,162,4|8
20,192,73900,1,2
20,192,74107,2,0,B|62:206|70:248|70:248|118:257|127:299,1,162,0|8
272,328,74934,1,2
236,200,75348,2,0,B|199:157|168:160|168:160|170:129|128:92,1,162,8|0
68,52,75969,1,8
32,192,76382,5,0
72,332,76796,1,8
180,232,77210,2,0,B|256:184|332:232,1,162,2|8
376,292,77831,1,0
256,376,78245,1,2
136,292,78658,1,0
76,248,78865,2,0,B|88:212|132:212|132:192|132:192|132:172|88:172|76:136,1,162,2|8
136,92,79486,1,0
112,24,79693,5,0
256,24,80107,1,8
400,24,80520,1,2
448,164,80934,1,8
448,164,81141,2,0,B|368:196|288:168,1,162,2|0
256,236,81762,1,8
224,300,81969,2,0,B|145:272|65:304,1,162,8|2
48,232,82589,1,8
60,160,82796,1,0
76,88,83003,6,0,B|160:128|232:88,1,162,4|8
300,220,83831,2,0,B|308:276|256:292|204:276|212:220,1,162,4|8
280,88,84658,2,0,B|352:128|436:88,1,162,4|8
420,232,85486,2,0,B|456:260|504:224,2,81,2|8|8
344,272,86107,6,0,B|256:324|168:272,1,186.30000610739,4|2
152,188,86727,2,0,B|123:231|72:225,1,93.1500030536951,8|8
86,143,87141,2,0,B|114:99|165:105,1,93.1500030536951
168,272,87762,2,0,B|256:324|344:272,1,186.30000610739,4|2
360,188,88382,2,0,B|388:231|439:225,1,93.1500030536951,8|8
426,143,88796,2,0,B|397:99|346:105,1,93.1500030536951,0|2
180,96,89417,5,2
108,140,89624,1,0
44,196,89831,2,0,B|132:256|220:196,1,186.30000610739,2|8
294,197,90451,2,0,B|380:256|467:196,1,186.30000610739,2|8
404,140,91072,1,2
404,140,91486,1,2
344,80,91693,2,0,B|300:52|256:80|256:80|212:52|168:80,1,186.30000610739,8|2
108,140,92313,1,2
44,296,92727,6,0,B|108:296|108:296|184:296|212:240,1,186.30000610739,4|2
236,160,93348,2,0,B|280:188|324:164,1,93.1500030536951,8|8
408,148,93762,1,0
488,128,93969,1,2
468,296,94382,2,0,B|404:296|404:296|328:296|300:240,1,186.30000610739,4|2
276,160,95003,2,0,B|232:188|188:164,1,93.1500030536951,8|8
104,148,95417,1,0
24,128,95624,1,2
172,48,96038,5,0
172,48,96245,1,8
172,48,96451,1,2
340,48,96865,1,2
340,48,97072,1,8
349,299,97693,2,0,B|161:299,1,186.30000610739,2|0
163,215,98313,2,0,B|352:215,1,186.30000610739,8|2
372,132,98934,1,8
388,48,99141,1,8
472,47,99348,6,0,B|521:99|518:179|415:198|415:198|491:234|480:360|390:378|323:361|290:308|311:245,1,558.90001832217,4|2
256,192,100796,1,8
200,136,101003,2,0,B|221:75|188:22|121:5|31:23|20:149|96:185|96:185|-6:204|-9:284|40:336,1,558.90001832217,4|2
124,336,102451,1,8
140,252,102658,1,8
204,304,102865,6,0,B|288:304|288:304|348:304|376:248,1,186.30000610739,0|8
372,172,103486,2,0,B|348:120|256:148|256:192|256:236|164:264|140:212,1,279.450009161085,8|8
139,128,104313,2,0,B|164:80|224:80|224:80|308:80,1,186.30000610739,4|0
392,80,104934,1,8
476,80,105141,2,0,B|520:172|480:264,1,186.30000610739,4|0
396,260,105762,1,8
348,328,105969,6,0,B|256:304|164:328,1,186.30000610739,4|2
144,248,106589,2,8,B|52:248,1,93.1500030536951
100,180,107003,2,0,B|8:180,1,93.1500030536951
164,56,107624,2,0,B|256:80|348:56,1,186.30000610739,4|2
368,136,108244,2,8,B|460:136,1,93.1500030536951
412,204,108658,2,0,B|504:204,2,93.1500030536951,2|0|8
328,204,109279,1,2
256,232,109486,1,6
256,192,112796,21,4
256,192,113624,1,0
148,192,114038,1,0
40,192,114451,2,0,B|40:252|40:252|40:328|120:328|120:328|180:328,2,242.999992758036
256,220,116934,5,0
256,28,117762,1,0
320,116,118176,1,0
320,116,118382,1,0
320,116,118589,1,0
420,96,119003,1,0
472,192,119417,2,0,B|472:252|472:252|472:328|392:328|392:328|332:328,2,242.999992758036
256,152,121900,5,0
40,200,122727,2,0,B|128:272|128:272|200:260|200:260|256:268|256:268|312:260|312:260|384:272|384:272|472:200,1,485.999985516072,2|2
308,100,125210,1,0
204,100,125624,1,0
256,192,126038,21,4
256,192,126866,1,0
364,192,127280,1,0
472,192,127693,2,0,B|472:268|388:248|388:248|408:328|332:328,2,242.999992758036
256,220,130176,5,0
256,28,131004,1,0
192,116,131417,1,0
192,116,131623,1,0
192,116,131830,1,0
92,96,132245,1,0
40,192,132658,2,0,B|40:268|124:248|124:248|104:328|180:328,2,242.999992758036
256,148,135142,5,0
92,292,135969,2,0,B|188:296|256:225|256:225|324:296|420:292,1,364.499989137054,0|0
256,192,137624,12,6,139279
256,96,145900,5,2
364,192,146313,1,8
256,288,146727,1,0
148,192,147141,1,8
256,80,147555,5,0
348,264,147969,1,0
164,264,148382,1,0
148,120,148796,6,0,B|136:76|80:56,1,93.1500030536951,0|4
256,112,149417,2,0,B|256:20,2,93.1500030536951,0|0|4
428,57,150245,2,0,B|376:76|364:120,2,93.1500030536951,0|0|4
384,220,151072,5,0
348,296,151279,2,0,B|256:324|164:296,1,186.30000610739,8|2
128,220,151900,1,8
128,220,152107,1,8
48,192,152313,22,0,B|48:120|48:120|48:20|128:4|200:20|200:112|200:112|252:84|328:88|360:152|348:212,1,558.90001832217,4|2
256,192,153762,1,8
163,177,153969,2,0,B|152:232|184:296|260:300|312:272|312:272|312:364|384:380|464:364|464:264|464:264|464:192,1,558.90001832217,4|2
384,164,155417,1,8
384,164,155624,1,8
349,87,155831,6,0,B|161:87,1,186.30000610739,0|8
128,164,156451,2,0,B|156:200|256:236|356:200|384:164,1,279.450009161085,8|8
448,216,157279,2,0,B|424:328|308:296,1,186.30000610739,4|2
256,364,157900,1,8
202,296,158107,2,0,B|88:328|64:216,1,186.30000610739,4|8
64,132,158727,1,8
16,64,158934,6,0,B|60:36|128:40|156:112|144:148,1,186.30000610739,4|2
112,216,159555,2,8,B|160:236|200:208,1,93.1500030536951
256,144,159969,1,2
304,76,160176,1,0
496,64,160589,2,0,B|452:36|384:40|356:112|368:148,1,186.30000610739,4|2
400,216,161210,2,8,B|352:236|312:208,1,93.1500030536951
256,144,161624,1,2
208,76,161831,1,2
256,324,162451,6,0,B|212:348|168:324,1,93.1500030536951,4|2
256,252,162865,2,0,B|300:228|344:252,1,93.1500030536951,8|8
256,180,163279,1,2
256,180,163486,1,0
164,40,163900,2,0,B|256:16|348:40,1,186.30000610739,4|2
380,116,164520,1,8
296,116,164727,1,8
216,116,164934,1,2
132,116,165141,1,0
296,328,165762,6,0,B|332:328|332:328|364:340|364:340|388:340,2,93.1500030536951,8|0|0
216,300,166382,2,0,B|180:300|180:300|148:288|148:288|124:288,2,93.1500030536951,8|0|0
256,224,167003,1,8
216,56,167417,2,0,B|180:56|180:56|148:44|148:44|124:44,2,93.1500030536951,8|0|0
296,84,168037,2,0,B|332:84|332:84|364:96|364:96|388:96,2,93.1500030536951,8|0|0
256,160,168658,1,8
256,328,169072,5,8
156,192,169486,1,0
256,56,169900,1,8
356,192,170313,1,0
348,276,170520,2,0,B|256:248|164:276,1,186.30000610739,2|0
152,192,171141,2,8,B|208:176|216:124,1,93.1500030536951,8|8
297,130,171555,2,0,B|304:176|360:192,1,93.1500030536951,2|0
300,252,171969,2,0,B|256:228|212:252,1,93.1500030536951,8|0
256,316,172382,5,6
256,192,172589,12,0,177348
