osu file format v9

[General]
AudioFilename: Friday Is Forever.mp3
AudioLeadIn: 0
PreviewTime: 33141
Countdown: 1
SampleSet: Soft
StackLeniency: 0.5
Mode: 0
LetterboxInBreaks: 0

[Editor]
Bookmarks: 56505,59816,109471,112781,139264,145885,160589
DistanceSpacing: 0.98
BeatDivisor: 4
GridSize: 4

[Metadata]
Title:Friday Is Forever
Artist:We the Kings
Creator:Krisom
Version:Easy
Source:
Tags:Rebecca Black Larto narakucrimson IceBeam WTK

[Difficulty]
HPDrainRate:3
CircleSize:3
OverallDifficulty:3
ApproachRate:3
SliderMultiplier:0.9
SliderTickRate:2

[Events]
//Background and Video events
0,0,"BG.jpg"
Video,0,"FiF yo.AVI"
//Break Periods
2,56720,58391
2,109686,111357
2,139479,144460
//Storyboard Layer 0 (Background)
//Storyboard Layer 1 (Fail)
//Storyboard Layer 2 (Pass)
//Storyboard Layer 3 (Foreground)
//Storyboard Sound Samples
//Background Colour Transformations
3,100,163,162,255

[TimingPoints]
245,413.793103448276,4,2,1,90,1,0
19382,-100,4,2,0,90,0,0
20055,-100,4,2,1,90,0,0
29934,-100,4,2,1,65,0,0
30141,-100,4,2,1,90,0,0
30762,-100,4,2,1,65,0,0
30969,-100,4,2,1,90,0,0
31589,-100,4,2,1,65,0,0
31796,-100,4,2,1,90,0,0
33141,-86.9565217391304,4,2,1,100,0,1
56520,-100,4,2,0,100,0,0
56624,-100,4,2,1,90,0,0
72348,-100,4,2,0,90,0,0
72969,-100,4,2,1,90,0,0
82900,-100,4,2,1,65,0,0
83107,-100,4,2,1,90,0,0
83727,-100,4,2,1,65,0,0
83934,-100,4,2,1,90,0,0
84555,-100,4,2,1,65,0,0
84762,-100,4,2,1,90,0,0
86107,-86.9565217391304,4,2,1,100,0,1
109486,-100,4,2,0,100,0,0
112589,-133.333333333333,4,2,0,100,0,0
115279,-133.333333333333,4,1,0,80,0,0
115382,-133.333333333333,4,2,0,100,0,0
116831,-133.333333333333,4,1,0,80,0,0
117245,-133.333333333333,4,2,0,100,0,0
118486,-133.333333333333,4,1,0,80,0,0
118693,-133.333333333333,4,2,0,100,0,0
120141,-133.333333333333,4,1,0,80,0,0
120451,-133.333333333333,4,2,0,100,0,0
121796,-133.333333333333,4,1,0,80,0,0
122003,-133.333333333333,4,2,0,100,0,0
125107,-133.333333333333,4,1,0,90,0,0
125727,-133.333333333333,4,2,0,100,0,0
128520,-133.333333333333,4,1,0,80,0,0
128624,-133.333333333333,4,2,0,100,0,0
130072,-133.333333333333,4,1,0,80,0,0
130486,-133.333333333333,4,2,0,100,0,0
131727,-133.333333333333,4,1,0,80,0,0
131934,-133.333333333333,4,2,0,100,0,0
133382,-133.333333333333,4,1,0,80,0,0
133693,-133.333333333333,4,2,0,100,0,0
135038,-133.333333333333,4,1,0,80,0,0
135245,-133.333333333333,4,2,0,100,0,0
145900,-100,4,2,1,50,0,0
146727,-100,4,2,1,60,0,0
147555,-100,4,2,1,70,0,0
147969,-100,4,1,1,70,0,0
148382,-86.9565217391304,4,1,1,80,0,0
149003,-86.9565217391304,4,1,0,100,0,0
149107,-86.9565217391304,4,1,0,80,0,0
149831,-86.9565217391304,4,1,0,100,0,0
149934,-86.9565217391304,4,1,0,80,0,0
150658,-86.9565217391304,4,1,0,100,0,0
150762,-86.9565217391304,4,1,0,80,0,0
150865,-86.9565217391304,4,2,1,100,0,0
152313,-86.9565217391304,4,2,1,100,0,1
172279,-86.9565217391304,4,2,1,100,0,0
172382,-86.9565217391304,4,2,1,100,0,1
172486,-86.9565217391304,4,2,1,100,0,0
172589,-86.9565217391304,4,2,1,90,0,0
173003,-86.9565217391304,4,2,1,80,0,0
173417,-86.9565217391304,4,2,1,70,0,0
173831,-86.9565217391304,4,2,1,60,0,0
174245,-86.9565217391304,4,2,1,50,0,0
174658,-86.9565217391304,4,2,1,40,0,0
175279,-86.9565217391304,4,2,1,30,0,0
175900,-86.9565217391304,4,2,1,20,0,0
176520,-86.9565217391304,4,2,1,10,0,0
177141,-86.9565217391304,4,2,1,0,0,0

[Colours]
Combo1 : 250,194,5
Combo2 : 255,47,52
Combo3 : 100,216,14
Combo4 : 61,179,250

[HitObjects]
344,40,6865,1,4
256,24,7279,1,8
168,40,7693,1,2
108,104,8107,2,0,B|140:192|108:280,1,180,8|8
20,280,9348,1,2
168,344,10176,5,0
256,360,10590,1,8
344,344,11004,1,2
404,280,11418,2,0,B|372:192|404:104,1,180,8|8
492,104,12659,1,2
316,128,13486,6,0,B|332:84|320:40,1,90,0|8
244,84,14313,2,0,B|200:100|152:84,1,90,2|8
76,124,15141,1,0
4,176,15555,1,8
84,216,15969,1,2
148,376,16796,5,2
256,236,17624,1,2
364,376,18451,1,2
400,204,19279,1,2
412,116,19693,1,8
336,68,20107,5,4
256,108,20520,1,8
176,68,20934,1,2
116,132,21348,2,0,B|64:124|36:160,1,90,8|0
104,216,22176,1,8
140,296,22589,1,2
316,284,23417,6,0,B|284:244|304:200,1,90,2|8
392,232,24245,2,0,B|424:272|404:316,1,90,0|8
336,372,25072,1,0
256,340,25486,1,8
176,300,25900,1,2
176,124,26727,5,0
256,88,27140,1,8
336,124,27554,1,2
384,196,27968,2,0,B|436:204|464:168,1,90,8|0
480,256,28796,1,8
464,344,29209,1,2
312,252,30038,6,4,B|312:300|256:344|200:300|200:252,2,180
256,84,32520,1,2
120,156,33141,6,0,B|156:212|96:272|96:272|96:348|180:348,1,258.750008482486,4|2
332,348,34796,2,0,B|416:347|416:271|416:271|356:211|392:155,1,258.750008482486,4|2
192,116,36658,6,0,B|216:152|256:176|296:152|316:116,2,155.250005089492,2|8|8
156,24,38313,1,0
256,24,38727,1,8
356,24,39141,1,2
472,124,39762,6,4,B|392:124|392:124|392:200|332:200|332:200|332:276,1,258.750008482486,4|2
180,268,41417,2,0,B|180:199|180:199|120:199|120:123|120:123|40:123,1,258.750008482486,4|2
104,316,43279,5,2
256,316,43900,1,8
408,316,44520,1,8
408,216,44934,1,0
308,216,45348,1,8
204,216,45762,1,2
104,216,46176,1,8
72,120,46589,6,0,B|124:52|256:0|388:52|440:120,1,414.000013571978,4|4
256,364,49486,1,8
180,296,49900,5,2
116,216,50313,1,8
156,124,50727,2,0,B|256:172|356:124,1,207.000006785989,2|4
396,216,51969,1,8
332,296,52382,1,4
180,296,53003,6,0,B|100:236|100:236|156:224|196:176|180:120,1,258.750008482486,4|2
332,120,54658,2,0,B|316:176|356:224|412:236|412:236|332:296,1,258.750008482486,4|2
256,136,56520,1,6
168,344,59831,21,4
256,328,60245,1,8
344,344,60659,1,2
404,280,61073,2,0,B|436:192|404:104,1,180,8|8
344,40,62314,1,2
344,40,63142,5,0
256,60,63556,1,8
168,40,63970,1,2
108,104,64382,2,0,B|76:192|108:280,1,180,8|8
168,344,65625,1,2
168,168,66452,6,0,B|212:152|256:168,1,90,0|8
256,256,67279,2,0,B|300:272|348:256,1,90,2|8
404,192,68107,1,0
456,120,68521,1,8
500,44,68935,1,2
324,28,69762,5,2
256,192,70590,1,2
188,356,71417,1,2
108,200,72245,1,2
100,112,72659,1,8
176,68,73073,5,4
256,32,73486,1,8
336,68,73900,1,2
396,132,74314,2,0,B|424:172|476:160,1,90,8|0
448,244,75142,1,8
420,328,75555,1,2
256,264,76383,6,0,B|288:224|268:180,1,90,2|8
184,212,77211,2,0,B|163:167|195:127,1,90,0|8
176,40,78038,1,0
256,72,78452,1,8
336,112,78866,1,2
336,288,79693,5,0
256,324,80106,1,8
176,292,80520,1,2
192,204,80934,2,0,B|140:196|112:232,1,90,8|0
56,164,81762,1,8
8,88,82175,1,2
180,120,83004,6,4,B|208:80|256:64|304:80|332:120,2,180
256,280,85486,1,2
396,216,86107,6,0,B|460:184|404:80|320:144|276:56|336:24,1,258.750008482486,4|2
177,25,87762,2,0,B|236:56|192:144|108:80|52:184|116:216,1,258.750008482486,4|2
320,240,89624,6,0,B|296:204|256:252|256:252|216:204|196:240,2,155.250005089492,2|8|8
356,336,91279,1,0
256,336,91693,1,8
156,336,92107,1,2
40,236,92728,6,4,B|108:236|108:236|180:236|180:160|180:160|180:84,1,258.750008482486,4|2
332,88,94383,2,0,B|332:157|332:157|332:236|400:236|400:236|472:236,1,258.750008482486,4|2
408,68,96245,5,2
256,68,96866,1,8
104,68,97486,1,8
120,168,97900,1,0
208,220,98314,1,8
304,220,98728,1,2
392,168,99142,1,8
440,264,99555,6,0,B|376:336|288:312|256:276|256:276|224:312|136:336|72:264,1,414.000013571978,4|4
256,20,102452,1,8
332,88,102866,5,2
396,168,103279,1,8
356,260,103693,2,0,B|256:284|256:284|156:260,1,207.000006785989,2|4
116,168,104935,1,8
180,88,105348,1,4
332,88,105969,6,0,B|416:180|416:180|416:216|332:216|332:276,1,258.750008482486,4|2
179,275,107624,2,0,B|180:216|96:216|96:180|96:180|180:88,1,258.750008482486,4|2
256,248,109486,1,6
256,76,112797,21,4
124,308,114451,1,0
256,308,115279,1,0
388,308,116107,1,0
388,308,116934,1,0
388,308,117762,1,0
336,188,118589,5,0
256,192,119003,1,0
176,188,119417,1,0
176,188,120245,1,0
176,188,121072,1,0
256,84,121900,5,0
388,88,122727,2,0,B|392:152|344:220|256:252|168:220|120:152|124:88,1,404.99998793006,2|0
196,56,125624,1,0
256,112,126038,21,4
388,340,127693,1,0
256,340,128521,1,0
124,340,129349,1,0
124,340,130176,1,0
124,340,131004,1,0
176,220,131831,5,0
256,224,132245,1,0
336,220,132659,1,0
336,220,133487,1,0
336,220,134314,1,0
256,116,135142,5,0
160,208,135969,2,0,B|220:224|256:240|256:240|292:224|352:208,1,202.49999396503,2|0
256,192,137624,12,4,139279
192,228,145900,5,2
228,148,146313,1,8
140,160,146727,1,2
320,156,147555,1,2
284,236,147968,1,0
372,224,148382,1,0
432,84,149003,5,4
256,184,149831,5,4
80,84,150658,5,4
28,228,151279,1,8
128,244,151693,1,2
152,92,152313,22,0,B|216:92|216:200|216:200|216:276|256:298|296:276|296:200|296:200|296:92|360:92,1,465.750015268475,4|4
256,380,155417,1,8
188,304,155831,5,0
144,212,156245,1,8
204,128,156658,2,0,B|316:128,1,103.500003392995,2|8
360,40,157486,2,0,B|140:40,1,207.000006785989,4|4
56,156,158934,6,0,B|72:196|72:196|108:196|108:196|180:196|180:268|180:268|180:332,1,258.750008482486,4|2
332,332,160589,2,0,B|332:268|332:268|332:196|404:196|404:196|440:196|440:196|456:156,1,258.750008482486,4|2
256,116,162451,5,4
204,204,162865,1,8
308,204,163279,1,2
368,64,163900,2,0,B|336:20|284:20|256:52|256:52|228:20|176:20|144:64,1,258.750008482486,4|2
204,256,165762,6,8,B|136:312|60:284,2,155.250005089492
308,256,167417,2,8,B|376:312|452:284,2,155.250005089492
308,156,169072,6,8,B|308:112|256:92|204:112|204:156,2,155.250005089492
332,256,170727,1,8
308,356,171141,1,8
204,356,171555,1,8
180,256,171969,1,8
256,192,172382,5,6
256,192,172589,12,0,177348
