osu file format v9

[General]
AudioFilename: Friday Is Forever.mp3
AudioLeadIn: 0
PreviewTime: 33141
Countdown: 1
SampleSet: Soft
StackLeniency: 0.5
Mode: 0
LetterboxInBreaks: 0

[Editor]
Bookmarks: 6865,34693,56505,59816,109471,112781,139264,145885,172589,177348
DistanceSpacing: 1.15
BeatDivisor: 4
GridSize: 4

[Metadata]
Title:Friday Is Forever
Artist:We the Kings
Creator:Krisom
Version:Collab
Source:
Tags:Rebecca Black Larto narakucrimson IceBeam WTK

[Difficulty]
HPDrainRate:6
CircleSize:4
OverallDifficulty:7
ApproachRate:8
SliderMultiplier:1.94
SliderTickRate:2

[Events]
//Background and Video events
0,0,"BG.jpg"
Video,0,"FiF yo.AVI"
//Break Periods
2,56720,59081
2,109479,112046
2,139479,145150
//Storyboard Layer 0 (Background)
//Storyboard Layer 1 (Fail)
//Storyboard Layer 2 (Pass)
//Storyboard Layer 3 (Foreground)
Sprite,Foreground,Centre,"IceBeam.png",500,400 S,0,6555,6762,0.1,1.2 R,0,6555,6762,0.2,0.05 S,0,6762,6865,1.2,1 R,0,6762,6865,0.05,0 S,40,32520,33038,1,0 R,40,32520,33038,0,6.2832 M,0,85693,,500,400,150,110 S,0,85796,86107,0.1,1.3 R,0,85796,86107,-3.1416,0 S,0,86107,86108,1 S,40,87762,88176,1.3,1 R,40,87762,88176,-0.2,0 S,40,89624,89831,1.3,1 R,40,89624,89831,-0.2,0 S,40,89831,90245,1.3,1.1 R,40,89831,90245,-0.2,-0.1 S,40,90245,90451,1.3,1 R,40,90245,90451,-0.2,0 S,40,90451,91072,1.3,1 R,40,90451,91072,-0.2,0 S,40,92727,93141,1.3,1 R,40,92727,93141,-0.2,0 S,40,94382,94796,1.3,1 R,40,94382,94796,-0.2,0 S,40,96245,96451,1.3,1 R,40,96245,96451,-0.2,0 S,40,96451,96865,1.3,1.1 R,40,96451,96865,-0.2,-0.1 S,40,96865,97072,1.3,1 R,40,96865,97072,-0.2,0 S,40,97072,97693,1.3,1 R,40,97072,97693,-0.2,0 S,40,99555,99969,1.1,1 R,40,99555,99969,-0.1,0.1 S,40,99969,100382,1.1,1 R,40,99969,100382,0.1,-0.1 S,40,100382,100796,1.1,1 R,40,100382,100796,-0.1,0.1 S,40,100796,101210,1.1,1 R,40,100796,101210,0.1,-0.1 S,40,101210,101624,1.1,1 R,40,101210,101624,-0.1,0.1 S,40,101624,102038,1.1,1 R,40,101624,102038,0.1,-0.1 S,40,102038,102451,1.1,1 R,40,102038,102451,-0.1,0.1 S,40,102451,102865,1.1,1 R,40,102451,102865,0.1,-0.1 S,40,102865,103279,1.3,1 R,40,102865,103279,-0.1,0.1 S,40,103279,103693,1.1,1 R,40,103279,103693,0.1,-0.1 S,40,103693,104107,1.1,1 R,40,103693,104107,-0.1,0.1 S,40,104107,104520,1.2,1 R,40,104107,104520,0.1,-0.1 S,40,104520,104934,1.3,1 R,40,104520,104934,0.1,-0.1 S,40,104934,105348,1.1,1 R,40,104934,105348,-0.1,0.1 S,40,105348,105762,1.3,1 R,40,105348,105762,0.1,-0.1 S,40,105969,106589,1.4,1 R,40,105969,106589,-0.2,0 S,40,107624,108038,1.3,1 R,40,107624,108038,-0.2,0 S,40,109279,109693,1,0 R,40,109279,109693,0,-6.2832
Sprite,Foreground,Centre,"IceBeam.png",500,400 M,0,20107,20108,500,400 F,0,20107,20727,1,0 S,0,20107,20727,1,1.2 F,0,26727,27348,1,0 S,0,26727,27348,1,1.2 F,0,30038,30658,1,0 S,0,30038,30658,1,1.2 F,0,31693,32313,1,0 S,0,31693,32313,1,1.2 M,0,86107,,147,109 F,0,86107,86727,1,0 S,0,86107,86727,1.07168,1.27952
Sprite,Foreground,Centre,"Naraku.png",522,81 S,0,32831,33140,0.1,1.3 R,0,32831,33140,-3.1416,0 S,0,33141,33142,1 S,40,34796,35210,1.3,1 R,40,34796,35210,-0.2,0 S,40,36658,36865,1.3,1 R,40,36658,36865,-0.2,0 S,40,36865,37279,1.3,1.1 R,40,36865,37279,-0.2,-0.1 S,40,37279,37486,1.3,1 R,40,37279,37486,-0.2,0 S,40,37486,38107,1.3,1 R,40,37486,38107,-0.2,0 S,40,39969,40589,1.3,1 R,40,39969,40589,-0.2,0 S,40,41417,41831,1.3,1 R,40,41417,41831,-0.2,0 S,40,43279,43486,1.3,1 R,40,43279,43486,-0.2,0 S,40,43486,43900,1.3,1.1 R,40,43486,43900,-0.2,-0.1 S,40,43900,44107,1.3,1 R,40,43900,44107,-0.2,0 S,40,44107,44727,1.3,1 R,40,44107,44727,-0.2,0 S,40,44727,45348,1.3,1 R,40,44727,45348,-0.2,0 S,40,46589,47003,1.1,1 R,40,46589,47003,-0.1,0.1 S,40,47003,47417,1.1,1 R,40,47003,47417,0.1,-0.1 S,40,47417,47831,1.1,1 R,40,47417,47831,-0.1,0.1 S,40,47831,48245,1.1,1 R,40,47831,48245,0.1,-0.1 S,40,48245,48658,1.1,1 R,40,48245,48658,-0.1,0.1 S,40,48658,49072,1.1,1 R,40,48658,49072,0.1,-0.1 S,40,49072,49486,1.1,1 R,40,49072,49486,-0.1,0.1 S,40,49486,49900,1.1,1 R,40,49486,49900,0.1,-0.1 S,40,49900,50313,1.3,1 R,40,49900,50313,-0.1,0.1 S,40,50313,50727,1.1,1 R,40,50313,50727,0.1,-0.1 S,40,50727,51141,1.1,1 R,40,50727,51141,-0.1,0.1 S,40,51141,51555,1.2,1 R,40,51141,51555,0.1,-0.1 S,40,51555,51969,1.3,1 R,40,51555,51969,0.1,-0.1 S,40,51969,52382,1.1,1 R,40,51969,52382,-0.1,0.1 S,40,52382,52769,1.3,1 R,40,52382,52769,0.1,-0.1 S,40,52769,53210,1.1,1 R,40,52769,53210,-0.1,0.1 S,40,53210,53831,1.3,1 R,40,53210,53831,-0.2,0 S,40,56520,56934,1,0 R,40,56520,56934,0,6.2832 M,0,112382,,522,81,110,390 S,0,112382,112693,0.1,1.2 R,0,112382,112693,0.2,0.05 S,0,112693,112796,1.2,1 R,0,112693,112796,0.05,0 S,0,116107,116727,1.15,1 S,0,116934,117555,1.15,1 S,0,117762,118382,1.15,1 S,0,119417,120038,1.15,1 S,0,120245,120865,1.15,1 S,0,121072,121693,1.15,1 S,0,122727,124382,1.2,1 S,0,124382,124693,1.05,1 S,0,124693,125003,1.05,1 S,0,125003,125210,1.05,1 S,0,125210,125624,1.15,1 S,0,125624,126038,1.15,1 S,0,129348,129969,1.15,1 S,0,130176,130769,1.15,1 S,0,131003,131624,1.15,1 S,0,132658,133279,1.15,1 S,0,133486,134107,1.15,1 S,0,134313,134934,1.15,1 S,0,135969,136589,1.15,1 S,0,136796,137417,1.15,1 F,0,137624,139279,1,0.01690823
Sprite,Foreground,Centre,"Naraku.png",522,81 F,0,33141,33762,1,0 S,0,33141,33762,1,1.3
Sprite,Foreground,Centre,"Larto.png",110,390 S,0,59417,59727,0.1,1.2 R,0,59417,59727,-0.2,-0.05 S,0,59727,59831,1.2,1 R,0,59727,59831,-0.05,0 S,0,85486,86003,1,0 R,0,85486,86003,0,-6.2832 M,0,145486,,110,390,500,390 S,0,145486,145796,0,1.1 S,0,145796,145900,1.1,1 S,0,152313,152934,1.3,1 R,0,152313,152934,0.1,-0.1 S,0,152934,153348,1.1,1 R,0,152934,153348,-0.1,0.1 S,0,153348,153762,1.1,1 R,0,153348,153762,0.1,-0.1 S,0,153762,154176,1.1,1 R,0,153762,154176,-0.1,0.1 S,0,154176,154589,1.1,1 R,0,154176,154589,0.1,-0.1 S,0,154589,155003,1.1,1 R,0,154589,155003,-0.1,0.1 S,0,155003,155417,1.3,1 R,0,155003,155417,0.1,-0.1 S,0,155417,155831,1.3,1 R,0,155417,155831,-0.1,0.1 S,0,155831,156245,1.1,1 R,0,155831,156245,0.1,-0.1 S,0,156245,156658,1.1,1 R,0,156245,156658,-0.1,0.1 S,0,156658,157072,1.1,1 R,0,156658,157072,0.1,-0.1 S,0,157072,157486,1.1,1 R,0,157072,157486,-0.1,0.1 S,0,157486,157900,1.3,1 R,0,157486,157900,0.1,-0.1 S,0,157900,158313,1.1,1 R,0,157900,158313,-0.1,0.1 S,0,158313,158727,1.3,1 R,0,158313,158727,0.1,-0.1 S,0,158934,159555,1.3,1 R,0,158934,159555,-0.2,0 S,0,160589,161210,1.3,1 R,0,160589,161210,-0.2,0 S,0,162451,163072,1.3,1 R,0,162451,163072,-0.2,0 S,0,163900,164520,1.3,1 R,0,163900,164520,-0.2,0 S,0,165762,166382,1.3,1 R,0,165762,166382,-0.2,0 S,0,166382,167003,1.3,1 R,0,166382,167003,0.1,-0.1 S,0,167417,168038,1.3,1 R,0,167417,168038,-0.1,0.1 S,0,168038,168658,1.3,1 R,0,168038,168658,0.1,-0.1 S,0,169072,169693,1.3,1 S,0,169693,170313,1.3,1 S,0,170727,171348,1.3,1 S,0,171348,171969,1.3,1 F,0,172382,175693,1,0 S,0,172589,172590,1
Sprite,Foreground,Centre,"Larto.png",110,390 F,0,63141,63555,1,0 S,0,63141,63555,1,1.2 F,0,63969,64382,1,0 S,0,63969,64382,1,1.2 F,0,64796,65210,1,0 S,0,64796,65210,1,1.2 F,0,66451,67072,1,0 S,0,66451,67072,1,1.4 F,0,69762,70176,1,0 S,0,69762,70176,1,1.2 F,0,70589,71003,1,0 S,0,70589,71003,1,1.2 F,0,71417,71831,1,0 S,0,71417,71831,1,1.2 F,0,73072,73693,1,0 S,0,73072,73693,1,1.4 F,0,76382,76796,1,0 S,0,76382,76796,1,1.2 F,0,77210,77624,1,0 S,0,77210,77624,1,1.2 F,0,79693,80313,1,0 S,0,79693,80313,1,1.4 F,0,83003,83417,1,0 S,0,83003,83417,1,1.2 F,0,83831,84245,1,0 S,0,83831,84245,1,1.2 F,0,84658,85072,1,0 S,0,84658,85072,1,1.2 M,0,145900,,110,390,500,390 F,0,145900,146107,1,0 S,0,145900,146107,1,1.05 F,0,146107,146313,1,0 S,0,146107,146313,1,1.05 F,0,146313,146520,1,0 S,0,146313,146520,1,1.05 F,0,146520,146727,1,0 S,0,146520,146727,1,1.05 F,0,146727,146934,1,0 S,0,146727,146934,1,1.05 F,0,146934,147141,1,0 S,0,146934,147141,1,1.05 F,0,147141,147348,1,0 S,0,147141,147348,1,1.05 F,0,147348,147555,1,0 S,0,147348,147555,1,1.05 F,0,147555,147762,1,0 S,0,147555,147762,1,1.05 F,0,147762,147969,1,0 S,0,147762,147969,1,1.1 F,0,147969,148176,1,0 S,0,147969,148176,1,1.1 F,0,148176,148382,1,0 S,0,148176,148382,1,1.15 F,0,148382,148589,1,0 S,0,148382,148589,1,1.2 F,0,148589,148796,1,0 S,0,148589,148796,1,1.2 F,0,148796,149003,1,0 S,0,148796,149003,1,1.2 F,0,149003,149624,1,0 S,0,149003,149624,1,1.3 F,0,149831,150451,1,0 S,0,149831,150451,1,1.3 F,0,150658,151279,1,0 S,0,150658,151279,1,1.3
//Storyboard Sound Samples
//Background Colour Transformations
3,100,163,162,255

[TimingPoints]
245,413.793103448276,4,2,1,90,1,0
33141,-86.9565217391304,4,2,1,100,0,1
56520,-100,4,2,0,100,0,0
56624,-100,4,2,1,90,0,0
86107,-100,4,2,1,100,0,1
109486,-100,4,2,0,100,0,0
112589,-100,4,2,0,100,0,0
148072,-100,4,2,1,100,0,0
152313,-100,4,2,1,100,0,1
172279,-100,4,2,1,100,0,0
172382,-100,4,2,1,100,0,1
172486,-100,4,2,1,100,0,0
172589,-86.9565217391304,4,2,1,90,0,0
173003,-86.9565217391304,4,2,1,80,0,0
173417,-86.9565217391304,4,2,1,70,0,0
173831,-86.9565217391304,4,2,1,60,0,0
174245,-86.9565217391304,4,2,1,50,0,0
174658,-86.9565217391304,4,2,1,40,0,0
175279,-86.9565217391304,4,2,1,30,0,0
175900,-86.9565217391304,4,2,1,20,0,0
176520,-86.9565217391304,4,2,1,10,0,0
177141,-86.9565217391304,4,2,1,0,0,0

[Colours]
Combo1 : 250,194,5
Combo2 : 255,47,52
Combo3 : 100,216,14
Combo4 : 61,179,250

[HitObjects]
252,96,6865,1,4
256,100,7279,2,0,B|200:96|176:140|176:188|188:236|256:264|324:232|336:184|308:128,1,291,8|0
336,92,8107,2,0,B|324:312,1,194,8|0
140,328,8727,2,0,B|176:284|256:304,1,97,0|8
144,336,9141,2,0,B|212:248|108:144,1,194,0|0
68,220,9762,1,8
248,304,10176,6,0,B|240:248|284:204,1,97,0|0
392,112,10589,2,0,B|400:168|356:212,1,97,8|0
324,68,11003,2,0,B|356:32|412:16|464:48|472:112,1,194,0|8
392,112,11624,1,0
368,304,12038,2,0,B|292:228,1,97,0|8
144,304,12451,2,0,B|220:228,1,97
256,52,12865,2,0,B|256:172,1,97,0|8
144,304,13486,6,0,B|208:216|112:112,1,194,0|8
32,116,14107,1,0
36,120,14313,2,0,B|228:120,1,194,0|8
328,148,14934,1,0
328,148,15348,2,0,B|364:108|452:136,1,97,0|8
248,204,15762,2,0,B|212:244|124:216,1,97
340,240,16176,2,0,B|364:280|348:336,1,97,0|8
348,72,16796,6,0,B|308:48|272:68|272:68|256:56|236:68|236:68|200:48|160:72,1,194,0|8
200,144,17417,1,0
256,336,17831,1,0
260,340,18038,1,8
312,144,18451,2,0,B|364:112|420:152,1,97
376,240,18865,1,8
272,216,19072,2,0,B|228:192|200:136|240:68|296:56,1,194,0|0
312,144,19693,1,2
316,148,19900,1,0
320,152,20107,6,0,B|208:96|140:204,1,194,4|8
140,272,20727,1,0
140,272,20934,2,0,B|164:60,1,194,2|8
350,79,21555,2,0,B|372:272,2,194,0|0|0
256,132,22589,2,0,B|224:168|288:184|248:232,1,97,0|0
256,328,23003,1,8
180,104,23417,6,0,B|200:52|256:36|308:48|332:112,1,194,0|8
428,160,24038,1,0
328,208,24245,1,2
84,160,24658,1,8
184,208,24865,1,0
412,256,25279,2,0,B|428:152,1,97,0|8
256,40,25693,2,0,B|256:152,1,97
100,256,26107,2,0,B|84:152,1,97,0|8
360,80,26727,6,0,B|348:300,1,194,4|8
428,312,27348,1,0
428,312,27555,2,0,B|328:260|244:336,1,194,2|8
136,208,28176,2,0,B|148:312,1,97
376,176,28589,2,0,B|364:72,1,97,0|8
256,32,29003,2,0,B|180:92|328:136|248:208,1,194
360,268,29624,1,8
256,320,29831,1,0
152,264,30038,6,0,B|80:176|164:76,1,194,4|8
356,86,30658,2,0,B|432:176|360:264,1,194
256,320,31279,2,0,B|256:220,1,97,8|0
356,88,31693,2,0,B|396:52|452:68,1,97,4|0
156,84,32107,2,0,B|116:120|60:104,1,97,8|0
144,312,32727,1,8
48,260,32934,1,8
52,160,33141,6,0,B|52:68|160:36|208:108,1,223.100007313788,4|0
300,164,33762,1,8
212,220,33969,1,8
304,276,34176,2,0,B|351:347|459:315|459:223,1,223.100007313788,2|8
220,308,34796,6,0,B|128:280|120:332|112:380|16:352,1,223.100007313788,4|0
72,260,35417,2,0,B|112:216|172:216,1,111.550003656894,8|8
128,116,35831,2,0,B|192:120|228:160,2,111.550003656894,2|0|8
128,116,36451,1,0
300,48,36658,6,0,B|360:64|380:120,1,111.550003656894,4|0
256,192,37072,1,8
212,48,37279,2,0,B|152:64|132:120,1,111.550003656894,0|2
256,192,37693,2,0,B|316:196|352:240,1,111.550003656894,0|8
256,192,38107,2,0,B|196:196|160:240,1,111.550003656894,0|2
256,288,38520,5,0
204,380,38727,2,8,B|256:344|308:380,1,111.550003656894
152,324,39141,2,8,B|256:251|360:324,1,223.100007313788,2|8
448,384,39762,1,0
480,228,39969,6,0,B|360:184|392:48,1,223.100007313788,4|8
288,68,40589,2,0,B|272:124|208:136,1,111.550003656894,0|2
32,156,41003,2,0,B|48:100|112:88,1,111.550003656894,0|8
32,156,41417,6,0,B|152:200|120:336,1,223.100007313788,4|0
224,316,42038,2,0,B|240:260|304:248,1,111.550003656894,8|8
480,228,42452,2,0,B|464:284|400:296,1,111.550003656894,2|8
408,192,42865,2,0,B|424:136|488:124,1,111.550003656894,8|8
256,136,43279,5,4
176,108,43486,2,0,B|180:56|256:8|332:56|336:108,1,223.100007313788,0|8
176,276,44107,2,0,B|180:328|256:376|332:328|336:276,1,223.100007313788,0|8
256,208,44727,6,0,B|260:156|336:108|412:156|416:208,1,223.100007313788,4|8
468,300,45348,2,8,B|416:344|368:300,1,111.550003656894
256,384,45762,2,8,B|284:352|228:316|256:280,1,111.550003656894,2|0
44,300,46176,2,8,B|96:344|144:300,1,111.550003656894
60,120,46589,6,0,B|100:68|204:68|256:136|256:136|308:68|412:68|452:120,1,446.200014627576,4|2
404,216,47624,2,0,B|344:224|312:276,1,111.550003656894,0|8
108,216,48038,2,0,B|168:224|200:276,1,111.550003656894,0|2
256,64,48451,2,0,B|256:176,1,111.550003656894,0|8
256,320,48865,1,8
168,372,49072,2,0,B|243:379|255:319|269:255|343:259,1,223.100007313788,2|8
448,272,49693,1,0
448,380,49900,6,0,B|448:156,1,223.100007313788,4|8
344,160,50520,1,8
400,68,50727,1,2
408,64,50831,1,0
416,60,50934,1,0
312,52,51141,1,0
256,140,51348,1,0
112,68,51555,5,4
104,64,51659,1,0
96,60,51762,1,0
200,52,51969,1,8
312,52,52176,1,0
256,216,52382,1,4
256,232,52486,1,0
256,248,52589,1,0
256,356,52796,1,8
164,188,53003,6,2,B|208:116|304:116|348:188,1,223.100007313788,2|0
424,116,53624,2,0,B|484:128|512:180,1,111.550003656894,8|8
420,232,54038,2,0,B|464:276|464:332,1,111.550003656894,2|0
348,328,54451,1,0
348,196,54658,6,2,B|304:268|208:268|164:196,1,223.100007313788,2|0
88,116,55279,2,0,B|28:128|0:180,1,111.550003656894,8|8
92,232,55693,2,0,B|48:276|48:332,1,111.550003656894,2|0
172,308,56107,2,0,B|216:264|216:208,1,111.550003656894,8|0
215,208,56520,1,4
24,60,59831,5,4
96,240,60245,2,0,B|104:164|192:148,1,97,2|0
228,108,60658,2,0,B|200:200|288:260,2,145.5,2|0|2
248,12,61486,1,2
320,80,61693,1,0
404,132,61900,1,8
496,160,62107,1,0
496,64,62313,1,2
404,92,62520,1,8
320,144,62727,1,8
248,212,62934,1,0
164,265,63141,6,0,B|72:256|8:128|88:40,1,291,4|0
168,16,63969,2,0,B|259:25|323:153|244:240,1,291,4|0
284,316,64796,2,0,B|336:324|396:304,1,97,6|0
472,264,65210,1,8
472,264,65417,1,0
440,172,65624,2,0,B|388:180|328:160,1,97,2|8
252,120,66038,1,8
252,120,66245,1,0
176,64,66451,6,4,B|88:100|88:176|128:244,2,194,4|2|8
272,56,67486,1,0
332,132,67693,1,2
333,214,67900,2,0,B|305:272|256:275|206:272|178:214,2,194,2|2|2
408,160,68934,1,2
324,336,69348,1,8
256,192,69762,6,4,B|28:192,1,194,4|8
120,120,70382,1,0
216,120,70589,2,4,B|444:120,1,194,4|8
352,48,71209,1,0
256,24,71417,2,0,B|204:56|128:36,1,97,4|0
64,32,71831,2,0,B|96:84|76:160,1,97,8|0
56,224,72245,1,2
144,264,72451,1,8
232,304,72658,1,8
320,344,72865,1,0
400,292,73072,6,0,B|472:204|432:80,2,194,4|8|2
308,260,74107,1,0
372,192,74313,1,8
308,124,74520,2,2,B|232:76|168:100|128:144,1,194
92,228,75141,1,8
128,316,75348,1,0
204,260,75555,2,2,B|280:308|344:284|384:240,1,194
456,12,76382,6,0,B|416:72|356:80|292:28|208:44|184:112,1,291,4|0
156,184,77210,2,0,B|180:221|218:226|257:193|310:203|324:246,1,194,4|0
272,328,77831,2,0,B|204:376|112:332|104:272,2,194,2|2|2
304,236,78865,1,0
212,200,79072,1,8
256,112,79279,1,8
168,284,79693,6,0,B|84:276|0:184|8:136,1,194,4|8
16,76,80313,1,0
92,136,80520,2,2,B|140:224|280:204,1,194,2|0
332,132,81141,2,0,B|312:84|256:60|200:84|180:132,2,194,2|2|2
352,228,82176,2,2,B|152:228,1,194,2|2
160,40,83003,6,0,B|231:-19|291:6|316:58|347:83|428:74|450:30,1,291,4|0
388,154,83831,2,0,B|316:94|256:119|231:172|200:197|119:188|97:144,1,291,4|0
128,256,84658,2,4,B|164:312|256:344|347:312|383:256,1,291,4|0
304,200,85486,1,0
208,200,85693,1,8
256,120,85900,1,8
340,296,86107,6,0,B|288:312|256:264|256:264|232:316|160:296,1,194,4|0
180,216,86727,2,0,B|148:172|172:124,1,97,8|0
256,52,87141,1,0
340,124,87348,2,0,B|364:172|332:216,1,97,0|8
256,324,87762,2,0,B|256:128,1,194,4|0
340,44,88382,2,0,B|400:52|384:16|380:52|436:32,1,97,8|0
172,44,88796,2,0,B|112:52|128:16|132:52|76:32,1,97
256,132,89210,2,0,B|256:244,1,97,8|0
340,264,89624,5,4
344,268,89831,2,0,B|244:200|152:292,1,194
216,344,90451,2,0,B|260:232|136:160,1,194,4|0
152,180,91072,2,0,B|372:180,1,194,0|0
444,232,91693,2,0,B|464:288|428:328,1,97,8|0
346,179,92107,2,0,B|326:123|362:83,1,97
120,88,92727,6,0,B|192:184|108:284,1,194,4|0
228,328,93348,2,0,B|260:292|328:308,1,97,8|0
436,156,93762,2,0,B|404:192|336:176,1,97
256,120,94176,1,8
256,28,94382,2,0,B|256:236,1,194,4|0
352,304,95003,1,8
360,312,95210,1,0
160,304,95417,1,0
152,312,95624,1,0
120,72,96038,1,0
256,28,96245,5,4
392,72,96451,2,0,B|452:164|388:264,1,194,0|0
464,308,97072,2,0,B|440:196|288:224,1,194,4|0
256,300,97693,1,0
48,76,98107,1,0
48,76,98313,2,0,B|72:188|224:160,1,194,8|0
332,104,98934,1,8
384,240,99141,1,8
256,300,99348,1,8
196,164,99555,5,4
252,48,99762,2,0,B|348:112,1,97,0|8
384,240,100176,2,0,B|324:152|400:44,1,194
464,160,100796,1,8
460,300,101003,2,0,B|404:212|280:260,1,194
204,332,101624,1,8
100,288,101831,2,0,B|68:240|96:180,1,97
184,44,102245,2,0,B|216:92|188:152,1,97,0|8
468,208,102865,6,0,B|356:164|280:260,1,194,4|8
204,332,103486,1,0
204,332,103693,2,0,B|192:236,1,97
68,112,104107,2,0,B|80:216,1,97,8|0
432,208,104520,6,0,B|444:112,1,97,4|0
320,235,104934,2,0,B|308:332,1,97,8|0
256,140,105348,2,0,B|256:36,2,97,4|0|8
348,312,105969,6,0,B|308:336|272:316|272:316|256:328|236:316|236:316|200:336|160:312,1,194,4|0
48,332,106589,1,8
28,220,106796,1,2
140,204,107003,1,0
162,315,107210,1,0
256,64,107624,1,4
464,332,108038,1,2
484,220,108245,1,8
372,204,108452,1,0
350,315,108658,1,0
464,332,108865,1,0
484,220,109072,1,8
372,204,109279,1,2
456,56,112796,6,0,B|416:152|304:160,1,194,2|0
248,88,113417,1,0
340,76,113624,2,0,B|432:128|416:240,1,194,8|0
400,332,114245,1,0
304,208,114451,6,0,B|304:304,1,97,2|0
216,332,114865,1,0
128,360,115072,1,0
216,248,115279,6,0,B|216:152,1,97,8|0
304,40,115693,2,0,B|304:136,1,97,2|0
216,56,116107,6,0,B|164:44|116:68|88:120|104:172,1,194,4|2
96,180,116727,1,0
192,148,116934,2,0,B|207:199|252:228|311:226|348:186,1,194,4|2
360,192,117555,1,0
420,108,117762,2,0,B|465:136|482:187|465:243|417:269,1,194,4|2
416,280,118382,1,0
440,368,118589,5,8
72,368,119003,1,0
256,64,119417,1,4
72,68,119831,6,0,B|56:128|108:208|168:216,1,194,0|4
188,96,120451,1,0
256,192,120658,1,2
324,288,120865,1,0
440,316,121072,2,0,B|456:256|404:176|344:168,1,194,4|0
320,60,121693,1,0
320,60,121900,2,0,B|288:160|180:180,1,194,8|2
64,304,122727,6,0,B|-16:160|48:40|296:60|256:192|216:324|464:344|528:224|448:80,1,776,4|2
288,112,124693,1,0
224,272,125003,1,0
144,192,125210,1,4
368,192,125624,1,4
56,56,126038,6,0,B|96:152|208:160,1,194,2|0
264,88,126659,1,0
172,76,126866,2,0,B|80:128|96:240,1,194,8|0
96,332,127486,1,0
256,352,127693,6,0,B|340:300,1,97,2|0
340,208,128107,2,0,B|256:256|256:256|172:208,1,194,0|8
340,208,128934,1,2
432,48,129348,6,0,B|332:28|248:88,1,194,4|2
232,104,129969,1,0
80,164,130176,2,0,B|180:144|264:204,1,194,4|2
280,216,130796,1,0
432,276,131003,2,0,B|332:256|248:316,1,194,4|2
232,332,131624,1,0
88,312,131831,6,0,B|76:240|164:188|220:240,1,194,8|0
8,324,132658,2,4,B|-12:180|160:80|272:180,3,388,4|4|4|2
270,178,135555,1,0
504,60,135969,2,4,B|524:204|352:304|240:204,1,388
241,205,137210,1,2
256,192,137624,12,4,139279
24,96,145900,5,2
112,72,146107,1,2
176,136,146313,1,8
264,112,146520,1,0
344,64,146727,1,2
400,136,146934,1,2
392,224,147141,1,8
360,312,147348,6,0,B|240:336,1,97,0|2
168,208,147762,2,0,B|192:328,1,97,0|8
256,248,148176,1,8
312,176,148382,1,8
368,104,148589,1,8
424,32,148796,1,8
464,120,149003,5,4
408,192,149210,2,0,B|176:152,1,194,4|0
200,248,149831,2,0,B|432:288,1,194,4|0
408,192,150451,1,0
370,111,150658,2,4,B|328:16|256:32|184:16|142:111,1,291,4|8
104,192,151486,1,8
208,192,151693,2,0,B|343:192,1,97,2|0
256,272,152107,5,8
184,336,152313,2,6,B|80:360|0:320|-24:216|8:112|48:80,1,388,6|2
112,32,153348,1,2
120,128,153555,1,0
40,88,153762,1,8
192,72,153969,6,2,B|288:72|336:144|320:240|280:272|224:288,1,291
160,312,154796,1,0
120,224,155003,1,4
256,368,155417,1,4
352,312,155624,1,0
392,224,155831,6,2,B|456:160|416:56|328:16|272:48,1,291,2|0
200,104,156658,2,2,B|136:168|176:272|264:312|320:280,1,291,2|0
312,192,157486,2,0,B|136:352,1,194,4|8
256,352,158107,1,8
343,322,158313,2,0,B|200:192,1,194,4|8
136,120,158934,6,0,B|48:104|8:160|-8:232,1,194,4|0
0,312,159555,2,0,B|112:256,1,97,8|0
168,224,159969,1,2
256,192,160176,1,0
240,280,160382,1,8
184,136,160589,6,6,B|304:112|320:8|312:-8,1,194,6|0
384,72,161210,2,8,B|456:160,1,97,8|0
360,184,161624,1,2
360,184,161831,2,2,B|344:272|248:320|192:304,1,194,2|0
96,232,162451,5,4
200,216,162658,1,0
224,120,162865,1,8
136,64,163072,1,8
64,136,163279,1,2
96,232,163486,2,0,B|128:288|184:304,1,97,0|8
264,336,163900,6,2,B|312:232|432:200|440:200,1,194,6|2
504,176,164520,1,8
424,112,164727,1,8
336,64,164934,1,2
232,48,165141,1,0
136,80,165348,1,8
104,352,165762,6,0,B|328:352,1,194,4|8
48,272,166382,2,0,B|272:272,1,194,4|8
352,272,167003,1,8
456,272,167210,1,0
400,192,167417,6,0,B|176:192,1,194,4|8
456,112,168037,2,0,B|232:112,1,194,4|8
152,112,168658,1,8
48,112,168865,1,0
100,204,169072,5,4
154,309,169279,1,0
267,344,169486,1,8
373,290,169693,1,4
411,181,169900,1,0
357,75,170107,1,8
243,40,170314,1,8
137,94,170521,1,0
156,212,170727,5,4
204,305,170934,1,0
305,337,171141,1,8
401,288,171348,1,4
435,191,171555,1,0
386,95,171762,1,8
284,63,171969,1,8
189,112,172176,1,0
256,192,172382,5,6
256,192,172589,12,0,177348
