osu file format v14

[General]
AudioFilename: audio.mp3
AudioLeadIn: 0
PreviewTime: 33200
Countdown: 1
SampleSet: Normal
StackLeniency: 0.7
Mode: 1
LetterboxInBreaks: 0
WidescreenStoryboard: 1

[Editor]
DistanceSpacing: 0.7
BeatDivisor: 2
GridSize: 8
TimelineZoom: 1

[Metadata]
Title:Lucky Me Song ft. Courtney Fortune (Soundtrack Version)
TitleUnicode:Lucky Me Song ft. Courtney Fortune (Soundtrack Version)
Artist:We Bare Bears
ArtistUnicode:We Bare Bears
Creator:PotatoJet
Version:Kantan
Source:We Bare Bears Clips
Tags:pandas r cute cartoon network cn
BeatmapID:1388575
BeatmapSetID:654111

[Difficulty]
HPDrainRate:2
CircleSize:4
OverallDifficulty:2
ApproachRate:2
SliderMultiplier:1.4
SliderTickRate:1

[Events]
//Background and Video events
0,0,"We-Bare-Bears.jpg",0,0
//Break Periods
2,30420,31418
//Storyboard Layer 0 (Background)
//Storyboard Layer 1 (Fail)
//Storyboard Layer 2 (Pass)
//Storyboard Layer 3 (Foreground)
//Storyboard Sound Samples

[TimingPoints]
5565,344.827586206897,4,1,0,100,1,0
33158,359.281437125748,4,1,0,100,1,1
44655,359.281437125748,4,1,0,100,1,0

[HitObjects]
256,192,5547,5,0,0:0:0:0:
256,192,6944,1,2,0:0:0:0:
256,192,8323,1,0,0:0:0:0:
256,192,10047,1,0,0:0:0:0:
256,192,10392,1,2,0:0:0:0:
256,192,10737,1,0,0:0:0:0:
256,192,11427,1,2,0:0:0:0:
256,192,12806,1,0,0:0:0:0:
256,192,13151,1,2,0:0:0:0:
184,272,13840,2,0,L|360:272,1,140
256,192,15047,1,0,0:0:0:0:
256,192,15392,1,2,0:0:0:0:
256,192,15737,1,0,0:0:0:0:
256,192,16082,1,2,0:0:0:0:
256,192,16944,1,0,0:0:0:0:
256,192,17978,1,2,0:0:0:0:
256,192,18323,1,0,0:0:0:0:
256,192,18668,1,2,0:0:0:0:
256,192,19875,1,0,0:0:0:0:
256,192,20737,1,2,0:0:0:0:
256,192,21771,1,2,0:0:0:0:
256,192,22116,1,2,0:0:0:0:
184,272,23151,2,0,L|360:272,1,140
256,192,23840,1,2,0:0:0:0:
256,192,24185,1,0,0:0:0:0:
256,192,25737,1,0,0:0:0:0:
256,192,26944,1,0,0:0:0:0:
256,192,27289,1,2,0:0:0:0:
256,192,28323,1,2,0:0:0:0:
256,192,29013,1,0,0:0:0:0:
256,192,29358,1,0,0:0:0:0:
256,192,30220,1,2,0:0:0:0:
256,192,32978,5,0,0:0:0:0:
256,192,33876,1,2,0:0:0:0:
256,192,34595,1,0,0:0:0:0:
256,192,34954,1,0,0:0:0:0:
256,192,35672,1,0,0:0:0:0:
256,192,36032,1,2,0:0:0:0:
256,192,36391,1,2,0:0:0:0:
184,272,37110,2,0,L|360:272,1,140
256,192,38008,1,0,0:0:0:0:
256,192,38367,1,0,0:0:0:0:
256,192,39086,1,2,0:0:0:0:
256,192,39445,1,0,0:0:0:0:
184,272,39984,2,0,L|360:272,1,140
256,192,41241,1,2,0:0:0:0:
256,192,42140,1,2,0:0:0:0:
256,192,43936,1,0,0:0:0:0:
256,192,44295,1,0,0:0:0:0:
256,192,46092,1,2,0:0:0:0:
256,192,47529,1,0,0:0:0:0:
256,192,48966,1,2,0:0:0:0:
256,192,49684,1,0,0:0:0:0:
