osu file format v5

[General]
AudioFilename: We Are Scientists - The Great Escape_8 [7961].mp3
AudioLeadIn: 3000
PreviewTime: -1
Countdown: 1
SampleSet: Soft
StackLeniency: 0.7
Mode: 0
LetterboxInBreaks: 1
EditorBookmarks: 156683

[Metadata]
Title:The Great Escape
Artist:We Are Scientists
Creator:wyaeiga
Version:Great!!!
Source:
Tags:

[Difficulty]
HPDrainRate:6
CircleSize:4
OverallDifficulty:7
SliderMultiplier:1.4
SliderTickRate:1

[Events]
//Background and Video events
//Break Periods
2,55862,56395
2,62393,62926
2,71985,77620
2,110965,116804
2,150148,155783
//Storyboard Layer 0 (Background)
//Storyboard Layer 1 (Failing)
//Storyboard Layer 2 (Passing)
//Storyboard Layer 3 (Foreground)
//Storyboard Sound Samples
//Background Colour Transformations
3,100,0,0,0

[TimingPoints]
153,408.163265306122,4,2,0,100,1,0
13214,-100,4,1,0,100,0,0
124234,-100,4,1,0,100,0,1
156683,-100,4,1,0,100,0,0
195561,-100,4,2,0,0,0,0

[Colours]
Combo1 : 255,255,255
Combo2 : 192,192,192

[HitObjects]
424,128,153,1,8
320,128,357,2,8,B|288:72|168:72,1,140,8|8
264,152,969,2,8,B|232:96|112:96,1,140
208,176,1581,2,8,B|176:120|56:120,1,140
88,224,2193,1,0
152,304,2397,1,0
240,240,2601,1,0
320,176,2806,1,0
400,112,3010,1,8
192,80,3418,5,4
96,128,3622,2,4,B|144:176|240:160,1,140
128,208,4234,2,4,B|176:256|272:240,1,140
160,288,4846,2,4,B|208:336|304:320,1,140
368,240,5459,1,0
368,128,5663,1,0
368,128,5765,1,0
368,128,5867,1,0
368,240,6071,1,4
368,240,6275,1,4
160,240,6683,5,8
160,128,6887,2,8,B|256:256,1,140
224,128,7499,2,8,B|320:256,1,140
288,128,8112,2,8,B|384:256,1,140
368,128,8724,1,0
472,128,8928,1,0
472,232,9132,1,0
472,336,9336,1,0
368,336,9540,1,8
160,336,9948,5,2
264,336,10152,2,2,B|200:280|200:280|248:216,1,140
312,304,10765,2,2,B|248:248|248:248|296:184,1,140
360,272,11377,2,2,B|296:216|296:216|344:152,1,140
408,240,11989,1,0
328,176,12193,1,0
328,176,12295,1,0
328,176,12397,1,2
408,240,12601,1,0
408,240,12704,1,0
408,240,12806,1,2
456,32,13214,5,0
352,32,13418,2,0,B|352:192,1,140
296,80,14030,2,0,B|296:240,1,140
240,128,14642,2,0,B|240:288,1,140
184,176,15255,2,0,B|184:80,1,70
128,192,15663,2,0,B|128:120,1,70
72,216,16071,2,0,B|72:144,1,70
72,40,16479,5,0
176,40,16683,2,0,B|336:40,1,140
400,96,17295,2,0,B|240:96,1,140
176,152,17908,2,0,B|336:152,1,140
416,152,18520,1,0
416,256,18724,1,0
416,256,18826,1,0
416,256,18928,1,0
312,256,19132,1,0
208,256,19336,1,0
136,176,19540,1,0
64,96,19744,5,0
168,96,19948,2,0,B|240:96|240:96|240:176,1,140
216,64,20561,2,0,B|288:64|288:64|288:144,1,140
264,32,21173,2,0,B|336:32|336:32|336:112,1,140
336,200,21785,1,0
336,304,21989,1,0
336,200,22193,1,0
232,200,22397,1,0
128,200,22601,1,0
232,200,22806,1,0
336,200,23010,5,0
440,200,23214,2,0,B|400:200|400:200|400:176|400:176|400:144|400:144|440:144|440:144|488:144,1,140
352,200,23826,2,0,B|312:200|312:200|312:176|312:176|312:144|312:144|352:144|352:144|400:144,1,140
264,200,24438,2,0,B|224:200|224:200|224:176|224:176|224:144|224:144|264:144|264:144|312:144,1,140
176,200,25050,1,0
176,96,25255,1,0
176,96,25357,1,0
176,96,25459,1,0
72,96,25663,1,0
72,96,25765,1,0
72,96,25867,1,0
72,200,26071,1,0
160,144,26275,5,8
160,248,26479,1,8
72,200,26683,1,0
160,144,26887,1,0
160,248,27091,2,0,B|312:248,1,140,8|8
296,144,27704,1,8
392,200,27908,1,0
299,249,28112,1,0
296,144,28316,1,8
296,144,28724,5,8
296,40,28928,1,0
192,40,29132,1,8
192,144,29336,1,0
88,144,29540,1,8
88,248,29744,1,0
192,248,29948,1,8
296,248,30152,1,8
400,248,30357,1,8
400,248,30765,5,4
296,248,30969,1,0
192,248,31173,1,2
192,144,31377,1,0
296,144,31581,1,4
296,144,31989,1,4
296,144,32397,1,4
296,144,32806,5,0
400,144,33010,1,0
400,40,33214,1,0
296,40,33418,1,0
192,40,33622,1,0
192,40,34030,5,0
192,144,34234,1,0
192,248,34438,1,0
192,352,34642,1,0
296,352,34846,1,0
296,352,35255,5,0
296,248,35459,1,0
296,144,35663,1,0
296,40,35867,1,0
400,40,36071,1,0
400,144,36275,1,0
400,248,36479,1,0
400,352,36683,1,0
296,352,36887,1,0
296,352,37295,5,0
192,344,37499,1,0
192,240,37704,1,0
296,240,37908,1,0
296,136,38112,1,0
192,136,38316,1,0
192,32,38520,1,0
296,32,38724,1,0
400,32,38928,1,0
400,136,39132,2,0,B|312:200|488:256|184:240,1,280
192,240,40357,5,0
296,240,40562,1,0
400,240,40766,1,0
400,136,40969,2,0,B|168:136,2,210
400,136,42601,5,0
296,136,42806,1,0
192,136,43010,1,0
88,136,43214,1,0
88,136,43622,5,0
88,240,43826,1,0
88,344,44030,1,0
192,344,44234,2,0,B|192:80,2,210
192,344,45867,5,0
296,344,46071,1,0
400,344,46275,1,0
504,344,46479,1,0
504,344,46887,5,0
504,240,47091,1,0
400,240,47295,1,0
296,240,47499,2,0,B|296:-8,2,210
296,240,49132,6,0,B|144:240,1,140
48,240,49744,1,0
48,240,50152,5,0
48,136,50357,1,0
152,136,50561,1,0
256,136,50765,2,0,B|256:288,1,140
320,192,51377,2,0,B|320:40,1,140
384,136,51989,2,0,B|384:296,1,140
256,192,52601,12,0,53622
392,88,53826,5,0
288,88,54030,1,0
392,88,54234,1,0
392,192,54438,1,0
392,88,54642,1,0
320,160,54846,1,0
320,160,54948,1,0
320,160,55050,2,0,B|152:328,1,210
224,80,57295,6,0,B|424:80,1,140
280,144,57908,2,0,B|136:144,1,140
224,208,58520,2,0,B|408:208,1,140
256,192,59132,12,0,60357
120,88,60561,5,0
224,88,60765,1,0
120,88,60969,1,0
120,192,61173,1,0
192,160,61377,1,0
192,160,61479,1,0
192,160,61581,2,0,B|360:328,1,210
288,80,63826,6,0,B|88:80,1,140
232,144,64439,2,0,B|376:144,1,140
288,208,65050,1,0
288,208,65459,5,0
288,312,65663,2,0,B|192:328|120:264,1,140
152,184,66275,2,0,B|56:200|-16:136,1,140
24,56,66887,2,0,B|63:96|159:80,1,140
264,80,67499,1,0
368,80,67704,1,0
368,184,67908,1,0
264,184,68112,1,0
264,288,68316,1,0
368,288,68520,1,0
472,288,68724,5,0
472,184,68928,2,0,B|472:40,1,140
408,128,69540,2,0,B|408:280,1,140
344,184,70152,2,0,B|184:184,1,140
96,184,70765,1,0
96,288,70969,2,0,B|152:288,2,35
200,288,71377,2,0,B|248:288,2,35
304,288,71785,1,0
464,72,78520,5,0
360,72,78724,1,0
360,176,78928,1,0
256,176,79132,1,0
256,280,79336,1,0
256,72,79744,5,0
256,176,79948,1,0
152,176,80152,1,0
152,280,80357,1,0
48,280,80561,1,0
256,280,80969,5,0
256,176,81173,1,0
152,176,81377,1,0
152,72,81581,1,0
48,72,81785,1,0
152,72,81989,1,0
152,176,82193,1,0
256,176,82397,1,0
256,280,82601,1,0
256,72,83010,5,0
360,72,83214,1,0
360,176,83418,1,0
360,280,83622,1,0
464,280,83826,1,0
464,176,84030,1,0
464,72,84234,1,0
360,72,84438,1,0
360,176,84642,1,0
256,176,84846,2,0,B|96:176,1,140
184,248,85459,2,0,B|184:80,1,140
184,0,86071,5,0
288,0,86275,1,0
392,0,86479,1,0
392,104,86683,2,0,B|152:104,2,210
392,104,88316,5,0
288,104,88520,1,0
288,208,88724,1,0
184,208,88928,1,0
392,208,89336,5,0
288,208,89540,1,0
288,312,89744,1,0
184,312,89948,2,0,B|184:96,2,210
184,104,91581,5,0
288,104,91785,1,0
184,104,91989,1,0
288,104,92193,1,0
80,104,92601,5,0
184,104,92806,1,0
80,104,93010,1,0
184,104,93214,2,0,B|184:320,2,210
184,312,94846,5,0
80,312,95050,1,0
184,312,95255,1,0
80,312,95459,1,0
288,312,95867,5,0
184,312,96071,1,0
288,312,96275,1,0
184,312,96479,2,0,B|184:72,2,210
288,312,97908,6,0,B|176:310,1,70
112,312,98316,2,0,B|112:224,1,70
112,136,98724,2,0,B|208:136,1,70
288,136,99132,2,0,B|288:216,1,70
288,312,99540,2,0,B|376:312,1,70
464,312,99948,2,0,B|464:216,1,70
464,136,100357,2,0,B|376:136,1,70
288,136,100765,1,0
288,136,100867,1,0
288,136,100969,2,0,B|112:136|112:136|112:264,1,280
256,192,101887,12,0,102805
256,192,103010,5,0
256,192,103622,2,0,B|104:192,1,140
112,88,104234,2,0,B|280:88,1,140
256,192,104744,12,0,106071
256,192,106275,5,0
256,88,106479,1,0
256,192,106683,1,0
256,296,106887,1,0
256,192,107091,1,0
256,192,107193,1,0
256,192,107295,1,0
152,192,107499,1,0
360,192,107908,2,0,B|104:192,1,210
256,192,108724,12,0,109540
256,192,110152,5,0
256,192,110765,1,0
96,80,117704,5,0
200,80,117908,2,0,B|104:200,1,140
216,176,118520,2,0,B|312:296,1,140
200,264,119132,2,0,B|104:384,1,140
216,376,119744,1,0
320,376,119948,1,0
320,272,120152,1,0
320,168,120357,1,0
320,64,120561,1,0
112,64,120969,5,0
208,64,121173,2,0,B|144:96|176:224,1,140
256,144,121785,2,0,B|304:224|192:304,1,140
128,272,122397,2,0,B|176:368|288:352,1,140
336,352,123010,1,0
336,248,123214,1,0
336,144,123418,1,0
336,248,123622,1,0
232,248,123826,1,0
440,248,124234,5,0
336,248,124438,1,0
336,144,124642,1,0
232,144,124846,1,0
232,40,125050,1,0
336,40,125255,1,0
336,144,125459,1,0
232,144,125663,1,0
224,248,125867,1,0
120,248,126071,1,0
224,248,126275,1,0
328,248,126479,1,0
432,248,126683,1,0
328,248,126887,1,0
224,248,127091,1,0
120,248,127295,1,0
120,144,127499,5,0
224,144,127704,1,0
120,144,127908,1,0
120,248,128112,1,0
120,144,128316,1,0
120,40,128520,1,0
224,40,128724,1,0
224,144,128928,1,0
224,40,129132,2,0,B|456:56|456:280|88:344,1,560
120,232,130969,5,0
120,128,131173,1,0
120,24,131377,1,0
120,128,131581,1,0
120,232,131785,1,0
224,232,131989,1,0
224,128,132193,1,0
328,128,132397,1,0
432,128,132601,1,0
328,128,132806,1,0
328,24,133010,1,0
328,128,133214,1,0
328,232,133418,1,0
432,232,133622,1,0
432,336,133826,1,0
328,336,134030,5,0
224,336,134234,1,0
224,232,134438,1,0
224,128,134642,1,0
328,128,134846,1,0
328,24,135050,1,0
224,24,135255,1,0
120,24,135459,1,0
120,24,135561,1,0
120,24,135663,1,0
120,128,135867,1,0
120,232,136071,1,0
120,232,136173,1,0
120,232,136275,1,0
120,128,136479,1,0
224,128,136683,1,0
328,128,136887,1,0
432,128,137091,1,0
256,192,137295,12,0,138928
152,88,139132,6,0,B|280:88,1,70
328,88,139540,2,0,B|328:184,1,70
328,264,139948,2,0,B|224:264,1,70
152,264,140357,1,0
256,192,140561,12,0,142193
136,80,142397,5,0
240,80,142601,1,0
192,176,142806,1,0
192,280,143010,1,0
288,232,143214,1,0
328,136,143418,1,0
432,104,143622,1,0
256,192,143826,12,0,145458
256,192,145663,5,0
256,192,145867,2,0,B|288:312,1,70
256,192,146275,2,0,B|176:184,1,70
256,192,146683,2,0,B|312:144,1,70
256,192,147091,12,0,148723
256,192,148928,6,0,B|256:248,10,35
64,312,156683,5,0
168,304,156887,1,0
264,272,157091,1,0
352,216,157295,1,0
408,128,157499,1,0
352,216,157704,1,0
264,272,157908,1,0
168,304,158112,1,0
88,232,158316,1,0
88,128,158520,1,0
176,80,158724,1,0
280,80,158928,1,0
368,136,159132,6,0,B|464:192,1,70
432,272,159540,1,0
336,312,159744,2,0,B|336:240,1,70
432,272,160152,1,0
376,176,160357,2,0,B|296:128,1,70
264,232,160765,2,0,B|232:328,1,70
168,288,161173,5,0
176,184,161377,1,0
272,136,161581,1,0
176,88,161785,2,0,B|272:48,1,70
344,64,162193,2,0,B|352:144,1,70
320,232,162601,2,0,B|128:160,2,140
320,128,163622,5,0
216,136,163826,1,0
200,240,164030,1,0
96,240,164234,1,0
72,136,164438,1,0
152,72,164642,1,0
256,72,164846,1,0
336,136,165050,2,0,B|344:224,1,70
240,224,165459,2,0,B|200:160,1,70
96,184,165867,6,0,C|48:248,1,70
120,320,166275,2,0,C|168:248,1,70
200,168,166683,2,0,C|296:192,1,70
368,200,167091,2,0,C|336:128,1,70
248,80,167499,1,0
152,128,167704,1,0
248,160,167908,2,0,C|264:248,1,70
160,264,168316,2,0,C|112:200|104:200,1,70
138,104,168724,1,0
368,104,168928,1,0
240,232,169132,1,0
240,104,169336,1,0
368,232,169540,1,0
240,104,169744,2,0,B|88:104|144:280,1,210
152,344,170561,1,0
80,120,170969,5,0
184,120,171173,1,0
288,120,171377,1,0
392,120,171581,2,0,B|240:216,1,140,0|0
376,200,172193,2,0,B|248:280,1,140,0|0
360,280,172806,2,0,B|232:360,1,140,0|0
200,256,173418,1,0
240,352,173622,1,0
200,256,173826,6,0,B|200:104,1,140
96,112,174438,5,0
200,120,174642,1,0
304,120,174846,2,0,B|400:280,1,140
304,312,175459,2,0,B|368:168,1,140
256,208,176071,2,0,B|424:200,1,140
304,240,176683,1,0
224,272,176887,1,0
144,304,177091,1,0
144,96,177499,5,0
248,80,177704,1,0
352,96,177908,1,0
344,200,178112,2,0,B|264:152|144:168|104:248,2,210
240,176,179540,1,0
240,280,179744,1,0
240,176,179948,1,0
240,72,180152,1,0
240,176,180357,1,0
448,176,180765,5,0
344,176,180969,1,0
240,176,181173,1,0
136,176,181377,2,0,B|96:248|248:312,1,140
296,304,181989,2,0,B|344:232|192:152,1,140
200,96,182601,2,0,B|288:40|360:184,1,140
408,184,183214,6,0,B|360:240,1,70
256,256,183622,2,0,B|184:192,1,70
216,104,184030,2,0,B|288:72,1,70
376,88,184438,5,0
272,88,184642,1,0
168,88,184846,1,0
168,192,185050,1,0
272,192,185254,1,0
272,192,185356,1,0
272,192,185458,1,0
376,192,185662,1,0
376,296,185867,2,0,B|104:304|176:176,1,280
272,192,186887,1,0
256,192,187091,12,0,187703
256,192,187908,5,0
256,192,188520,2,0,B|256:48,1,140
256,192,189132,2,0,B|256:344,1,140
256,192,189744,12,0,190969
136,296,191173,5,0
240,296,191377,1,0
344,296,191581,1,0
344,192,191785,1,0
240,192,191989,1,0
240,192,192091,1,0
240,192,192193,1,0
136,88,192397,2,0,B|408:80|336:208,1,280
240,192,193418,1,0
256,192,193622,12,0,194438
256,192,195050,5,0
256,192,195663,1,0
