osu file format v9

[General]
AudioFilename: NightMen.mp3
AudioLeadIn: 0
PreviewTime: -1
Countdown: 1
SampleSet: Soft
StackLeniency: 0.6
Mode: 0
LetterboxInBreaks: 1

[Editor]
DistanceSpacing: 0.8
BeatDivisor: 4
GridSize: 8

[Metadata]
Title:NightMen
Artist:Wazgul
Creator:BlackSavy
Version:Normal
Source:Team Fortress 2
Tags:BlackSavy Nightmen

[Difficulty]
HPDrainRate:2
CircleSize:3
OverallDifficulty:2
ApproachRate:2
SliderMultiplier:1.4
SliderTickRate:1

[Events]
//Background and Video events
Video,0,"NightMen.avi"
0,0,"A_Dark_Starry_Night_Wallpaper_by_s3vendays.jpg"
//Break Periods
2,12658,22895
2,69978,89214
//Storyboard Layer 0 (Background)
//Storyboard Layer 1 (Fail)
//Storyboard Layer 2 (Pass)
//Storyboard Layer 3 (Foreground)
//Storyboard Sound Samples
//Background Colour Transformations
3,100,0,0,255

[TimingPoints]
1794,333.259275716507,4,2,0,100,1,0
58781,-100,4,2,0,100,0,1
69778,-100,4,2,0,100,0,0

[Colours]
Combo1 : 0,0,255
Combo2 : 0,128,192
Combo3 : 64,128,128
Combo4 : 153,77,77

[HitObjects]
256,320,1793,5,8
256,208,2127,1,8
224,96,2460,2,8,B|256:64|288:96,1,70
256,208,2960,1,8
368,224,3293,5,0
304,312,3626,1,0
256,336,3793,1,0
200,336,3960,1,0
160,304,4126,1,8
160,192,4460,5,0
160,80,4793,2,0,B|0:80,2,140
256,16,5793,1,0
352,80,6126,1,0
352,192,6459,1,0
440,256,6792,1,8
336,240,7126,5,8
288,144,7459,1,8
176,144,7792,1,8
128,240,8125,1,8
32,304,8459,5,0
32,304,8625,2,0,B|32:208,3,70
32,128,9458,1,8
128,80,9792,6,0,B|224:80|224:80|272:112,1,140
368,144,10458,1,8
352,256,10792,6,0,B|269:256|269:256|221:224,1,140
288,144,11458,1,8
224,48,11791,5,0
176,80,11958,1,0
144,128,12125,1,0
144,240,12458,5,0
104,64,24455,5,8
200,112,24788,1,8
120,192,25122,1,8
200,272,25455,1,8
312,272,25788,1,8
392,192,26121,1,8
312,112,26455,1,8
408,64,26788,1,8
312,32,27121,1,0
200,32,27454,1,8
120,104,27788,5,0
120,216,28121,1,0
232,216,28454,1,8
232,328,28788,1,8
344,320,29121,6,0,B|414:320,1,70
416,264,29454,2,0,B|416:290|416:194,2,70
304,264,30121,1,8
304,152,30454,2,0,B|304:56,2,70
192,152,31120,2,0,B|192:40,2,70
128,248,31787,6,0,B|128:312|128:312|224:312,1,140
308,312,32453,2,0,B|384:312|384:312|384:248,1,140
384,128,33120,1,0
272,128,33453,1,0
160,128,33786,2,0,B|80:128|80:128|80:208,1,140
80,304,34453,1,2
192,304,34786,1,2
192,192,35119,5,0
192,80,35453,1,0
304,80,35786,2,2,B|416:80,2,70
304,192,36452,1,4
256,192,36619,12,0,37452
336,304,37786,5,8
432,240,38119,1,8
432,128,38452,1,8
336,64,38785,2,0,B|240:64|240:64|192:112,1,140
208,208,39452,1,8
96,208,39785,2,0,B|96:68,1,140
200,104,40452,5,0
312,104,40785,1,0
256,200,41118,1,0
256,256,41285,1,0
256,312,41451,1,0
256,368,41618,1,0
200,272,41951,2,0,B|200:152|200:152|312:152|312:152|312:272,1,350
424,296,43118,5,8
424,184,43451,1,8
312,184,43784,1,8
200,184,44117,5,8
88,184,44451,1,8
88,296,44784,1,8
200,296,45117,2,8,B|328:296,2,70
316,200,47117,6,0,B|284:264,1,70
228,264,47450,2,0,B|196:192,1,70
256,192,47783,1,0
256,80,48117,1,0
152,112,48450,5,8
72,192,48783,1,8
152,272,49116,1,8
232,192,49450,2,0,B|344:192,1,70
360,192,49783,1,8
472,192,50116,1,8
360,192,50449,1,8
352,80,50783,6,0,B|256:80|256:80|208:96,1,140
104,120,51449,1,0
104,176,51616,1,0
104,232,51782,1,0
216,232,52116,1,8
328,232,52449,1,8
328,120,52782,1,8
216,120,53115,1,8
104,120,53449,6,0,B|216:120,1,70
176,176,53782,2,0,B|272:176,1,70
256,192,54115,12,4,58448
256,192,58781,5,8
256,80,59114,1,8
200,80,59281,2,2,B|72:80,3,70
200,288,60447,1,8
256,288,60614,2,2,B|384:288,3,70,2|0|2|0
256,136,61614,6,0,B|336:136,1,70
384,136,61947,1,8
432,168,62113,1,8
432,224,62280,1,8
384,256,62447,1,8
328,256,62613,2,0,B|200:256,4,70
384,256,63446,2,0,B|440:224|440:224|440:160|440:160|440:120,1,140
440,40,64113,5,8
328,40,64446,1,8
328,152,64780,1,8
216,152,65113,1,8
216,264,65446,1,0
328,264,65779,2,2,B|456:264,4,70
112,192,67112,5,8
112,80,67446,1,8
224,80,67779,1,0
224,192,68112,2,8,B|320:192,1,70
352,192,68445,1,8
352,304,68779,1,0
464,304,69112,1,0
464,192,69445,5,8
464,304,69778,1,12
56,56,90774,5,8
168,56,91107,1,8
168,168,91440,1,8
280,176,91774,1,0
280,232,91940,2,0,B|280:360,2,70
280,176,92440,1,8
280,64,92773,5,8
224,64,92940,2,2,B|112:64,1,70
88,160,93440,5,0
88,216,93606,1,0
88,272,93773,2,0,B|168:272,3,70
272,272,94606,1,8
384,272,94939,5,0
384,216,95106,2,0,B|384:120,2,70
272,216,95773,1,8
160,200,96106,6,2,B|160:104,1,70
104,128,96439,2,2,B|104:208,1,70
48,200,96772,1,8
48,312,97106,6,2,B|176:312,1,70
176,312,97439,2,2,B|288:312,1,70
304,312,97772,1,8
352,240,98105,5,8
352,176,98272,1,8
352,112,98439,1,8
256,192,98772,12,2,99938
72,56,100272,5,8
128,56,100438,2,0,B|208:32|208:32|352:32,1,210
384,56,101105,1,8
416,160,101438,6,2,B|416:240,1,70
360,232,101771,2,2,B|360:136,1,70
360,104,102105,1,8
248,104,102438,2,2,B|136:104,1,70
184,160,102771,2,2,B|280:160,1,70
256,216,103104,1,8
256,328,103438,5,0
256,216,103771,1,4
256,104,104104,5,8
256,0,104437,1,8
320,96,104771,2,0,B|256:136|184:96,1,140
128,96,105271,1,8
72,192,105604,5,0
72,248,105770,2,0,B|72:360,2,70
72,136,106437,1,8
168,192,106770,5,0
168,248,106937,2,0,B|168:320,3,70
280,312,107770,5,0
336,312,107937,1,0
392,312,108103,1,0
448,312,108270,2,8,B|448:242,1,70
448,128,108770,5,0
392,128,108936,2,8,B|304:128,1,70
240,80,109436,5,0
128,80,109770,1,0
128,192,110103,2,0,B|32:192,3,70
32,304,110936,6,0,B|64:208,1,70
112,240,111269,2,0,B|144:304,1,70
256,328,111769,1,8
256,216,112102,5,0
256,160,112269,2,8,B|256:48,3,70
144,88,113102,5,0
144,144,113269,2,8,B|144:240,3,70
256,192,114102,12,0,116435
256,128,116768,5,4
256,192,116935,1,4
256,256,117101,1,4
