osu file format v9

[General]
AudioFilename: NightMen.mp3
AudioLeadIn: 0
PreviewTime: -1
Countdown: 1
SampleSet: Normal
StackLeniency: 0.7
Mode: 0
LetterboxInBreaks: 1

[Editor]
DistanceSpacing: 1.1
BeatDivisor: 4
GridSize: 16

[Metadata]
Title:NightMen
Artist:Wazgul
Creator:BlackSavy
Version:InSavy
Source:Team Fortress 2
Tags:BlackSavy Nightmen

[Difficulty]
HPDrainRate:8
CircleSize:5
OverallDifficulty:8
ApproachRate:8
SliderMultiplier:1.4
SliderTickRate:1

[Events]
//Background and Video events
Video,0,"NightMen.avi"
0,0,"11444417_gal.jpg"
//Break Periods
2,18656,23705
2,69978,82063
//Storyboard Layer 0 (Background)
//Storyboard Layer 1 (Fail)
//Storyboard Layer 2 (Pass)
//Storyboard Layer 3 (Foreground)
//Storyboard Sound Samples
//Background Colour Transformations
3,100,0,0,255

[TimingPoints]
1794,333.259275716507,4,1,0,100,1,0
58152,333.259275716507,4,1,0,100,1,0
58152,333.259275716507,4,1,0,100,1,0
58781,-100,4,1,0,100,0,1
69778,-100,4,1,0,100,0,0
82776,-100,4,2,0,90,0,0
90774,-100,4,1,0,100,0,0
116851,-100,4,1,0,80,0,0
116935,-100,4,1,0,50,0,0

[Colours]
Combo1 : 0,0,255
Combo2 : 0,128,192
Combo3 : 64,128,128
Combo4 : 153,77,77

[HitObjects]
56,48,1793,1,8
128,64,1960,1,8
200,80,2127,1,8
320,176,2460,1,0
272,232,2627,1,0
256,80,2960,1,8
272,232,3293,5,0
192,232,3460,2,0,B|160:200|112:200,2,70
224,80,4126,1,8
376,80,4460,5,0
416,144,4626,1,0
352,192,4793,2,0,B|288:208|256:240|256:304,1,140
104,312,5459,5,0
56,248,5625,1,0
104,192,5792,2,0,B|168:208|200:240|200:304,1,140
256,136,6459,5,8
256,56,6626,1,8
256,136,6792,1,8
408,104,7126,5,0
408,184,7292,1,0
352,232,7459,1,0
320,248,7542,1,0
288,264,7626,1,0
208,264,7792,1,0
200,184,7959,1,0
48,184,8292,1,8
184,112,8625,5,0
224,104,8709,1,0
264,96,8792,1,0
336,112,8959,1,0
416,112,9125,1,0
400,184,9292,1,0
384,216,9375,1,0
368,248,9458,1,8
216,248,9792,6,0,B|216:136|216:136|112:136,1,210
120,56,10458,1,8
152,208,10792,6,0,B|54:208|54:208|54:320,1,210
128,320,11458,1,8
272,264,11791,5,0
272,184,11958,1,0
272,104,12125,1,0
120,104,12458,5,4
88,56,13791,5,8
240,64,14124,1,0
272,88,14207,1,0
296,120,14291,2,0,B|352:120|336:176,1,70
64,296,15124,5,0
80,224,15291,1,0
96,192,15374,1,0
128,176,15457,2,0,B|176:144|208:192,1,70
192,248,15790,1,0
488,160,16457,5,0
488,80,16624,1,0
408,88,16790,2,0,B|408:168,1,70
344,208,17123,2,0,B|264:208,1,70
200,208,17457,2,0,B|200:278,1,70
120,280,17790,1,0
120,128,18123,1,0
272,128,18456,1,0
80,56,24455,6,0,B|160:56|160:56|200:112,1,140
272,104,24955,1,0
352,104,25122,1,0
432,104,25288,1,0
432,184,25455,1,0
344,312,25788,5,8
264,312,25955,1,8
216,256,26121,1,0
232,224,26205,1,0
248,192,26288,1,0
248,112,26455,1,8
248,32,26621,1,8
176,56,26788,1,0
152,88,26871,1,0
128,120,26955,1,0
104,192,27121,5,8
104,272,27288,1,8
184,272,27455,1,0
208,248,27538,1,0
232,224,27622,1,0
296,184,27788,1,0
376,184,27954,1,0
456,184,28121,1,0
320,104,28454,6,0,B|240:72|176:104,1,140
184,256,29121,2,0,B|248:304|328:256,1,140
472,256,29787,2,0,B|520:176|472:96,1,140
336,80,30454,5,2
184,80,30787,1,2
184,232,31120,1,2
336,240,31454,1,2
408,104,31787,1,8
408,144,31870,1,8
408,184,31953,1,0
408,264,32120,1,0
408,344,32287,1,0
336,312,32453,5,8
336,312,32620,1,8
288,248,32787,1,0
264,224,32870,1,0
240,200,32953,1,0
216,176,33037,1,0
192,152,33120,1,0
80,48,33453,5,8
80,48,33620,1,8
136,104,33786,1,0
160,128,33869,1,0
184,152,33953,1,0
208,176,34036,1,0
232,200,34119,1,0
312,64,34453,2,8,B|376:16|440:64,1,140
408,216,35119,5,8
256,216,35453,1,8
368,112,35786,1,0
328,120,35869,1,0
288,128,35953,1,0
256,280,36286,1,8
104,280,36619,2,0,B|88:248|40:232,1,70
48,160,36952,2,0,B|32:96|80:96,1,70
128,56,37286,2,8,B|176:40|224:72,1,70
232,56,37536,1,0
256,24,37619,1,0
336,32,37786,5,0
416,32,37952,1,0
416,112,38119,2,0,B|352:128|384:176,2,70
360,256,38785,6,0,B|280:192,1,70
232,224,39119,1,0
192,208,39202,1,0
160,192,39285,1,0
104,144,39452,1,8
224,48,39785,5,4
304,48,39952,1,4
384,48,40118,1,4
416,200,40452,5,8
416,280,40618,1,8
336,280,40785,1,8
336,200,40951,2,0,B|304:184|272:216,1,70
224,280,41285,1,8
144,280,41451,2,0,B|112:232|144:200,1,70
72,72,41951,5,0
144,56,42118,1,8
176,72,42201,1,8
208,88,42285,1,8
288,88,42451,1,0
440,88,42784,1,0
368,224,43118,6,0,B|320:160,1,70
288,232,43451,2,0,B|224:152,1,70
168,176,43784,1,8
248,48,44117,6,0,B|296:112,1,70
328,32,44451,2,0,B|392:112,1,70
456,112,44784,1,8
312,176,45117,2,0,B|248:176,2,35
312,256,45450,1,8
160,256,45784,5,4
136,48,47117,5,8
24,152,47450,1,8
136,256,47783,1,0
288,256,48117,1,0
400,152,48450,5,0
320,152,48616,2,0,B|240:152,2,70
400,152,49116,1,8
448,296,49450,5,0
296,296,49783,1,0
304,144,50116,1,0
152,144,50449,1,8
152,64,50616,1,8
152,144,50783,1,0
304,144,51116,1,0
424,48,51449,5,0
432,128,51616,2,0,B|432:208,1,70
400,216,51866,1,0
368,240,51949,2,0,B|368:310,1,70
336,336,52199,1,0
296,328,52282,2,0,B|216:328,1,70
328,136,52782,5,8
176,136,53115,1,8
176,288,53449,1,8
328,288,53782,1,8
256,192,54115,12,0,55115
256,192,55448,5,0
256,192,55532,1,0
256,192,55615,1,0
256,96,55782,1,2
256,288,56115,1,2
160,168,56448,5,0
80,168,56615,1,0
80,88,56781,1,0
80,168,56948,1,0
80,248,57115,1,0
216,168,57448,5,8
368,168,57781,1,8
216,168,58114,2,0,B|248:216|232:248|184:296,1,140
336,328,58781,5,2
184,328,59114,1,0
120,280,59281,1,0
120,240,59364,1,0
120,200,59447,1,0
176,144,59614,1,0
256,144,59781,1,0
496,336,60447,5,0
432,296,60614,1,2
432,256,60697,1,2
432,216,60780,1,2
432,136,60947,1,0
352,136,61114,1,0
464,32,61780,5,0
408,32,61901,2,0,B|408:168,1,105
344,136,62280,2,0,B|248:136,1,70
200,136,62613,1,8
120,136,62780,1,8
120,216,62947,6,0,B|152:184|200:216,2,70
80,280,63446,1,0
32,216,63613,1,0
80,152,63780,1,0
200,56,64113,5,8
200,56,64280,1,8
200,56,64446,1,8
336,128,64780,5,0
384,184,64946,1,0
344,248,65113,1,0
200,304,65446,5,8
200,304,65613,1,8
200,304,65816,1,8
72,256,66113,2,0,B|40:176|72:96,1,140
192,40,66779,1,4
416,160,67112,6,0,B|352:208,1,70
400,272,67446,2,0,B|480:208,2,70
320,280,67945,1,8
248,312,68112,1,8
176,288,68279,1,8
176,128,68612,5,0
240,176,68779,1,0
304,128,68945,1,0
368,176,69112,1,0
256,272,69445,5,8
256,112,69778,1,4
32,32,82813,5,0
152,128,83146,1,8
184,56,83313,1,8
264,56,83479,1,8
488,288,84146,5,0
352,352,84479,1,8
352,272,84645,1,8
288,224,84812,1,8
56,56,85479,5,0
368,64,86145,1,0
128,256,86812,1,0
288,256,87145,1,0
312,224,87228,1,0
336,192,87312,1,0
336,112,87478,1,0
24,104,88145,5,2
240,336,88811,1,0
240,256,88978,1,0
416,112,89478,1,0
112,112,90144,1,0
192,112,90311,1,0
400,288,90811,5,8
456,232,90977,1,8
400,184,91144,1,8
344,232,91311,1,8
264,232,91477,1,8
208,88,91811,5,8
128,88,91977,1,8
48,88,92144,1,8
48,168,92310,1,8
48,248,92477,1,8
200,256,92810,5,2
224,232,92894,1,2
256,200,92977,1,2
288,168,93060,1,2
320,136,93144,1,2
192,56,93477,5,0
112,56,93644,1,0
112,136,93810,2,0,B|192:104|272:152,1,140
328,136,94310,1,0
408,136,94477,1,0
408,216,94643,1,0
296,320,94977,6,0,B|264:240|168:256,2,140
376,320,95810,1,8
384,168,96143,5,8
304,168,96310,1,8
232,136,96476,1,0
200,160,96560,1,0
168,184,96643,1,0
88,192,96810,1,8
152,48,97143,5,0
184,72,97226,1,0
216,96,97309,1,0
296,96,97476,1,0
360,136,97643,1,0
392,160,97726,1,0
424,184,97809,1,0
416,320,98105,6,8,B|384:288|336:320,2,70
264,296,98772,5,0
184,296,98939,1,0
136,232,99105,1,0
152,200,99189,1,0
168,168,99272,1,0
192,96,99438,1,8
272,96,99605,1,8
352,96,99772,1,8
432,96,99938,1,8
448,248,100272,6,0,B|432:328|320:328,1,140
272,328,100772,1,0
192,328,100938,1,0
192,248,101105,1,0
112,248,101271,1,0
112,168,101438,1,0
112,88,101605,5,0
208,96,101808,2,0,B|248:56|248:56|352:56,1,140
464,160,102475,2,2,B|464:256|464:256,1,70
384,240,102808,2,2,B|384:336|384:336,1,70
304,312,103142,1,0
240,168,103475,5,2
208,144,103558,1,2
176,120,103641,1,2
144,96,103725,1,2
112,72,103808,1,2
72,224,104141,5,0
152,224,104308,1,0
232,224,104475,2,0,B|304:160|304:160|368:192,1,140
376,232,104937,1,0
416,232,105021,1,0
456,232,105104,1,0
456,152,105271,1,8
304,80,105641,6,0,B|256:72|224:112,1,70
256,168,105974,2,0,B|288:184|336:152,1,70
168,168,106474,1,8
64,280,106807,5,0
136,312,106974,1,0
200,272,107140,1,0
200,192,107307,1,0
280,192,107474,1,8
304,40,107807,6,0,B|224:8|176:88,2,140
440,112,108807,1,0
440,192,108973,1,0
360,192,109140,1,0
232,104,109473,5,0
152,104,109640,1,0
96,152,109807,1,0
104,192,109890,1,0
112,232,109973,1,0
192,248,110140,1,8
272,248,110306,1,8
424,248,110640,1,0
424,96,110973,5,0
344,104,111140,1,0
312,88,111223,1,0
280,72,111306,1,0
200,72,111473,1,0
200,152,111640,1,0
200,232,111806,1,8
72,152,112139,5,8
72,152,112306,1,8
120,88,112473,1,2
152,72,112556,1,2
184,56,112639,1,2
216,40,112723,1,2
248,24,112806,1,2
392,80,113139,5,8
392,80,113306,1,8
344,136,113472,1,2
312,152,113555,1,2
280,168,113638,1,2
248,184,113722,1,2
216,200,113805,1,2
64,176,114139,5,0
80,144,114222,1,0
96,112,114306,1,0
152,56,114472,1,8
232,56,114639,1,8
312,56,114805,1,8
392,56,114972,1,8
392,136,115139,1,8
392,216,115305,1,8
392,296,115472,1,8
240,328,115805,6,0,B|256:248|176:184,1,140
40,192,116472,1,8
160,96,116805,5,0
176,128,116888,1,0
192,160,116972,1,0
208,192,117055,1,0
224,224,117138,1,0
304,96,117471,5,0
