osu file format v5

[General]
AudioFilename: Stick Figures.mp3
AudioLeadIn: 0
PreviewTime: -1
Countdown: 1
SampleSet: Normal
EditorBookmarks: 21011,41437,82288,103032,143564,153777,276330

[Metadata]
Title:Stick Figures
Artist:Wayne Lytle
Creator:rotaryengine
Version:Normal

[Difficulty]
HPDrainRate:5
CircleSize:5
OverallDifficulty:5
SliderMultiplier:1.4
SliderTickRate:2

[Events]
//Background and Video events
1,-1976,"Stick Figures.avi"
//Break Periods
2,59532,81112
2,121767,142388
2,181767,196963
2,235703,254729
//Storyboard Layer 0 (Background)
//Storyboard Layer 1 (Failing)
//Storyboard Layer 2 (Passing)
//Storyboard Layer 3 (Foreground)
//Storyboard Sound Samples
//Background Colour Transformations
3,48,163,162,255

[TimingPoints]
610,638.297872340426,4,1,0,100

[HitObjects]
64,304,21035,1,0
64,128,22312,1,0
192,80,22950,1,0
240,128,23269,1,0
240,288,24865,1,0
368,336,25503,1,0
416,288,25822,1,0
448,336,27418,5,0
448,192,28056,1,0
448,128,28375,1,0
384,144,29014,1,0
320,160,29333,1,0
256,144,29652,1,0
80,96,31248,5,0
128,48,32524,2,0,L|288:48,2,140
304,112,35078,2,0,L|144:112,2,140
448,48,37631,1,0
448,144,38269,1,0
448,208,38588,1,0
384,192,39227,1,0
320,176,39546,1,0
256,192,39865,1,0
48,336,41461,5,0
48,272,42737,2,0,B|112:96|240:96,1,245
464,272,45290,2,0,B|400:96|272:96,1,245
48,272,47844,2,0,B|112:96|240:96,1,245
320,96,50397,2,0,B|416:96,3,70
390,96,51514,1,0
64,128,52950,6,0,L|64:224|128:224|128:336,1,245
208,336,55503,2,0,L|208:240|272:240|272:128,1,245
352,128,58056,2,0,L|352:224|416:224|416:336,1,245
256,192,82312,5,0
256,128,83269,2,0,L|256:32,2,70
256,192,84227,1,0
256,256,84546,2,0,L|256:304,1,35
256,192,87418,1,0
256,128,88375,2,0,L|256:32,2,70
256,192,89333,1,0
256,256,89652,2,0,L|256:304,1,35
80,288,90610,2,0,L|80:160,1,105
48,48,92524,5,0
112,64,93482,2,0,L|176:80,2,35
208,92,94758,2,0,L|272:108,2,35
304,112,96035,2,0,L|368:128,2,35
368,80,96992,2,0,L|448:48,2,70
432,160,98588,6,0,L|432:208,2,35
352,224,99865,2,0,L|352:144,1,70
352,224,100822,1,0
208,224,101461,1,0
64,224,102099,2,0,L|16:224,2,35
112,272,103056,6,0,L|160:272,5,35
112,352,104333,1,0
186,352,104652,1,0
250,352,104971,1,0
250,352,105131,1,0
256,240,105610,2,0,L|224:208,5,35
160,128,106887,1,0
240,128,107206,1,0
320,128,107525,1,0
352,128,107685,1,0
320,256,108163,6,0,L|256:256,5,35
176,256,109440,1,0
176,176,109759,1,0
176,96,110078,1,0
176,96,110238,1,0
256,176,110716,1,0
336,176,111035,2,0,L|336:80,1,70
416,48,113269,6,0,L|368:48,5,35
272,48,114546,1,0
192,48,114865,1,0
112,48,115184,1,0
112,48,115344,1,0
48,144,115822,2,0,L|96:144,5,35
192,144,117099,1,0
272,144,117418,1,0
352,144,117737,1,0
352,144,117897,1,0
416,240,118375,6,0,L|368:240,5,35
272,240,119652,1,0
192,240,119971,1,0
112,240,120290,1,0
112,240,120450,1,0
192,144,120929,1,0
112,144,121248,2,0,L|112:64,1,70
48,48,143588,5,0
208,192,144546,2,0,L|272:256,1,70
352,144,145344,1,0
432,208,145822,1,0
432,144,146141,2,0,L|432:112,1,35
432,109,146780,1,0
464,48,148695,1,0
304,192,149653,2,0,L|240:256,1,70
160,144,150290,1,0
80,208,150610,1,0
80,128,150929,2,0,L|80:48|160:48,2,140
80,192,152524,1,0
48,48,153801,6,0,L|272:48,1,210
288,96,155078,1,0
320,144,155556,1,0
416,144,156035,1,0
416,208,156354,2,0,L|416:336,1,105
256,32,158907,1,0
256,224,159865,2,0,L|256:320,1,70
256,294,160503,1,0
256,294,160822,1,0
256,294,161141,1,0
464,48,164014,5,0
304,192,164972,2,0,L|240:256,1,70
160,144,165770,1,0
160,240,166248,1,0
224,208,166567,2,0,L|272:176,1,35
368,112,167206,1,0
48,48,169121,1,0
208,192,170079,2,0,L|272:256,1,70
352,144,170716,1,0
432,208,171036,1,0
432,128,171355,2,0,L|432:48|352:48,2,140
432,192,172950,1,0
464,48,174227,6,0,L|240:48,1,210
224,96,175504,1,0
192,144,175982,1,0
96,144,176461,1,0
96,208,176780,2,0,L|96:336,1,105
256,32,179333,1,0
256,224,180291,2,0,L|256:320,1,70
256,294,180929,1,0
256,294,181248,1,0
256,294,181567,1,0
64,48,198163,6,0,L|96:48,2,35
64,112,199120,2,0,L|96:112,2,35
64,48,203269,2,0,L|96:48,2,35
64,48,204067,1,0
64,112,204546,1,0
64,176,204865,2,0,L|160:176,1,70
368,176,206461,1,0
368,64,206780,1,0
304,64,207099,2,0,L|272:64,1,35
128,64,209333,5,0
64,64,209652,2,0,L|64:336|443:333|443:64,1,910
448,48,218588,6,0,L|416:48,2,35
448,112,219545,2,0,L|416:112,2,35
448,48,223695,2,0,L|416:48,2,35
448,48,224493,1,0
448,112,224972,1,0
448,176,225291,2,0,L|352:176,1,70
144,176,226887,1,0
144,64,227206,1,0
208,64,227525,2,0,L|240:64,1,35
384,64,229759,5,0
448,64,230078,2,0,L|448:336|69:333|69:64,1,910
69,74,235503,1,0
48,48,255929,6,0,B|48:256|224:352,1,350
240,288,257844,1,0
272,224,258163,2,0,B|348:76,4,140
336,256,261035,1,0
400,288,261354,2,0,B|480:144,3,140
468,165,263588,1,0
416,208,264066,1,0
416,208,264545,1,0
464,48,266141,6,0,B|464:256|288:352,1,350
272,288,268056,1,0
240,224,268375,2,0,B|164:76,4,140
176,256,271248,1,0
112,288,271567,2,0,B|32:144,3,140
44,165,273801,1,0
96,208,274279,1,0
96,208,274758,1,0
48,336,276354,5,0
48,272,277630,2,0,B|112:96|240:96,1,245
464,272,280183,2,0,B|400:96|272:96,1,245
48,272,282737,2,0,B|112:96|240:96,1,245
320,96,285290,2,0,B|416:96,3,70
390,96,286407,1,0
256,192,287844,12,0,295503
