osu file format v6

[General]
AudioFilename: Animusic - Pipe Dream.mp3
AudioLeadIn: 0
PreviewTime: 157434
Countdown: 0
SampleSet: Normal
StackLeniency: 0.7
Mode: 0
LetterboxInBreaks: 1

[Editor]
DistanceSpacing: 1
BeatDivisor: 4
GridSize: 8

[Metadata]
Title:Pipe Dream
Artist:Wayne Lytle
Creator:Tanmak
Version:Hard
Source:Animusic
Tags:pipe dream animusic ball

[Difficulty]
HPDrainRate:5
CircleSize:4
OverallDifficulty:6
SliderMultiplier:1.4
SliderTickRate:1

[Events]
//Background and Video events
Video,320,"Animusic - Pipe Dream.avi"
0,0,"pipe dream a.jpg"
//Break Periods
2,28535,34380
2,119955,131676
//Storyboard Layer 0 (Background)
//Storyboard Layer 1 (Fail)
//Storyboard Layer 2 (Pass)
//Storyboard Layer 3 (Foreground)
//Storyboard Sound Samples
//Background Colour Transformations
3,100,250,116,159

[TimingPoints]
-245,405.405405405405,4,2,1,100,1,0
15764,-100,4,2,1,100,0,0
18736,-100,4,1,1,40,0,0
19006,-100,4,2,1,100,0,0
42584,-100,4,1,2,100,0,0
43057,-100,4,2,1,100,0,0
43530,-100,4,1,2,100,0,0
44850,-100,4,1,2,69,0,0
45084,-100,4,1,1,100,0,0
45948,-100,4,2,0,100,0,0
47111,-100,4,1,2,100,0,0
48295,-100,4,1,2,70,0,0
48597,-100,4,1,2,100,0,0
49205,-100,4,2,0,100,0,0
50759,-100,4,1,2,100,0,0
51579,-100,4,2,0,100,0,0
54274,-100,4,1,2,70,0,0
54812,-100,4,2,0,100,0,0
68155,-100,4,2,0,100,0,0
69878,-100,4,1,2,100,0,0
71195,-100,4,2,0,100,0,0
74742,-100,4,2,0,100,0,0
76465,-100,4,1,2,100,0,0
77580,-100,4,2,0,100,0,0
80721,-100,4,1,1,100,0,0
81532,-100,4,1,2,100,0,0
82039,-100,4,1,1,100,0,0
83153,-100,4,1,2,100,0,0
83660,-100,4,1,1,100,0,0
84775,-100,4,1,2,100,0,0
85281,-100,4,1,1,100,0,0
86396,-100,4,1,2,100,0,0
86599,-100,4,2,2,100,0,0
87207,-100,4,1,1,100,0,0
88017,-100,4,1,2,100,0,0
88524,-100,4,1,1,100,0,0
89639,-100,4,1,2,100,0,0
90146,-100,4,1,1,100,0,0
91260,-100,4,1,2,100,0,0
91767,-100,4,1,1,100,0,0
92578,-100,4,1,2,100,0,0
93113,-100,4,2,2,100,0,0
93794,-100,4,1,2,100,0,0
95212,-100,4,2,0,100,0,0
97267,-100,4,1,2,100,0,0
98320,-100,4,2,0,100,0,0
100381,-100,4,1,2,100,0,0
101698,-100,4,2,0,100,0,0
103725,-100,4,1,2,100,0,0
104738,-100,4,2,0,100,0,0
106866,-100,4,1,2,100,0,0
108082,-100,4,2,0,100,0,0
110009,-100,4,1,2,100,0,0
111426,-100,4,2,0,100,0,0
113352,-100,4,1,2,100,0,0
114563,-100,4,2,0,100,0,0
116504,-100,4,1,2,100,0,0
117709,-100,4,2,0,100,0,0
119635,-100,4,1,0,100,0,0
131897,-100,4,2,1,100,0,0
158447,-100,4,2,2,100,0,0
168176,-100,4,1,2,69,0,0
168581,-100,4,2,2,100,0,0
190977,-100,4,1,2,100,0,0
192193,-100,4,2,1,100,0,0
192598,-100,4,1,2,100,0,0
193834,-100,4,1,1,100,0,0
194186,-100,4,1,2,70,0,0

[Colours]
Combo1 : 250,122,247
Combo2 : 194,231,109
Combo3 : 230,155,242
Combo4 : 255,255,68

[HitObjects]
112,280,15971,5,0
248,280,16376,2,0,B|320:280,1,70
200,200,16984,2,0,B|112:200,2,70
376,88,17998,2,0,B|376:168,3,70
376,224,18808,1,0
456,336,19214,5,0
312,336,19619,2,0,B|248:288,1,70
128,48,20633,1,0
128,184,21038,1,0
176,232,21241,2,0,B|232:288,3,70
432,88,22457,6,0,B|384:88|344:112|288:144|272:176,1,210,0|0
120,200,23470,1,0
120,272,23673,2,0,B|208:272,1,70
256,272,24079,2,0,B|344:272,1,70
464,112,24889,2,0,B|392:112,3,70
368,48,25700,6,0,B|296:48|232:56|192:64|152:80,1,210
48,160,26714,1,0
96,208,26916,2,0,B|152:264,1,70
192,312,27322,2,0,B|256:248|256:248|248:248,1,70
296,208,27727,2,0,B|368:280,1,70
392,312,28133,2,0,B|456:248,1,70
40,80,35430,5,0
112,80,35632,2,0,B|152:80,2,35
184,80,36038,1,0
256,80,36241,1,0
328,80,36443,1,0
400,80,36646,1,0
472,80,36849,1,0
472,152,37051,5,0
400,152,37254,2,0,B|360:152,2,35
328,152,37659,1,0
256,152,37862,1,0
184,152,38065,1,0
112,152,38268,1,0
40,152,38470,1,0
40,224,38673,5,0
112,224,38876,2,0,B|152:224,2,35
184,224,39281,1,0
256,224,39484,1,0
328,224,39686,1,0
400,224,39889,1,0
256,192,40295,12,4,41511
216,296,41916,5,0
72,296,42322,2,0,B|72:224,1,70
72,152,42727,2,8,B|72:80,1,70
144,80,43132,2,0,B|200:136,1,70
293,31,43740,2,0,B|317:31|357:31,2,35
339,83,44146,1,0
391,129,44349,1,0
417,194,44551,1,0
381,253,44754,1,0
330,301,44957,1,4
273,343,45159,5,0
128,344,45565,1,0
56,344,45767,1,0
56,200,46173,2,0,B|24:128|56:56,2,140
136,200,47186,2,0,B|120:152|120:112,1,70
248,80,47794,2,0,B|256:104|256:136|256:136|248:160,2,70
320,80,48403,5,4
456,80,48808,2,8,B|488:96|464:168,1,70
456,280,49416,2,2,B|456:352,2,70
336,200,50227,1,4
232,104,50632,1,4
160,104,50835,2,0,B|104:104,5,46.6666666666667
160,104,51646,5,4
160,176,51848,1,4
160,312,52254,1,4
256,192,52659,12,4,54685
72,152,55092,5,0
144,152,55294,1,0
216,152,55497,1,0
288,152,55700,2,0,B|432:152,1,140
440,232,56713,5,0
368,232,56916,1,0
296,232,57119,1,0
224,232,57321,1,0
152,232,57524,1,0
80,104,58335,5,0
128,152,58538,1,0
176,104,58740,1,0
224,152,58943,2,0,B|368:152,1,140
464,344,59956,5,0
416,296,60159,1,0
368,248,60362,1,0
320,296,60565,1,0
272,248,60767,1,0
56,56,61578,5,0
104,104,61781,1,0
152,152,61983,1,0
224,152,62186,2,0,B|368:152,1,140
464,336,63200,5,0
416,288,63402,1,0
368,240,63605,1,0
296,240,63808,1,0
224,240,64010,1,0
72,152,64821,5,0
144,152,65024,1,0
216,152,65227,1,0
288,152,65429,2,0,B|432:152,1,140
256,192,66038,12,4,67862
80,248,68470,6,0,B|128:248,2,35
152,248,68875,1,0
224,248,69078,2,0,B|384:248,1,140
80,248,70294,6,8,B|80:168,1,70
96,80,71713,5,2
96,80,71916,2,2,B|168:80,1,70
320,104,73740,5,4
176,104,74146,1,4
440,192,74956,6,0,B|392:192,2,35
368,192,75362,1,0
296,192,75564,2,0,B|144:192,1,140
440,192,76781,6,8,B|440:112,1,70,8|8
416,80,78200,6,2,B|344:80,2,70
312,104,80227,6,4,B|152:104,1,140
112,104,80835,5,0
112,312,81443,1,0
184,312,81645,1,0
464,320,82456,5,0
464,112,83064,1,0
392,112,83267,1,0
112,112,84078,5,0
112,320,84686,1,0
184,320,84889,1,0
464,320,85699,5,0
456,112,86308,1,0
384,112,86510,1,0
312,112,86713,2,4,B|160:112,1,140
104,112,87321,5,0
104,320,87929,1,0
176,320,88132,1,0
320,80,88944,5,0
112,80,89552,1,0
112,152,89755,1,0
384,80,90564,5,0
392,288,91172,1,0
320,288,91375,1,0
120,88,92186,5,0
400,88,92997,1,0
400,160,93199,2,4,B|352:208|264:224,1,140
64,240,94213,6,8,B|40:208|72:168,3,70
128,208,95024,1,0
264,208,95429,1,0
336,208,95632,1,0
408,208,95836,1,0
480,208,96037,1,0
480,136,96240,2,0,B|440:120|384:120|328:144,1,140
200,144,97051,5,4
232,280,97456,6,8,C|196:288|164:280,3,70
56,192,98470,6,0,B|96:192,2,35
128,192,98875,1,0
200,192,99078,1,0
64,32,99686,2,4,B|144:48|216:96,1,140
440,144,100699,6,8,B|464:176|432:216,3,70
376,176,101510,1,0
240,176,101917,1,0
168,176,102118,1,0
96,176,102321,1,0
24,176,102524,1,0
24,248,102726,2,0,B|64:264|120:264|176:240,1,140
296,240,103537,5,4
264,104,103944,6,8,C|301:96|333:104,3,70
440,192,104956,6,0,B|400:192,2,35
368,192,105363,1,0
296,192,105565,1,0
432,352,106173,2,4,B|352:336|280:288,1,140
72,144,107186,6,8,B|48:176|80:216,3,70
136,176,107998,1,0
208,176,108199,1,0
280,176,108402,1,0
352,176,108605,1,0
384,112,108809,2,0,B|440:176|368:248,2,140
440,240,110429,6,8,B|464:208|432:168,3,70
296,208,111444,2,0,B|232:208,2,35
224,208,111848,1,0
152,208,112052,2,0,B|104:200|104:136|216:144,1,140
272,144,112659,2,4,B|304:24|344:160,1,140
456,224,113672,6,8,B|480:192|448:152,3,70,8|8|8|8
248,192,114890,1,0
192,240,115091,1,0
136,192,115294,2,0,B|24:80,2,140
56,224,116917,6,8,B|32:192|64:152,3,70,8|8|8|8
192,192,117929,2,0,B|256:192,2,35
264,192,118336,1,0
336,192,118537,1,0
160,72,119145,2,4,B|216:64|248:56|288:72|320:72,1,140
368,72,119755,5,4
80,312,132726,5,0
216,312,133133,2,0,B|296:312,1,70
416,144,133944,2,0,B|360:200,1,70
296,72,134552,1,0
152,72,134956,2,0,B|88:136,2,70
432,312,135971,5,0
296,312,136375,2,0,B|216:312,1,70
96,144,137187,2,0,B|152:200,1,70
216,72,137795,1,0
352,72,138199,1,0
296,112,138402,2,0,B|296:136|312:152|360:168,1,70
472,120,139011,1,0
432,72,139214,5,0
296,72,139618,2,0,B|216:72,1,70
88,232,140429,2,0,B|144:176,1,70
208,304,141037,1,0
328,232,141444,2,0,B|392:168,2,70
328,304,142052,2,0,B|376:304,2,35
400,304,142456,5,0
256,304,142863,2,0,B|176:304,1,70
64,128,143672,2,0,B|120:184,1,70
200,64,144282,1,0
336,64,144687,2,0,B|400:128,2,70
472,224,145699,5,0
368,136,146106,2,0,B|312:192,1,70
112,240,146917,2,0,B|168:184,1,70
232,312,147525,1,0
376,312,147930,2,0,B|440:248,2,70
80,72,148944,5,0
216,72,149349,2,0,B|296:72,1,70
416,240,150160,2,0,B|368:176,1,70
288,72,150768,1,0
216,192,151173,2,0,B|168:264,2,70
144,72,151984,1,0
72,72,152187,5,0
208,72,152592,2,0,B|288:72,1,70
416,224,153403,2,0,B|360:168,1,70
296,296,154011,1,0
152,296,154417,2,0,B|88:232,2,70
80,296,155025,2,0,B|32:296,2,35
48,232,155430,5,0
256,232,156038,1,0
464,232,156646,2,0,B|368:232,1,70
344,104,157255,1,0
200,104,157660,1,0
128,104,157863,2,0,B|128:144|184:176,1,70
80,296,158673,5,8
152,296,158876,2,8,B|240:296,1,70
288,296,159282,1,8
360,296,159484,2,8,B|408:296|408:248,1,70
408,184,159890,1,8
408,112,160092,2,8,B|408:32,1,70
344,80,160498,1,8
280,40,160700,2,8,B|280:112,1,70
216,80,161106,1,8
152,112,161309,2,8,B|152:16,1,70
88,80,161714,1,8
32,40,161917,5,12
32,112,162119,1,8
136,118,162423,1,8
239,137,162726,1,8
335,179,163032,1,8
420,239,163336,1,8
480,320,163640,1,8
368,320,163944,1,8
296,320,164146,1,8
224,320,164349,1,8
152,320,164552,1,8
80,320,164755,2,8,B|24:320,2,35
80,248,165160,5,0
152,248,165363,1,0
224,248,165565,2,0,B|200:200|176:184,1,70
112,192,165971,1,0
184,192,166173,1,0
256,192,166376,2,0,B|232:144|192:128,1,70
144,136,166782,1,0
184,80,166984,1,0
256,80,167187,1,0
392,80,167592,1,0
256,80,167998,1,0
120,64,168403,5,4
208,120,168707,1,0
296,176,169011,1,0
384,232,169315,1,0
456,160,169619,2,0,B|480:128,3,35
440,104,170025,5,0
352,48,170329,1,0
272,120,170633,1,0
200,192,170937,1,0
120,256,171241,2,0,B|88:288,3,35
72,256,171646,5,8
96,152,171950,1,8
176,88,172255,1,8
272,56,172560,1,8
376,48,172864,2,8,B|400:48|416:120,1,70
432,168,173269,5,8
336,120,173573,1,8
232,96,173877,1,8
128,64,174181,1,8
24,48,174485,2,8,B|8:48|24:136,1,70
24,184,174891,6,0,B|80:240,1,70
144,232,175295,2,0,B|200:176,1,70
264,184,175700,2,0,B|336:256,1,70
384,232,176106,2,0,B|448:168,1,70
432,112,176511,2,0,B|360:40,1,70
312,64,176917,2,0,B|248:128,1,70
192,112,177322,2,0,B|128:48,1,70
72,64,177727,1,0
72,224,178133,6,8,B|120:224,4,35
144,224,178741,1,8
216,224,178944,1,8
320,224,179248,1,8
424,224,179552,1,8
440,160,179754,6,0,B|392:160,4,35
368,160,180362,1,0
296,160,180565,1,0
192,160,180869,1,0
88,160,181173,1,0
88,232,181376,6,8,B|144:232,4,35
160,232,181984,1,8
232,232,182187,6,0,B|272:232,4,35
304,232,182795,1,0
304,160,182998,6,8,B|256:160,4,35
232,160,183606,1,8
160,160,183808,6,0,B|120:160,4,35
88,160,184417,1,0
56,224,184620,5,8
192,224,185026,1,0
328,224,185431,1,8
464,224,185836,1,0
336,160,186242,1,8
208,96,186647,1,0
72,64,187053,1,8
208,48,187457,1,0
344,48,187862,5,8
464,120,188268,1,8
256,152,188876,1,8
48,120,189484,1,8
256,152,190092,1,8
48,152,190700,2,8,B|56:208|72:232,1,70
104,272,191106,5,0
136,272,191207,1,0
168,272,191308,1,0
200,272,191410,1,0
304,272,191714,1,0
336,272,191815,1,0
368,272,191916,1,0
400,272,192018,1,0
392,168,192322,5,4
320,168,192524,5,4
248,168,192727,5,0
216,168,192829,1,0
184,168,192930,1,0
152,168,193031,1,0
144,64,193335,1,0
176,64,193437,1,0
208,64,193538,1,0
240,64,193639,1,0
344,64,193943,6,8,B|384:104,1,35
352,256,194349,5,0
352,256,194450,1,0
352,256,194552,1,0
352,256,194653,1,0
352,256,194754,1,0
352,256,194856,1,0
352,256,194957,1,0
352,256,195058,1,0
352,256,195160,1,0
352,256,195261,1,0
352,256,195362,1,0
352,256,195464,1,0
352,256,195565,1,0
352,256,195666,1,0
352,256,195768,1,0
352,256,195869,1,0
256,192,195970,12,4,197591
