osu file format v6

[General]
AudioFilename: Animusic - Pipe Dream.mp3
AudioLeadIn: 0
PreviewTime: 157434
Countdown: 0
SampleSet: Soft
StackLeniency: 0.7
Mode: 0
LetterboxInBreaks: 1

[Editor]
DistanceSpacing: 0.800000011920929
BeatDivisor: 4
GridSize: 8

[Metadata]
Title:Pipe Dream
Artist:Wayne Lytle
Creator:Tanmak
Version:Easy
Source:Animusic
Tags:pipe dream animusic ball

[Difficulty]
HPDrainRate:2
CircleSize:3
OverallDifficulty:2
SliderMultiplier:0.8
SliderTickRate:1

[Events]
//Background and Video events
Video,320,"Animusic - Pipe Dream.avi"
0,0,"pipe-2.jpg"
//Break Periods
2,52454,53330
//Storyboard Layer 0 (Background)
//Storyboard Layer 1 (Fail)
//Storyboard Layer 2 (Pass)
//Storyboard Layer 3 (Foreground)
//Storyboard Sound Samples
//Background Colour Transformations
3,100,250,116,159

[TimingPoints]
-245,405.405405405405,4,2,0,100,1,0
3401,-100,4,2,1,100,0,0
42314,-100,4,1,2,100,0,0
43234,-100,4,1,2,100,0,0
44754,-100,4,1,2,70,0,0
45940,-100,4,2,0,100,0,0
46883,-100,4,1,2,100,0,0
47584,-100,4,1,2,100,0,0
48597,-100,4,1,2,100,0,0
49205,-100,4,2,0,100,0,0
50016,-100,4,2,0,100,0,0
54475,-100,4,1,1,100,0,0
55691,-100,4,1,2,100,0,0
57717,-100,4,1,1,100,0,0
58832,-100,4,1,2,100,0,0
61264,-100,4,1,1,100,0,0
62176,-100,4,1,2,100,0,0
64214,-100,4,1,1,100,0,0
65520,-100,4,1,2,100,0,0
67457,-100,4,2,0,80,0,0
68054,-100,4,1,2,100,0,0
69180,-100,4,1,1,100,0,0
69890,-100,4,1,2,100,0,0
70802,-100,4,1,1,100,0,0
71410,-100,4,1,2,100,0,0
72331,-100,4,1,1,100,0,0
73141,-100,4,1,2,100,0,0
73741,-100,4,2,0,80,0,0
74349,-100,4,1,1,100,0,0
74856,-100,4,1,2,100,0,0
75677,-100,4,1,1,100,0,0
76433,-100,4,1,2,100,0,0
77187,-100,4,1,1,100,0,0
78090,-100,4,1,2,100,0,0
78795,-100,4,1,1,100,0,0
79619,-100,4,1,2,100,0,0
80227,-100,4,2,0,80,0,0
80836,-100,4,1,1,100,0,0
81646,-100,4,1,2,100,0,0
81646,-100,4,1,2,100,0,0
82052,-100,4,1,1,100,0,0
83268,-100,4,1,2,100,0,0
83673,-100,4,1,1,100,0,0
84890,-100,4,1,2,100,0,0
85295,-100,4,1,1,100,0,0
86511,-100,4,1,2,100,0,0
86714,-100,4,2,0,80,0,0
87322,-100,4,1,1,100,0,0
88133,-100,4,1,2,100,0,0
88538,-100,4,1,1,100,0,0
89754,-100,4,1,2,100,0,0
90160,-100,4,1,1,100,0,0
91376,-100,4,1,2,100,0,0
91782,-100,4,1,1,100,0,0
93200,-100,4,2,0,100,0,0
93403,-100,4,1,1,100,0,0
93606,-100,4,2,0,100,0,0
93707,-100,4,1,1,100,0,0
94214,-100,4,1,2,100,0,0
94417,-100,4,1,1,100,0,0
95025,-100,4,1,2,100,0,0
95227,-100,4,1,1,100,0,0
95836,-100,4,1,2,100,0,0
96140,-100,4,1,1,100,0,0
96646,-100,4,1,2,100,0,0
97052,-100,4,2,0,80,0,0
98268,-100,4,1,1,100,0,0
98876,-100,4,1,2,100,0,0
99180,-100,4,1,1,100,0,0
99687,-100,4,1,2,100,0,0
99991,-100,4,1,1,100,0,0
100700,-100,4,1,2,100,0,0
101004,-100,4,1,1,100,0,0
101511,-100,4,1,2,100,0,0
101714,-100,4,1,1,100,0,0
102322,-100,4,1,2,100,0,0
102626,-100,4,1,1,100,0,0
103133,-100,4,1,2,100,0,0
103538,-100,4,2,0,80,0,0
104754,-100,4,1,1,100,0,0
105565,-100,4,1,2,100,0,0
105869,-100,4,2,0,80,0,0
106646,-100,4,1,1,100,0,0
106984,-100,4,1,2,100,0,0
107476,-100,4,1,1,100,0,0
107998,-100,4,1,2,100,0,0
108200,-100,4,1,1,100,0,0
108606,-100,4,1,2,100,0,0
109113,-100,4,1,1,100,0,0
109619,-100,4,1,2,100,0,0
109890,-100,4,1,1,100,0,0
110227,-100,4,1,2,100,0,0
110734,-100,4,1,1,100,0,0
111241,-100,4,1,2,100,0,0
111444,-100,4,1,1,100,0,0
111849,-100,4,1,2,100,0,0
112356,-100,4,2,0,80,0,0
113133,-100,4,1,1,100,0,0
113673,-100,4,1,2,100,0,0
113977,-100,4,1,1,100,0,0
114484,-100,4,1,2,100,0,0
114687,-100,4,1,1,100,0,0
115295,-100,4,1,2,100,0,0
115599,-100,4,1,1,100,0,0
116106,-100,4,1,2,100,0,0
116376,-100,4,1,1,100,0,0
116917,-100,4,1,2,100,0,0
117221,-100,4,1,1,100,0,0
117727,-100,4,1,2,100,0,0
117930,-100,4,1,1,100,0,0
119552,-100,4,1,0,100,0,0

[Colours]
Combo1 : 250,122,247
Combo2 : 194,231,109
Combo3 : 230,155,242
Combo4 : 255,255,68

[HitObjects]
72,336,15971,2,0,B|208:336,1,120
192,208,17390,2,0,B|192:160|216:104|232:88,1,120
416,72,19214,6,0,B|448:120|448:192,1,120
440,312,20633,2,0,B|368:312|312:272,1,120
216,208,22052,1,0
152,208,22457,6,0,B|96:208|48:160|40:144,1,120
48,56,23673,1,0
144,56,24282,1,0
368,56,25700,6,0,B|400:88|416:120|424:144|424:160,1,120
424,256,26917,1,0
368,336,27525,1,0
224,160,28944,6,0,B|192:128|152:112|112:112,2,120
224,224,30565,2,0,B|192:256|176:296|176:336,2,120
288,224,32187,2,0,B|320:256|360:272|400:272,2,120
288,160,33809,2,0,B|320:128|336:88|336:48,2,120
224,160,35430,6,0,B|192:128|176:88|176:48,2,120
288,160,37052,2,0,B|320:128|360:112|400:112,2,120
288,224,38673,2,0,B|320:256|336:296|336:336,2,120
224,224,40295,2,0,B|168:288,1,80
112,304,41106,2,0,B|16:304,1,80
80,120,42727,6,8,B|136:120|136:120,1,40
272,120,43741,2,0,B|368:120,2,80
272,184,44957,1,4
72,192,46173,6,0,B|72:240|112:280,1,80
192,264,47187,2,0,B|248:264,1,40
296,264,47795,2,0,B|384:264,1,80
384,168,48809,6,8,B|384:112,1,40
384,64,49417,2,2,B|288:64,1,80
240,64,50227,2,4,B|144:64,1,80
160,224,51646,6,4,B|216:224,1,40
264,224,52254,1,4
424,72,54890,5,0
360,72,55295,1,0
264,72,55903,2,0,B|208:72|176:96,2,80
72,192,58133,5,0
136,192,58538,1,0
232,192,59146,2,0,B|320:192,2,80
392,192,60971,1,0
392,256,61376,6,0,B|304:256,1,80
232,256,62390,2,0,B|184:256|144:272,2,80
112,72,64619,6,0,B|168:72|208:96,1,80
320,72,65836,1,0
320,168,66444,1,0
320,264,67052,1,0
192,264,67863,5,4
192,136,68673,1,0
320,136,69484,1,0
320,264,70295,1,0
448,264,71106,5,0
448,136,71917,1,0
320,136,72727,1,0
192,136,73538,2,0,B|144:136,1,40,0|4
88,136,74146,2,0,B|88:192,1,40,4|0
88,304,75160,5,0
216,304,75971,1,0
344,304,76782,1,0
472,304,77592,5,0
472,176,78403,1,0
472,48,79214,1,0
344,48,80025,2,0,B|288:48,1,40,0|4
240,48,80633,2,0,B|192:48,1,40,4|0
104,48,81444,6,0,B|48:48,1,40
104,168,82457,1,0
200,168,83065,2,0,B|248:168,1,40
288,48,84079,5,0
384,48,84687,2,0,B|384:104,1,40
384,216,85700,1,0
384,312,86309,2,0,B|440:312,2,40,0|0|4
320,312,87119,2,0,B|272:312,1,40,4|0
184,312,87930,6,0,B|136:312,1,40
96,192,88944,1,0
96,96,89552,2,0,B|96:48,1,40
224,40,90565,5,0
320,40,91173,2,0,B|376:40,1,40
488,40,92187,1,0
480,168,92998,2,0,B|424:168,3,40,0|4|0|4
408,168,93809,6,0,B|360:168|312:168,1,80
232,168,94822,2,0,B|184:168,1,40
128,168,95430,2,0,B|128:264,1,80
224,248,96444,2,0,B|272:248,3,40,0|0|0|4
472,192,98673,6,0,B|416:192,1,40
336,192,99484,2,0,B|384:192,1,40
376,96,100295,6,0,B|288:96,1,80,0|0
208,128,101309,2,0,B|152:128,1,40
104,128,101917,2,0,B|40:192,1,80
48,280,102930,2,0,B|88:320,3,40,0|0|0|4
64,112,105160,6,0,B|112:96|152:96,1,80
240,96,106173,2,4,B|336:96,1,80
352,96,106782,5,0
416,96,107187,1,0
416,192,107795,2,0,B|416:240,1,40
416,296,108403,1,0
352,296,108809,1,0
256,296,109417,2,0,B|208:296,2,40
256,296,110025,5,0
256,232,110430,1,0
256,136,111038,2,0,B|256:88,1,40
256,32,111646,5,0
192,32,112052,1,0
96,32,112660,2,4,B|96:128,1,80
96,112,113268,6,0,B|96:200,1,80
96,288,114282,2,0,B|144:288,1,40
200,288,114890,2,0,B|288:288,1,80
376,288,115903,2,0,B|432:288,2,40
376,288,116511,6,0,B|376:192,1,80
376,112,117525,2,0,B|376:64,1,40
256,192,118133,12,4,119754
