osu file format v6

[General]
AudioFilename: Animusic - Pipe Dream.mp3
AudioLeadIn: 0
PreviewTime: 157434
Countdown: 0
SampleSet: Soft
StackLeniency: 0.7
Mode: 0
LetterboxInBreaks: 1

[Editor]
DistanceSpacing: 0.899999976158142
BeatDivisor: 4
GridSize: 8

[Metadata]
Title:Pipe Dream
Artist:Wayne Lytle
Creator:Tanmak
Version:Normal
Source:Animusic
Tags:pipe dream animusic ball

[Difficulty]
HPDrainRate:4
CircleSize:4
OverallDifficulty:5
SliderMultiplier:1.4
SliderTickRate:1

[Events]
//Background and Video events
Video,320,"Animusic - Pipe Dream.avi"
0,0,"pipe-2.jpg"
//Break Periods
2,39482,41527
2,52455,53690
2,119955,131527
2,142454,144500
2,155427,156865
//Storyboard Layer 0 (Background)
//Storyboard Layer 1 (Fail)
//Storyboard Layer 2 (Pass)
//Storyboard Layer 3 (Foreground)
//Storyboard Sound Samples
//Background Colour Transformations
3,100,250,116,159

[TimingPoints]
-245,405.405405405405,4,2,0,100,1,0
3401,-100,4,2,1,100,0,0
42314,-100,4,1,2,100,0,0
43632,-100,4,1,2,100,0,0
44343,-100,4,1,2,70,0,0
45050,-100,4,1,1,100,0,0
45940,-100,4,2,0,100,0,0
47077,-100,4,1,2,100,0,0
47584,-100,4,1,2,100,0,0
48293,-100,4,1,2,70,0,0
48597,-100,4,1,2,100,0,0
49205,-100,4,2,0,100,0,0
50016,-100,4,2,0,100,0,0
54475,-100,4,1,1,100,0,0
55691,-100,4,1,2,100,0,0
57717,-100,4,1,1,100,0,0
58832,-100,4,1,2,100,0,0
61264,-100,4,1,1,100,0,0
62176,-100,4,1,2,100,0,0
64507,-100,4,1,1,100,0,0
65520,-100,4,1,2,100,0,0
67142,-100,4,2,0,80,0,0
68054,-100,4,2,1,100,0,0
97239,-100,4,1,2,100,0,0
98253,-100,4,2,1,100,0,0
99570,-100,4,2,1,100,0,0
100178,-100,4,2,1,100,0,0
103725,-100,4,1,2,100,0,0
104941,-100,4,2,1,100,0,0
107880,-100,4,1,2,100,0,0
108184,-100,4,2,1,100,0,0
109501,-100,4,1,2,100,0,0
109906,-100,4,2,1,100,0,0
111122,-100,4,1,2,100,0,0
111426,-100,4,2,1,100,0,0
114365,-100,4,1,2,100,0,0
114669,-100,4,2,1,100,0,0
115987,-100,4,1,2,100,0,0
116392,-100,4,2,1,100,0,0
117608,-100,4,1,2,100,0,0
117912,-100,4,2,1,100,0,0
119635,-100,4,1,0,100,0,0
132302,-100,4,1,1,100,0,0
132910,-100,4,2,0,100,0,0
133417,-100,4,1,2,100,0,0
134143,-100,4,2,0,100,0,0
135038,-100,4,1,2,100,0,0
135849,-100,4,1,1,100,0,0
136153,-100,4,2,0,100,0,0
136660,-100,4,1,2,100,0,0
137369,-100,4,2,0,100,0,0
138281,-100,4,1,2,100,0,0
138484,-100,4,2,0,100,0,0
139092,-100,4,1,1,100,0,0
139396,-100,4,2,0,100,0,0
139902,-100,4,1,2,100,0,0
140612,-100,4,2,0,100,0,0
141524,-100,4,1,2,100,0,0
145476,-100,4,1,1,100,0,0
145881,-100,4,2,0,100,0,0
146388,-100,4,1,2,100,0,0
147097,-100,4,2,0,100,0,0
148009,-100,4,1,2,100,0,0
148820,-100,4,1,1,100,0,0
149124,-100,4,2,0,100,0,0
149631,-100,4,1,2,100,0,0
150340,-100,4,2,0,100,0,0
151252,-100,4,1,2,100,0,0
151455,-100,4,2,0,100,0,0
152063,-100,4,1,1,100,0,0
152367,-100,4,2,0,100,0,0
152874,-100,4,1,2,100,0,0
153684,-100,4,2,0,100,0,0
154495,-100,4,1,2,100,0,0
157839,-100,4,2,1,100,0,0
158548,-100,4,1,1,100,0,0
158852,-100,4,1,2,100,0,0
159156,-100,4,1,1,100,0,0
159765,-100,4,1,2,100,0,0
160069,-100,4,1,1,100,0,0
160474,-100,4,1,2,100,0,0
160778,-100,4,1,1,100,0,0
161386,-100,4,1,2,100,0,0
161791,-100,4,1,1,100,0,0
162095,-100,4,1,2,100,0,0
162399,-100,4,1,1,100,0,0
163007,-100,4,1,2,100,0,0
163311,-100,4,1,1,100,0,0
163615,-100,4,1,2,100,0,0
163919,-100,4,1,1,100,0,0
164426,-100,4,2,1,100,0,0
165059,-100,4,1,1,100,0,0
165338,-100,4,1,2,100,0,0
165642,-100,4,1,1,100,0,0
166250,-100,4,1,2,100,0,0
166554,-100,4,1,1,100,0,0
166959,-100,4,1,2,100,0,0
166959,-100,4,1,2,100,0,0
167263,-100,4,1,1,100,0,0
167872,-100,4,1,2,100,0,0
168176,-100,4,1,1,69,0,0
168581,-100,4,1,2,100,0,0
168885,-100,4,1,1,100,0,0
169493,-100,4,1,2,100,0,0
169797,-100,4,1,1,100,0,0
170202,-100,4,1,2,100,0,0
170506,-100,4,1,1,100,0,0
170810,-100,4,2,1,100,0,0
171520,-100,4,1,1,100,0,0
171824,-100,4,1,2,100,0,0
172128,-100,4,1,1,100,0,0
172736,-100,4,1,2,100,0,0
173040,-100,4,1,1,100,0,0
173445,-100,4,1,2,100,0,0
173749,-100,4,1,1,100,0,0
174357,-100,4,1,2,100,0,0
174762,-100,4,1,1,100,0,0
175066,-100,4,1,2,100,0,0
175371,-100,4,1,1,100,0,0
175979,-100,4,1,2,100,0,0
176283,-100,4,1,1,100,0,0
176688,-100,4,1,2,100,0,0
176992,-100,4,1,1,100,0,0
177296,-100,4,1,2,100,0,0
177884,-100,4,2,1,100,0,0
190875,-100,4,1,2,100,0,0
192193,-100,4,2,1,100,0,0
192598,-100,4,1,2,100,0,0
194219,-100,4,1,2,69,0,0

[Colours]
Combo1 : 250,122,247
Combo2 : 194,231,109
Combo3 : 230,155,242
Combo4 : 255,255,68

[HitObjects]
88,264,15971,1,0
216,264,16375,2,0,B|304:264,1,70
88,112,17390,1,0
264,176,17998,2,0,B|328:112,1,70
464,248,19214,5,0
360,312,19618,2,0,B|328:312|296:256,1,70
112,104,20633,1,0
112,104,21038,1,0
160,144,21241,1,0
208,184,21444,1,0
368,280,22052,2,0,B|416:312,2,35
392,216,22457,6,0,B|344:256,4,35
392,216,23065,1,0
264,216,23471,1,0
200,216,23673,1,0
136,216,23876,1,0
448,216,24890,2,0,B|448:144,2,70
448,280,25498,1,0
384,280,25700,5,0
328,96,26309,1,0
200,96,26714,1,0
144,128,26917,1,0
144,192,27119,1,0
200,304,27525,1,0
304,232,27930,1,0
344,184,28133,1,0
384,136,28336,1,0
424,88,28538,6,0,B|464:48,2,35
384,136,28944,1,0
248,264,29552,1,0
120,128,30160,2,0,B|80:88,3,35
72,80,30565,1,0
216,200,31173,1,0
368,312,31782,6,0,B|408:352,3,35
416,360,32187,1,0
264,240,32795,1,0
400,104,33403,2,0,B|432:72,3,35
448,56,33809,1,0
320,200,34417,1,0
144,264,35025,6,0,B|112:296,3,35
96,312,35430,1,0
240,184,36038,1,0
400,288,36646,2,0,B|440:328,3,35
448,336,37052,1,0
312,200,37660,1,0
168,80,38268,6,0,B|128:40,3,35,0|0|0|0
120,32,38673,1,0
256,192,39282,1,0
64,288,42727,6,8,B|64:216,1,70
240,40,43741,2,0,B|296:40,2,35
464,264,44957,1,4
416,304,45160,5,0
296,344,45565,1,0
232,344,45768,1,0
104,336,46173,2,0,B|48:264|104:192,2,140
168,336,47187,2,0,B|200:312|200:256,1,70
200,152,47795,2,0,B|200:80,2,70
248,192,48403,5,4
328,240,48809,2,8,B|400:288,1,70
400,120,49417,2,2,B|400:40,2,70
296,192,50227,1,4
192,120,50633,1,4
192,328,51646,5,4
256,328,51849,1,4
384,328,52255,1,4
128,280,54890,6,0,B|200:280,2,70
128,88,55903,1,0
256,88,56309,1,0
384,88,56714,1,0
384,152,56917,1,0
384,88,58133,6,0,B|304:88,2,70
384,272,59146,1,0
320,272,59349,1,0
256,272,59552,1,0
192,272,59755,2,0,B|104:272,2,70
440,272,60971,2,0,B|456:240|424:200,1,70
408,144,61376,6,0,B|408:104|368:80,2,70
240,56,62390,1,0
184,88,62592,1,0
128,120,62795,1,0
72,152,62998,2,0,B|56:184|72:224,2,70
344,312,64417,1,0
368,248,64619,6,0,B|400:208|400:152,2,70
200,56,65836,2,0,C|160:56|160:104,1,70
272,136,66444,2,0,C|304:136|304:192,1,70,0|0
192,232,67052,2,0,C|152:232|152:272,1,70,0|4
40,328,67660,1,4
72,264,67863,5,4
256,264,68471,1,0
440,264,69079,1,0
464,136,69484,5,0
272,136,70092,1,0
80,136,70700,1,0
40,264,71106,5,0
224,264,71714,1,0
408,264,72322,1,0
464,152,72727,5,0
272,152,73336,1,0
80,152,73944,1,0
104,272,74349,5,0
200,112,74957,1,0
304,272,75565,1,0
432,272,75971,5,0
328,112,76579,1,0
224,272,77187,2,0,B|160:272|136:240,1,70
96,272,77592,5,0
192,104,78200,1,0
280,272,78809,1,0
408,272,79214,5,0
312,104,79822,1,0
232,272,80430,2,0,B|184:272|152:240,1,70
104,272,80836,5,0
288,272,81444,1,0
480,272,82052,1,0
416,160,82457,5,0
224,160,83065,1,0
32,160,83673,2,0,B|32:120|80:96,1,70
112,64,84079,5,0
296,64,84687,1,0
480,64,85295,1,0
416,176,85700,5,0
224,176,86309,1,0
32,168,86917,2,0,B|32:232|80:232,1,70
104,272,87322,5,0
208,112,87930,1,0
304,272,88538,1,0
432,272,88944,5,0
328,112,89552,1,0
136,272,90363,1,0
72,272,90565,5,0
165,107,91173,1,0
256,272,91782,1,0
256,272,92187,5,0
344,104,92795,1,0
424,272,93403,2,0,B|464:256|480:216|480:216|472:216,1,70
480,160,93809,6,0,B|456:96|408:96,5,70
304,224,95430,2,0,B|280:288|232:288,5,70
72,280,97052,5,4
112,160,97457,6,8,B|72:144|32:160,3,70
232,192,98673,6,0,B|256:128|304:128,4,70
224,256,99687,2,4,B|376:256,1,140
424,256,100295,5,0
352,152,100700,2,0,B|328:88|280:88,4,70
264,240,101917,6,0,B|240:304|192:304,5,70
256,112,103538,5,4
336,207,103944,6,8,C|313:231|275:246,3,70
104,160,105160,6,0,B|128:96|176:96,4,70
88,224,106173,2,4,B|152:264|232:216,1,140
280,224,106782,6,0,B|304:288|352:288,5,70
384,280,107998,1,0
424,160,108403,6,0,B|400:96|352:96,5,70
319,111,109619,6,0,B|336:103|360:167,1,70
296,168,110025,6,0,B|272:104|224:104,5,70
192,112,111241,1,0
63,111,111646,6,0,B|80:103|104:167,4,70
40,168,112660,2,4,B|80:264|160:216,1,140
208,224,113268,6,0,B|272:224,1,35
336,224,113673,1,0
400,224,113876,2,0,B|424:160|472:160,2,70
464,224,114484,1,0
360,160,114890,6,0,B|336:96|288:96,5,70
288,160,116106,2,0,B|264:96|216:96,1,70
216,160,116511,6,0,B|192:224|144:224,5,70
112,216,117727,1,0
216,288,118133,6,0,B|264:312|304:304,1,70
344,280,118538,2,0,B|384:256|392:224,1,70
384,168,118944,2,0,B|368:120|312:112,1,70,0|4
208,120,119552,1,4
144,120,119755,5,4
80,288,132727,5,0
208,288,133133,2,0,B|288:288,1,70
344,288,133538,1,0
416,80,134349,6,0,C|336:80,3,70
280,80,135160,1,0
216,80,135363,1,0
152,80,135565,2,8,B|120:80|104:144,1,70
96,192,135971,5,0
216,192,136376,2,0,B|296:192,1,70
352,192,136782,1,0
96,192,137592,6,0,B|184:192,3,70
224,192,138403,1,0
288,192,138606,2,2,B|336:184|344:128,2,70
256,248,139214,5,0
128,248,139619,2,0,B|40:248,2,70
256,32,140836,6,0,B|256:112,3,70
256,168,141646,1,0
256,232,141849,1,0
256,296,142052,2,8,B|256:352,2,35
56,328,145700,5,0
184,328,146106,2,0,B|256:328,1,70
320,328,146511,1,0
504,328,147322,6,0,B|416:328,3,70
368,328,148133,1,0
304,328,148336,1,0
240,328,148538,2,8,B|208:328|152:280,1,70
128,256,148944,5,0
128,128,149349,2,0,B|88:128|72:72,1,70
128,48,149755,1,0
376,56,150565,6,0,B|296:56,3,70
240,56,151376,1,0
176,56,151579,2,2,B|136:56|104:104,2,70
176,120,152187,5,0
168,248,152592,2,0,B|144:288|88:296,1,70
48,288,152998,1,0
176,64,153809,6,0,B|176:136,3,70
176,192,154619,1,0
176,256,154822,1,0
176,320,155025,2,8,B|176:368,2,35
216,64,158065,6,4,B|136:64|64:64,1,140
72,136,158673,5,0
200,136,159079,1,0
264,136,159282,1,0
392,136,159687,1,0
456,136,159890,1,0
408,248,160295,5,0
280,248,160700,1,0
216,248,160903,1,0
88,248,161309,1,0
24,248,161511,2,0,B|24:168,1,70
88,176,161917,5,0
216,176,162322,1,0
280,176,162525,1,0
408,176,162930,1,0
472,176,163133,1,0
472,304,163538,5,0
408,304,163741,1,0
280,304,164146,1,0
216,304,164349,1,0
152,304,164552,1,4
24,304,164957,1,4
88,304,165160,5,0
88,176,165565,1,0
88,112,165768,1,0
192,48,166173,1,0
256,48,166376,1,0
384,48,166782,5,0
384,176,167187,1,0
384,240,167390,1,0
256,240,167795,1,0
192,240,167998,1,0
64,240,168403,5,4
64,112,168809,1,0
64,48,169011,1,0
192,48,169417,1,0
256,48,169619,1,0
384,48,170025,5,0
384,176,170430,1,0
384,240,170633,1,0
384,368,171038,1,4
256,368,171444,1,4
192,368,171646,5,0
88,288,172052,1,0
48,240,172255,1,0
48,112,172660,1,0
48,48,172863,1,0
176,48,173268,5,0
304,48,173673,1,0
352,88,173876,1,0
448,168,174282,1,0
448,232,174484,2,0,B|448:256|384:288,1,70
368,328,174890,5,0
240,328,175295,1,0
176,328,175498,1,0
48,328,175903,1,0
48,264,176106,1,0
48,136,176511,5,0
176,136,176917,1,0
240,136,177119,1,0
240,264,177525,2,0,B|256:280|184:320,1,70
72,312,178133,5,0
152,216,178538,1,0
232,312,178944,2,0,B|296:312|304:256,1,70
408,128,179755,5,0
320,32,180160,1,0
248,128,180565,2,0,B|200:128|192:184,1,70
72,312,181376,5,0
152,216,181782,2,0,B|200:216|208:272,1,70
232,312,182187,2,0,B|296:312|304:256,1,70
408,128,182998,5,0
320,32,183403,2,0,B|280:32|256:72,1,70
248,128,183809,2,0,B|200:128|192:184,1,70
72,312,184619,6,0,B|128:312|128:264,1,70
152,216,185025,2,0,B|200:216|208:272,1,70
232,312,185430,2,0,B|296:312|304:256,1,70
408,128,186241,6,0,B|360:128|352:64,1,70
320,32,186646,2,0,B|280:32|256:72,1,70
248,128,187052,2,0,B|200:128|192:184,1,70
72,312,187863,6,0,B|128:312|128:264,1,70
152,216,188268,2,0,B|200:216|208:272,1,70
232,312,188673,2,0,B|296:312|304:256,1,70
408,128,189484,6,0,B|360:128|352:64,1,70
320,32,189890,2,0,B|280:32|256:72,1,70
248,128,190295,2,0,B|200:128|192:184,1,70
448,192,191106,6,0,B|488:192,3,35,0|0|0|0
384,192,191714,2,0,B|344:192,3,35
256,192,192322,1,4
256,192,192525,1,4
163,192,192727,6,0,B|128:192,3,35
32,192,193336,2,0,B|67:192,3,35,0|0|0|0
136,128,193944,2,8,B|192:128,1,35
256,192,194349,6,0,B|296:192,15,35
256,192,195971,12,4,197592
