osu file format v6

[General]
AudioFilename: Animusic - Pipe Dream.mp3
AudioLeadIn: 0
PreviewTime: 157434
Countdown: 0
SampleSet: Soft
StackLeniency: 0.7
Mode: 0
LetterboxInBreaks: 1

[Editor]
DistanceSpacing: 1.10000002384186
BeatDivisor: 6
GridSize: 8

[Metadata]
Title:Pipe Dream
Artist:Wayne Lytle
Creator:Tanmak
Version:Insane
Source:Animusic
Tags:pipe dream animusic ball

[Difficulty]
HPDrainRate:5
CircleSize:5
OverallDifficulty:8
SliderMultiplier:1.4
SliderTickRate:1

[Events]
//Background and Video events
Video,320,"Animusic - Pipe Dream.avi"
0,0,"pipe dream.jpg"
//Break Periods
2,4212,5694
2,7251,8632
2,66034,68937
2,71103,72180
2,75968,77856
2,119954,131977
2,142252,145153
2,155427,156909
//Storyboard Layer 0 (Background)
//Storyboard Layer 1 (Fail)
//Storyboard Layer 2 (Pass)
//Storyboard Layer 3 (Foreground)
//Storyboard Sound Samples
//Background Colour Transformations
3,100,250,116,159

[TimingPoints]
-245,405.405405405405,4,2,1,100,1,0
3941,-100,4,1,1,40,0,0
6238,-100,4,2,1,100,0,0
6981,-100,4,1,1,40,0,0
9075,-100,4,2,1,100,0,0
10494,-100,4,1,1,40,0,0
11913,-100,4,2,1,100,0,0
14210,-100,4,1,1,40,0,0
15764,-100,4,2,1,100,0,0
18736,-100,4,1,1,40,0,0
19006,-100,4,2,1,100,0,0
42584,-100,4,1,2,100,0,0
43057,-100,4,2,1,100,0,0
43530,-100,4,1,2,100,0,0
44850,-100,4,1,2,69,0,0
45084,-100,4,1,1,100,0,0
45948,-100,4,2,0,100,0,0
47111,-100,4,1,2,100,0,0
48293,-100,4,1,2,70,0,0
48597,-100,4,1,2,100,0,0
49205,-100,4,2,0,100,0,0
50759,-100,4,1,2,100,0,0
51579,-100,4,2,0,100,0,0
52448,-100,4,1,2,100,0,0
54477,-100,4,1,2,70,0,0
54812,-100,4,2,0,100,0,0
60870,-100,4,1,2,100,0,0
61366,-100,4,2,0,100,0,0
69067,-100,4,2,2,100,0,0
97267,-100,4,1,2,100,0,0
98320,-100,4,2,2,100,0,0
103725,-100,4,1,2,100,0,0
104738,-100,4,2,2,100,0,0
119635,-100,4,1,2,100,0,0
131897,-100,4,2,2,100,0,0
168176,-100,4,1,2,69,0,0
168480,-100,4,2,2,100,0,0
193834,-100,4,1,1,100,0,0
194186,-100,4,2,2,100,0,0
197563,-100,4,1,2,69,0,0

[Colours]
Combo1 : 250,122,247
Combo2 : 194,231,109
Combo3 : 230,155,242
Combo4 : 255,255,68

[HitObjects]
104,192,3403,1,0
256,192,3809,1,0
336,192,4012,1,0
104,192,6444,5,0
256,192,6848,1,0
336,192,7051,1,0
120,272,9382,5,0
272,272,9788,1,0
352,272,9991,1,0
352,120,10396,1,0
272,120,10598,1,0
120,272,12220,5,0
272,272,12625,1,0
352,272,12828,1,0
352,120,13233,1,0
272,120,13436,1,0
192,120,13639,1,0
104,248,14044,1,0
184,248,14247,1,0
96,280,15971,5,0
248,280,16377,1,0
320,280,16579,1,0
176,216,16985,1,0
96,216,17187,1,0
96,136,17390,1,0
248,136,17795,1,0
312,176,17998,1,0
312,96,18201,1,0
376,136,18403,1,0
376,56,18606,1,0
440,96,18809,1,0
464,248,19214,5,0
328,312,19620,1,0
264,272,19822,1,0
128,200,20228,1,0
64,160,20430,1,0
128,120,20633,1,0
128,120,21038,1,0
192,160,21241,1,0
256,200,21444,1,0
320,240,21646,1,0
384,280,21849,1,0
440,232,22052,2,0,B|488:264,2,35
432,152,22457,6,0,B|384:192,4,35
432,152,23065,1,0
288,200,23470,1,0
208,200,23673,1,0
144,240,23876,1,0
208,272,24078,1,0
284,275,24281,1,0
352,240,24484,1,0
352,160,24686,1,0
416,200,24889,1,0
416,120,25092,1,0
416,120,25295,1,0
416,120,25498,2,0,B|416:72,1,35
416,48,25701,6,0,B|344:48|280:56|240:64|200:80,1,210
80,96,26714,1,0
78,173,26917,1,0
78,250,27120,1,0
144,288,27322,1,0
208,248,27525,1,0
280,288,27728,1,0
280,208,27930,1,0
352,240,28133,1,0
352,160,28336,1,0
416,200,28538,6,0,B|464:168,2,35
416,200,28944,1,0
352,240,29146,1,0
288,280,29349,1,0
288,200,29552,1,0
224,240,29754,1,0
160,280,29957,1,0
96,240,30160,2,0,B|40:280,3,35
96,240,30565,1,0
160,200,30768,1,0
224,160,30970,1,0
224,240,31173,1,0
288,200,31376,1,0
352,160,31578,1,0
416,112,31782,6,0,B|472:72,3,35
416,112,32187,1,0
352,160,32390,1,0
352,236,32593,1,0
286,197,32795,1,0
224,240,32998,1,0
224,316,33201,1,0
160,272,33403,2,0,B|112:304,3,35
160,272,33809,1,0
161,195,34011,1,0
224,152,34214,1,0
288,192,34417,1,0
288,112,34619,1,0
352,72,34822,1,0
416,32,35025,6,0,B|464:72,3,35
416,32,35430,1,0
416,112,35633,1,0
360,160,35836,1,0
360,160,36038,1,0
360,240,36241,1,0
296,288,36444,1,0
224,320,36646,2,0,B|224:368,3,35
224,320,37052,1,0
161,275,37254,1,0
160,200,37457,1,0
160,200,37660,1,0
96,160,37862,1,0
97,82,38065,1,0
40,32,38268,6,0,B|8:64,3,35,0|0|0|0
40,32,38673,1,0
96,80,38876,1,0
152,136,39078,1,0
200,192,39281,1,0
248,248,39484,1,0
296,304,39686,1,0
352,248,39889,2,0,B|352:208,2,35
400,304,40294,2,0,B|432:304|448:240,1,70
448,176,40700,1,0
432,96,40902,1,0
368,56,41105,2,0,B|336:88,3,23.3333333333333
304,128,41510,1,0
256,192,41713,1,0
200,248,41917,5,0
136,288,42119,1,0
72,328,42322,1,0
71,250,42525,1,0
72,168,42728,2,8,B|72:96,1,70
149,99,43133,1,0
206,150,43336,1,0
320,48,43741,1,0
356,61,43842,1,0
387,84,43944,1,0
436,142,44146,1,0
453,217,44349,1,0
448,294,44552,1,0
390,344,44754,1,0
312,342,44957,1,4
232,344,45160,5,0
232,344,45565,1,0
232,344,45768,1,0
80,336,46173,2,0,B|24:264|80:192,2,140
160,336,47186,2,0,B|128:304|144:248,1,70
128,120,47794,1,0
197,152,47997,1,0
260,196,48200,1,0
304,256,48403,5,4
440,320,48809,2,8,B|472:304|448:232,1,70
456,104,49417,2,2,B|456:32,2,70
349,206,50227,1,4
239,96,50633,1,4
160,96,50836,2,0,B|104:96|104:96|96:96,5,46.6666666666667
112,144,51646,5,4
176,176,51849,1,4
304,264,52254,1,4
416,176,52660,2,0,B|416:128,2,35
416,96,53065,1,0
336,96,53268,2,0,B|336:144,2,35
336,176,53673,1,0
256,176,53876,2,0,B|256:136,2,35
256,96,54281,1,0
152,208,54686,1,4
128,136,54889,5,0
48,136,55092,1,0
48,136,55294,1,0
128,136,55497,1,0
208,136,55700,2,0,B|352:136,1,140
464,248,56713,5,0
388,248,56916,1,0
312,248,57118,1,0
236,248,57321,1,0
160,248,57524,1,0
48,80,58336,5,0
104,136,58539,1,0
160,80,58741,1,0
216,136,58945,2,0,B|384:136,1,140
456,336,59958,5,0
400,280,60161,1,0
344,224,60363,1,0
288,280,60566,1,0
232,224,60769,1,0
152,224,60971,2,0,B|96:240|64:216,1,70
48,72,61579,5,0
104,128,61782,1,0
160,184,61984,1,0
216,128,62186,2,0,B|384:128,1,140
464,328,63201,5,0
408,272,63404,1,0
352,216,63606,1,0
296,272,63809,1,0
216,272,64012,1,0
48,136,64822,5,0
125,136,65025,1,0
202,136,65227,1,0
280,136,65429,2,0,B|448:136,1,140
80,304,69687,6,8,B|144:240,2,70
280,192,70498,2,8,B|336:136,2,70
416,320,72930,6,8,B|352:256,2,70
424,168,73741,2,8,B|392:200|336:200,1,70
304,144,74146,1,8
72,136,74754,2,8,B|24:168|48:216,1,70
88,336,75362,2,8,B|120:312|168:304,1,70
224,336,75768,1,8
64,320,78606,5,8
126,274,78809,1,8
187,228,79011,1,8
246,178,79214,1,8
304,128,79417,1,8
360,80,79619,1,8
416,32,79822,1,8
480,352,81444,5,8
406,329,81647,2,8,B|384:296|376:248,1,70
304,296,82053,2,8,B|282:263|274:215,1,70
208,256,82458,2,8,B|186:223|178:175,1,70
104,216,82863,2,8,B|82:183|74:135,1,70
152,176,83269,2,8,B|174:143|182:95,1,70,8|8
240,152,83674,2,8,B|262:119|270:71,1,70,8|8
328,128,84079,2,8,B|350:95|358:47,2,70
384,176,84687,1,8
440,232,84890,1,8
416,320,85498,6,8,B|453:348,2,35
352,280,85903,1,8
288,232,86106,1,8
219,266,86309,1,8
219,189,86511,1,8
154,230,86714,1,8
90,273,86917,1,8
88,192,87119,2,8,B|88:96|160:88,1,140
216,144,87727,2,8,B|216:232,1,70
216,288,88133,1,8
280,248,88335,2,8,B|280:168,2,70
344,288,88943,2,8,B|344:200,2,70
408,328,89552,2,8,B|408:248,2,70
480,296,90160,1,8
464,80,90565,5,8
440,48,90666,1,8
416,80,90768,1,8
392,112,90869,1,8
368,144,90970,1,8
344,112,91072,1,8
320,144,91173,1,8
296,176,91274,1,8
272,144,91376,1,8
248,176,91477,1,8
224,208,91578,1,8
200,176,91680,1,8
176,144,91781,1,8
152,112,91882,1,8
120,136,91984,1,8
88,160,92085,1,8
56,184,92186,1,8
24,208,92288,1,8
56,232,92389,5,8
88,208,92490,1,8
120,184,92592,1,8
152,160,92693,1,8
168,192,92794,1,8
184,224,92896,1,8
200,256,92997,1,8
216,288,93098,1,8
232,320,93200,1,8
248,352,93301,1,8
288,352,93402,1,8
464,192,94214,5,8
440,160,94315,1,8
416,192,94417,1,8
392,224,94518,1,8
368,256,94619,1,8
344,224,94721,1,8
320,192,94822,1,8
296,160,94923,1,8
272,192,95025,1,8
248,224,95126,1,8
224,192,95227,1,8
64,192,95835,5,8
88,160,95937,1,8
112,192,96038,1,8
136,224,96139,1,8
160,192,96241,2,8,B|232:192,2,70
272,88,97051,5,4
240,240,97457,6,8,C|272:248|312:240,3,70
480,72,98673,5,8
456,40,98775,1,8
432,72,98876,1,8
408,104,98977,1,8
384,136,99079,1,8
328,192,99281,1,8
272,248,99484,1,8
216,304,99687,1,8
141,320,99889,1,8
65,336,100092,1,8
56,104,100700,5,8
80,72,100801,1,8
104,104,100903,1,8
128,136,101004,1,8
152,104,101105,1,8
176,136,101207,1,8
200,104,101308,1,8
224,72,101409,1,8
248,104,101511,1,8
272,136,101612,1,8
296,104,101713,1,8
464,192,102322,5,8
440,160,102423,1,8
416,192,102524,1,8
392,224,102626,1,8
368,192,102727,1,8
308,240,102930,1,8
249,289,103132,1,8
186,334,103335,1,8
112,328,103538,5,4
144,176,103943,6,8,C|112:168|72:176,3,70,8|8|8|8
56,80,105160,5,8
80,48,105261,1,8
104,80,105363,1,8
128,112,105464,1,8
152,80,105565,1,8
176,48,105667,1,8
200,80,105768,1,8
224,112,105869,1,8
248,144,105971,1,8
272,176,106072,1,8
296,208,106173,1,8
320,240,106275,1,8
344,272,106376,1,8
368,304,106477,1,8
392,336,106579,1,8
88,312,107187,5,8
112,280,107288,1,8
136,248,107389,1,8
160,216,107491,1,8
184,184,107592,1,8
208,152,107693,1,8
232,184,107795,1,8
248,216,107896,1,8
264,248,107997,1,8
312,184,108201,1,8
440,304,108809,5,8
416,272,108910,1,8
392,240,109012,1,8
368,208,109113,1,8
344,176,109214,1,8
296,112,109418,2,8,B|200:136,2,70
32,352,110430,5,8
48,320,110531,1,8
64,288,110632,1,8
96,304,110734,1,8
112,272,110835,1,8
128,240,110936,1,8
144,208,111038,1,8
160,176,111139,1,8
176,144,111240,1,8
192,112,111342,1,8
208,80,111443,1,8
224,48,111544,1,8
240,16,111646,1,8
272,0,111747,5,8
304,16,111848,1,8
320,48,111950,1,8
336,80,112051,1,8
352,112,112152,1,8
368,144,112254,1,8
384,176,112355,1,8
400,208,112456,1,8
432,192,112558,1,8
448,224,112659,1,8
464,256,112760,1,8
480,288,112862,1,8
480,136,113268,5,8
456,104,113369,1,8
432,136,113471,1,8
408,168,113572,1,8
384,136,113674,1,8
344,136,113775,1,8
304,136,113877,1,8
288,104,113977,1,8
264,136,114079,1,8
240,168,114180,1,8
216,136,114282,1,8
176,136,114383,1,8
136,136,114485,1,8
120,104,114585,1,8
96,136,114687,1,8
72,168,114788,1,8
48,200,114889,5,8
72,232,114991,1,8
96,264,115092,1,8
120,296,115193,1,8
144,328,115295,1,8
168,296,115396,1,8
192,264,115497,1,8
216,296,115599,1,8
240,328,115700,1,8
264,296,115801,1,8
288,264,115903,1,8
312,296,116004,1,8
336,328,116106,2,8,B|360:248,1,70
400,320,116511,5,8
424,288,116612,1,8
448,256,116713,1,8
472,224,116815,1,8
440,200,116916,1,8
408,176,117017,1,8
440,152,117119,1,8
472,128,117220,1,8
448,96,117321,1,8
424,64,117423,1,8
400,32,117524,1,8
376,64,117626,1,8
352,96,117727,1,8
328,64,117828,1,8
304,32,117930,1,8
280,64,118031,1,8
256,96,118133,6,8,B|208:168,1,70
296,160,118538,6,8,B|248:232,1,70
176,224,118943,6,8,B|128:152,1,70
217,155,119349,6,8,B|169:83,1,70,8|8
136,32,119754,5,4
88,304,132727,5,0
160,216,133133,2,0,B|192:216|208:224|232:248,1,70
328,128,133741,1,0
400,264,134146,1,0
440,112,134551,2,0,B|440:144|432:184,1,70
320,80,135159,2,0,B|320:112|312:152,1,70
192,48,135767,2,0,B|192:88|136:192,1,140
96,240,136376,1,0
96,72,138200,6,0,B|184:40|248:88,1,140
231,78,138808,1,0
288,128,139010,1,0
344,176,139213,1,0
408,136,139416,1,0
408,208,139618,2,0,B|448:264|352:328,1,140
256,207,140429,1,0
216,272,140632,2,0,B|184:320|120:320|24:288|8:240|32:176,1,280
32,96,141645,1,0
96,136,141848,1,0
160,176,142052,1,0
32,336,145903,6,0,B|72:336,2,35
112,336,146309,1,0
80,264,146511,2,0,B|120:264,2,35
152,264,146917,1,0
128,192,147119,2,0,B|168:192,2,35
200,192,147525,1,0
176,120,147727,2,0,B|216:120,2,35
248,120,148133,1,0
216,48,148335,2,0,B|272:48,2,35
296,48,148741,5,0
408,109,149079,1,0
445,204,149349,1,0
424,279,149552,1,0
383,319,149704,1,0
327,335,149856,1,0
250,335,150059,1,0
142,294,150363,1,0
40,146,150869,1,0
96,112,151782,6,0,B|56:80,2,35
96,288,152457,1,0
224,288,152795,1,0
224,184,153065,1,0
336,256,153403,1,0
416,320,153673,1,0
312,320,153944,1,0
208,320,154214,1,0
208,192,154552,1,0
288,88,154890,1,0
368,192,155227,1,0
128,96,157659,5,0
160,120,157761,1,0
192,144,157862,1,0
256,192,158065,1,4
320,240,158267,1,0
352,264,158369,1,0
384,288,158470,1,4
446,333,158673,5,12
448,256,158875,2,8,B|448:296,2,35
448,176,159281,1,8
448,96,159483,2,8,B|448:136,2,35
382,136,159889,1,8
384,56,160092,2,8,B|384:96,2,35
312,96,160497,1,8
312,16,160700,2,8,B|312:56,2,35
248,56,161105,1,8
184,16,161308,2,8,B|184:56,2,35
184,96,161714,1,8
128,40,161917,5,12
56,56,162119,2,8,B|56:96,1,35
128,104,162423,2,8,B|128:152,1,35
200,144,162727,2,8,B|200:192,1,35
272,184,163031,2,8,B|272:240,1,35
344,224,163335,2,8,B|344:280,1,35
416,264,163639,2,8,B|416:312|416:312|424:312,1,35
488,288,163943,1,8
488,288,164146,1,8
488,208,164349,1,8
432,152,164551,1,8
368,200,164754,2,8,B|368:240,2,35
360,272,165159,5,0
360,272,165362,1,0
360,272,165565,2,0,B|320:312,2,35
280,272,165970,1,0
280,272,166173,1,0
280,272,166375,2,0,B|248:304,2,35
280,192,166781,2,0,B|304:192|304:256|264:256,1,70
208,232,167187,2,0,B|208:280,1,35
120,192,167593,2,0,B|120:240,1,35
36,147,167998,2,0,B|36:200,1,35
40,64,168403,6,0,B|80:64,1,35,4|0
152,64,168707,2,0,B|192:72,1,35
256,96,169011,2,0,B|296:112,1,35
360,144,169315,2,0,B|384:176,1,35
424,232,169619,2,0,B|448:200,3,35
445,204,170025,2,0,B|480:160,1,35
464,96,170329,2,0,B|424:96,1,35
352,112,170633,2,0,B|312:128,1,35
248,160,170937,2,0,B|208:184,1,35
152,224,171241,2,0,B|120:256,3,35
112,280,171646,6,8,B|152:320,2,35
152,280,171950,2,8,B|192:240,2,35
192,280,172254,2,8,B|232:320,2,35
232,280,172558,2,8,B|272:240,2,35
272,280,172862,2,8,B|304:248,1,35
328,232,173065,1,8
280,152,173268,6,8,B|240:192,2,35
240,152,173572,2,8,B|200:112,2,35
200,152,173876,2,8,B|168:184,2,35
160,152,174180,2,8,B|128:120,2,35
128,176,174484,2,8,B|80:176,1,35
56,176,174687,1,8
48,272,174890,5,0
80,256,174991,1,0
112,240,175092,1,0
128,272,175194,1,0
160,256,175295,1,0
192,240,175397,1,0
208,272,175498,1,0
240,256,175599,1,0
272,240,175701,1,0
288,272,175802,1,0
320,256,175903,1,0
352,240,176005,1,0
368,272,176106,1,0
400,256,176207,1,0
432,240,176309,1,0
464,224,176410,1,0
464,184,176511,5,0
464,144,176613,1,0
432,168,176714,1,0
392,168,176815,1,0
368,136,176917,1,0
344,168,177018,1,0
304,168,177119,1,0
280,136,177221,1,0
256,168,177322,1,0
216,168,177423,1,0
192,136,177525,1,0
168,168,177626,1,0
128,168,177727,1,0
88,168,177829,1,0
64,136,177930,1,0
40,168,178031,1,0
40,208,178133,6,8,B|40:256,4,35
120,208,178741,1,8
196,208,178943,1,8
312,208,179247,1,8
424,208,179551,1,8
448,136,179755,6,0,B|448:96,4,35
368,136,180363,1,0
288,136,180566,1,0
168,136,180870,1,0
48,136,181174,1,0
48,216,181376,5,8
80,192,181478,1,8
112,168,181579,1,8
144,144,181680,1,8
176,120,181782,2,8,B|248:64,1,70
248,152,182187,5,0
280,128,182288,1,0
312,104,182390,1,0
344,80,182491,1,0
376,56,182592,2,0,B|448:0,1,70
472,80,182998,5,8
440,104,183099,1,8
408,128,183201,1,8
376,152,183302,1,8
344,176,183403,2,8,B|264:232,1,70
360,240,183809,5,0
328,264,183910,1,0
296,288,184011,1,0
264,312,184113,1,0
232,336,184214,2,0,B|152:336,1,70
208,272,184619,6,8,B|168:232,3,35
152,224,185025,6,0,B|184:192,3,35
208,176,185430,6,8,B|240:208,3,35
264,224,185835,6,0,B|232:256,3,35
288,208,186241,6,8,B|328:168,3,35,8|8|8|8
344,160,186646,6,0,B|304:120,3,35
288,112,187051,6,8,B|256:144,3,35
232,160,187457,6,0,B|272:200,3,35
208,120,187862,5,8
176,88,187963,1,8
136,80,188065,1,8
104,96,188166,1,8
72,120,188267,1,8
56,152,188370,1,8
48,192,188471,5,8
64,224,188572,1,8
88,248,188674,1,8
112,272,188775,1,8
144,296,188876,1,8
176,320,188978,1,8
208,336,189079,5,8
240,352,189180,1,8
280,352,189282,1,8
312,336,189383,1,8
344,312,189484,1,8
368,296,189586,1,8
400,272,189687,5,8
432,248,189788,1,8
456,216,189890,1,8
472,184,189991,1,8
456,152,190092,1,8
440,120,190194,1,8
408,96,190295,5,8
376,80,190396,1,8
336,88,190498,1,8
304,112,190599,1,8
280,136,190700,1,8
256,168,190802,1,8
232,136,190903,2,8,B|200:104,1,35
184,80,191106,6,8,B|152:48,3,35
176,208,191815,6,8,B|136:248,3,35
152,312,192321,6,4,B|176:336|224:312,1,70
296,312,192727,6,8,B|328:280,3,35
336,176,193335,6,8,B|368:144|368:144|360:144,3,35
456,216,193943,6,8,B|480:249,1,35
488,360,194349,5,8
464,328,194450,1,8
440,296,194551,1,8
416,264,194653,1,8
392,296,194754,1,8
368,264,194855,1,8
344,232,194957,1,8
320,200,195058,1,8
296,232,195159,1,8
272,200,195261,1,8
248,168,195362,1,8
224,136,195463,1,8
200,168,195565,1,8
176,136,195666,1,8
152,104,195767,1,8
128,72,195869,1,8
104,40,195970,5,8
128,72,196071,1,8
152,104,196173,1,8
176,136,196274,1,8
200,168,196375,1,8
224,200,196477,1,8
248,232,196578,1,8
272,264,196679,1,8
296,296,196781,1,8
320,328,196882,1,8
344,360,196983,1,8
368,328,197085,1,8
392,296,197186,1,8
416,328,197287,1,8
440,360,197389,1,8
464,328,197490,1,8
488,360,197591,5,4
