osu file format v12

[General]
AudioFilename: Waterflame - Glorious morning.mp3
AudioLeadIn: 0
PreviewTime: 38218
Countdown: 0
SampleSet: Normal
StackLeniency: 0.7
Mode: 0
LetterboxInBreaks: 1
WidescreenStoryboard: 1

[Editor]
DistanceSpacing: 1.2
BeatDivisor: 3
GridSize: 8

[Metadata]
Title:Glorious morning
TitleUnicode:Glorious morning
Artist:Waterflame
ArtistUnicode:Waterflame
Creator:GasTheJuice
Version:Insane
Source:Newgrounds
Tags:waterflame techno glorious morning waterflame89 cornandbeans liangv587
BeatmapID:320327
BeatmapSetID:125941

[Difficulty]
HPDrainRate:5
CircleSize:5
OverallDifficulty:6
ApproachRate:9
SliderMultiplier:1
SliderTickRate:1

[Events]
//Background and Video events
0,0,"glorious morning waterflame.jpg",0,0
//Break Periods
2,25063,31368
//Storyboard Layer 0 (Background)
//Storyboard Layer 1 (Fail)
//Storyboard Layer 2 (Pass)
//Storyboard Layer 3 (Foreground)
Sprite,Foreground,Centre,"backgroundflash.jpg",320,240 S,0,35191,,1.338581 F,0,35191,35454,1 F,0,35454,36043,1,0
Sprite,Foreground,Centre,"backgroundflash.jpg",320,240 M,0,36731,,320,240 S,0,36731,,1.338581 F,0,36731,36977,1 F,0,36977,37518,1,0
Sprite,Foreground,Centre,"backgroundflash.jpg",320,240 S,0,31980,32112,1.330323 F,0,31980,32243,1 S,0,32112,32505,1.330323 F,0,32243,33029,1,0
Sprite,Foreground,Centre,"backgroundflash3.jpg",320,240 S,0,37518,37616,1.338581 F,0,37518,37764,1 S,0,37616,38452,1.338581 F,0,37764,38452,1,0
Sprite,Foreground,Centre,"backgroundflash.jpg",320,240 M,0,50935,,320,240 S,0,50935,,1.338581 F,0,50935,51181,1 F,0,51181,51771,1,0
Sprite,Foreground,Centre,"backgroundflash.jpg",320,240 M,0,56837,,320,240 S,0,56837,,1.330322 F,0,56837,56968,1 F,0,56968,57626,1,0
Sprite,Foreground,Centre,"backgroundflash2.jpg",320,240 S,0,24936,,1.338581 F,0,24936,25034,1 F,0,24936,26214,1 F,0,25034,,1 F,0,26214,28573,1,0
Sprite,Foreground,Centre,"backgroundflash.jpg",320,240 S,0,35969,,1.338581 F,0,35969,36102,1 F,0,36102,36702,1,0
Sprite,Foreground,Centre,"backgroundflash3.jpg",320,240 F,0,101509,101902,1 S,0,101509,103278,1.330322 F,0,101902,103278,1,0
Sprite,Foreground,Centre,"backgroundflash.jpg",320,240 M,0,41450,,320,240 S,0,41450,,1.330323 F,0,41450,41581,1 F,0,41581,42302,1,0
Sprite,Foreground,Centre,"backgroundflash.jpg",320,240 S,0,49346,,1.330323 F,0,49346,49575,1 F,0,49575,51181,1,0
Sprite,Foreground,Centre,"backgroundflash.jpg",320,240 S,0,64320,64418,1.330322 F,0,64320,65270,1,0 S,0,64418,65270,1.330322
Sprite,Foreground,Centre,"backgroundflash.jpg",320,240 S,0,63566,,1.330323 F,0,63566,63697,1 F,0,63697,64549,1,0.09909675
Sprite,Foreground,Centre,"backgroundflash.jpg",320,240 S,0,65139,65237,1.338581 F,0,65139,65270,1 S,0,65237,65794,1.338581 F,0,65270,65794,1,0
Sprite,Foreground,Centre,"backgroundflash.jpg",320,240 S,0,65860,,1.330323 F,0,65860,65991,1 F,0,65991,66581,1,0
Sprite,Foreground,Centre,"backgroundflash.jpg",320,240 S,0,66679,,1.330323 F,0,66679,66810,1 F,0,66810,67367,1,0
Sprite,Foreground,Centre,"backgroundflash.jpg",320,240 S,0,68252,,1.330322 F,0,68252,68350,1 F,0,68350,68940,1,0.1576775
Sprite,Foreground,Centre,"backgroundflash.jpg",320,240 S,0,69038,69136,1.330323 F,0,69038,69923,1,0 S,0,69136,69923,1.330323
Sprite,Foreground,Centre,"backgroundflash3.jpg",320,240 S,0,69857,,1.338581 F,0,69857,69923,0.9587097 F,0,69923,71466,0.9587097,0
Sprite,Foreground,Centre,"backgroundflash.jpg",320,240 S,0,67465,,1.338581 F,0,67465,67596,1 F,0,67596,68153,1,0
Sprite,Foreground,Centre,"backgroundflash.jpg",320,240 S,0,71430,,1.338581 F,0,71430,71528,0.8018065,1 F,0,71528,72916,1,0
Sprite,Foreground,Centre,"backgroundflash.jpg",320,240 S,0,74575,,1.33858 F,0,74575,74674,1 F,0,74674,75362,1,0
Sprite,Foreground,Centre,"backgroundflash.jpg",320,240 S,0,75362,,1.330323 F,0,75362,75460,1 F,0,75460,76279,1,0.1081291
Sprite,Foreground,Centre,"backgroundflash.jpg",320,240 F,0,85585,85650,1 S,0,85585,85650,1.338581 F,0,85650,85978,1,0
Sprite,Foreground,Centre,"backgroundflash.jpg",320,240 S,0,86371,,1.330323 F,0,86371,86437,1 F,0,86437,86764,1,0
Sprite,Foreground,Centre,"backgroundflash.jpg",320,240 S,0,86764,,1.330323 F,0,86764,86830,1 F,0,86830,87157,1,0
Sprite,Foreground,Centre,"backgroundflash2.jpg",320,240 S,0,87157,,1.338581 F,0,87157,87288,1 F,0,87288,87944,1,0
Sprite,Foreground,Centre,"backgroundflash.jpg",320,240 S,0,95021,,1.338581 F,0,95021,95119,1 F,0,95119,96022,1,0
Sprite,Foreground,Centre,"backgroundflash.jpg",320,240 S,0,91876,,1.330323 F,0,91876,91974,1 F,0,91974,92662,1,0
Sprite,Foreground,Centre,"backgroundflash.jpg",320,240 S,0,93514,,1.338581 F,0,93514,93612,1 F,0,93612,94508,1,0
Sprite,Foreground,Centre,"backgroundflash.jpg",320,240 F,0,93514,93612,1 S,0,93514,93612,1.338581 F,0,93612,94431,1,0
Sprite,Foreground,Centre,"backgroundflash3.jpg",320,240 S,0,88730,,1.330323 F,0,88730,89025,1 F,0,89025,90303,1,0
Sprite,Foreground,Centre,"backgroundflash.jpg",320,240 S,0,85978,,1.330323 F,0,85978,86043,1 F,0,86043,86371,1,0
Sprite,Foreground,Centre,"backgroundflash.jpg",320,240 S,0,87944,,1.338581 F,0,87944,88042,1 F,0,88042,88337,1,0
Sprite,Foreground,Centre,"backgroundflash.jpg",320,240 S,0,88337,,1.330323 F,0,88337,88435,1 F,0,88435,88730,1,0
Sprite,Foreground,Centre,"backgroundflash.jpg",320,240 F,0,87944,,1 S,0,87944,,1.338581
Sprite,Foreground,Centre,"backgroundflash.jpg",320,240 S,0,100657,,1.330323 F,0,100657,100755,1 F,0,100755,101260,1,0
Sprite,Foreground,Centre,"backgroundflash.jpg",320,240 S,0,98298,98396,1.330323 F,0,98298,98429,1 S,0,98396,98953,1.330323 F,0,98429,98953,1,0
Sprite,Foreground,Centre,"backgroundflash.jpg",320,240 F,0,99870,99969,1 S,0,99870,99969,1.330323 F,0,99969,100569,1,0 S,0,99969,100587,1.330323 F,0,100569,100587,0,1 F,0,100587,100591,1,0
Sprite,Foreground,Centre,"backgroundflash.jpg",320,240 S,0,101083,,1.330323 F,0,101083,101181,1 F,0,101181,101476,1,0
Sprite,Foreground,Centre,"backgroundflash3.jpg",320,240 S,0,76148,,1.330322 F,0,76148,76345,1 F,0,76345,78999,1,0
Sprite,Foreground,Centre,"backgroundflash.jpg",320,240 M,0,56817,,320,240 S,0,56817,,1.338581 F,0,56817,56948,1 F,0,56948,57669,1,0
Sprite,Foreground,Centre,"backgroundflash.jpg",320,240 M,0,60421,,320,240 S,0,60421,,1.330323 F,0,60421,60552,1 F,0,60552,61207,1,0
Sprite,Foreground,Centre,"backgroundflash3.jpg",320,240 M,0,76179,,320,240 S,0,76179,,1.363355 F,0,76179,76442,1 F,0,76442,77758,1,0
//Storyboard Sound Samples
//Background Colour Transformations
3,100,163,162,255

[TimingPoints]
390,394.736842105263,4,1,1,50,1,0
6179,-100,4,1,1,60,0,0
12363,-100,4,1,1,70,0,0
22626,-100,4,1,1,75,0,0
23021,-100,4,1,1,80,0,0
23416,-100,4,1,1,85,0,0
23811,-100,4,1,1,90,0,0
24732,-100,4,1,1,100,0,0
32232,-100,4,1,1,50,0,0
33021,-100,4,1,1,60,0,0
33811,-100,4,1,1,70,0,0
34562,-100,4,1,1,85,0,0
35126,-58.8235294117647,4,1,1,100,0,1
47758,-58.8235294117647,4,1,1,100,0,1
51186,-66.6666666666667,4,1,1,80,0,0
63547,-100,4,1,1,80,0,1
69995,-100,4,1,1,80,0,0
70054,-100,4,1,1,84,0,0
70126,-100,4,1,1,84,0,0
76272,-100,4,1,1,75,0,0
85538,-100,4,1,1,85,0,0
87889,-100,4,1,1,100,0,0
89337,-100,4,1,1,90,0,1
101837,-100,4,1,1,75,0,0

[Colours]
Combo1 : 0,171,253
Combo2 : 244,61,21
Combo3 : 255,128,0

[HitObjects]
72,80,390,53,8,0:0:0:0:
272,80,784,1,0,0:0:0:0:
392,80,1047,1,0,0:0:0:0:
408,280,1968,5,8,0:0:0:0:
200,280,2363,1,0,0:0:0:0:
80,280,2626,1,0,0:0:0:0:
24,368,3153,5,0,0:0:0:0:
160,216,3547,1,8,0:0:0:0:
368,216,3942,1,0,0:0:0:0:
448,112,4205,1,0,0:0:0:0:
472,40,4600,5,0,0:0:0:0:
472,56,4732,1,0,0:0:0:0:
272,104,5126,1,8,0:0:0:0:
80,40,5521,1,0,0:0:0:0:
24,160,5784,1,0,0:0:0:0:
88,368,6311,5,0,0:0:0:0:
288,368,6705,1,8,0:0:0:0:
432,224,7100,1,0,0:0:0:0:
432,88,7363,1,0,0:0:0:0:
512,328,8284,5,8,0:0:0:0:
304,328,8679,1,0,0:0:0:0:
168,328,8942,1,0,0:0:0:0:
32,264,9468,21,0,0:0:0:0:
240,256,9863,1,8,0:0:0:0:
344,80,10258,1,0,0:0:0:0:
480,80,10521,1,0,0:0:0:0:
208,64,11047,5,0,0:0:0:0:
24,152,11442,1,8,0:0:0:0:
160,304,11837,1,0,0:0:0:0:
296,304,12100,1,0,0:0:0:0:
480,64,12626,5,0,0:0:0:0:
272,64,13021,1,8,0:0:0:0:
72,120,13416,1,0,0:0:0:0:
40,232,13679,1,0,0:0:0:0:
56,296,13811,22,0,P|120:344|176:240,1,200
184,128,14995,1,0,0:0:0:0:
320,128,15258,1,0,0:0:0:0:
8,104,15784,5,0,0:0:0:0:
216,104,16179,1,8,0:0:0:0:
336,272,16574,1,0,0:0:0:0:
472,272,16837,1,0,0:0:0:0:
24,328,17232,21,0,0:0:0:0:
56,328,17363,1,0,0:0:0:0:
120,136,17758,1,8,0:0:0:0:
288,64,18154,1,0,0:0:0:0:
424,64,18416,1,0,0:0:0:0:
24,16,18942,21,0,0:0:0:0:
136,184,19337,1,8,0:0:0:0:
264,24,19732,1,0,0:0:0:0:
400,24,19995,1,0,0:0:0:0:
400,88,20126,2,0,P|336:176|248:216,1,200
240,336,21311,5,0,0:0:0:0:
104,336,21574,1,0,0:0:0:0:
48,304,21705,2,0,P|72:216|144:136,1,200
192,96,22758,1,0,0:0:0:0:
224,64,22889,1,8,0:0:0:0:
296,24,23153,1,0,0:0:0:0:
336,24,23284,1,8,0:0:0:0:
424,64,23547,1,0,0:0:0:0:
448,96,23679,1,8,0:0:0:0:
456,232,23942,1,0,0:0:0:0:
456,312,24074,2,0,P|424:352|368:344,1,100
96,96,24863,1,4,0:0:0:0:
72,80,31968,53,2,0:0:0:0:
312,80,32363,1,8,0:0:0:0:
328,80,32495,1,0,0:0:0:0:
344,80,32626,1,0,0:0:0:0:
360,80,32758,1,8,0:0:0:0:
360,320,33153,5,8,0:0:0:0:
336,320,33284,1,0,0:0:0:0:
312,320,33416,1,0,0:0:0:0:
288,320,33547,1,8,0:0:0:0:
136,216,33942,21,8,0:0:0:0:
136,192,34074,1,0,0:0:0:0:
136,168,34205,1,0,0:0:0:0:
136,144,34337,1,8,0:0:0:0:
400,64,34732,21,8,0:0:0:0:
352,112,34863,1,0,0:0:0:0:
304,152,34995,1,0,0:0:0:0:
256,192,35126,1,4,0:0:0:0:
256,16,35916,1,4,0:0:0:0:
0,384,36705,1,4,0:0:0:0:
512,384,37495,1,6,0:0:0:0:
256,192,37626,12,0,38284,0:0:0:0:
112,176,38679,5,8,0:0:0:0:
152,136,38811,1,0,0:0:0:0:
192,96,38942,1,0,0:0:0:0:
232,56,39074,1,8,0:0:0:0:
400,232,39468,21,8,0:0:0:0:
360,272,39600,1,0,0:0:0:0:
320,312,39732,1,0,0:0:0:0:
280,352,39863,1,8,0:0:0:0:
256,336,40258,5,8,0:0:0:0:
256,200,40653,1,8,0:0:0:0:
256,56,41047,1,8,0:0:0:0:
256,200,41442,5,4,0:0:0:0:
112,232,41837,5,8,0:0:0:0:
152,272,41968,1,0,0:0:0:0:
192,312,42100,1,0,0:0:0:0:
232,352,42232,1,8,0:0:0:0:
400,144,42626,21,8,0:0:0:0:
360,104,42758,1,0,0:0:0:0:
320,64,42889,1,0,0:0:0:0:
280,24,43021,1,8,0:0:0:0:
256,40,43416,5,8,0:0:0:0:
256,192,43811,1,8,0:0:0:0:
256,344,44205,1,8,0:0:0:0:
144,288,44600,5,0,0:0:0:0:
352,288,44995,1,0,0:0:0:0:
352,80,45389,1,0,0:0:0:0:
144,80,45784,1,0,0:0:0:0:
256,32,46179,1,0,0:0:0:0:
256,352,46574,1,0,0:0:0:0:
512,192,46968,1,0,0:0:0:0:
0,192,47363,1,0,0:0:0:0:
0,0,47758,2,0,B|216:32|528:408,1,680.000012969971
64,320,50126,5,4,0:0:0:0:
256,16,50521,1,4,0:0:0:0:
456,312,50916,1,6,0:0:0:0:
320,240,51311,5,0,0:0:0:0:
88,232,51705,2,0,P|96:248|168:240,1,100
256,248,52100,1,0,0:0:0:0:
256,16,52495,1,8,0:0:0:0:
88,184,52889,5,0,0:0:0:0:
256,184,53284,2,0,P|256:208|328:248,1,100,8|0,0:0|0:0,0:0:0:0:
392,256,53679,1,0,0:0:0:0:
496,48,54074,1,0,0:0:0:0:
392,256,54468,5,0,0:0:0:0:
328,320,54863,2,0,P|280:344|232:304,1,100,8|0,0:0|0:0,0:0:0:0:
192,312,55258,2,8,P|136:296|152:224,1,100.000003814697,8|0,0:0|0:0,0:0:0:0:
112,216,55653,2,0,P|88:168|144:128,1,100.000003814697,0|0,0:0|0:0,0:0:0:0:
136,96,56047,2,0,P|184:64|240:72,1,100
272,88,56442,2,0,P|304:128|376:104,1,100.000003814697
408,96,56837,1,4,0:0:0:0:
176,96,57232,5,8,0:0:0:0:
408,96,57626,1,0,0:0:0:0:
424,248,57889,1,0,0:0:0:0:
416,264,58021,1,8,0:0:0:0:
288,312,58284,1,0,0:0:0:0:
272,320,58416,1,8,0:0:0:0:
128,304,58679,1,0,0:0:0:0:
104,288,58811,5,0,0:0:0:0:
96,56,59205,1,8,0:0:0:0:
248,56,59468,1,0,0:0:0:0:
248,80,59600,1,0,0:0:0:0:
384,56,59863,1,0,0:0:0:0:
384,80,59995,1,0,0:0:0:0:
384,232,60258,1,8,0:0:0:0:
384,296,60389,1,4,0:0:0:0:
488,352,60784,5,0,0:0:0:0:
488,352,61047,1,0,0:0:0:0:
72,344,61442,1,0,0:0:0:0:
72,72,61837,1,0,0:0:0:0:
72,56,61968,1,8,0:0:0:0:
256,96,62363,1,0,0:0:0:0:
256,192,62626,1,0,0:0:0:0:
256,208,62758,1,8,0:0:0:0:
432,48,63021,5,8,0:0:0:0:
464,56,63153,1,0,0:0:0:0:
512,184,63416,1,0,0:0:0:0:
464,184,63547,5,2,0:0:0:0:
216,192,63942,1,0,0:0:0:0:
360,48,64337,1,2,0:0:0:0:
224,48,64600,1,0,0:0:0:0:
192,48,64732,1,0,0:0:0:0:
48,192,65126,1,2,0:0:0:0:
144,368,65521,5,0,0:0:0:0:
352,368,65916,1,2,0:0:0:0:
424,248,66179,1,0,0:0:0:0:
424,216,66311,1,0,0:0:0:0:
352,40,66705,1,2,0:0:0:0:
184,40,67100,1,0,0:0:0:0:
48,152,67495,1,2,0:0:0:0:
80,296,67758,1,0,0:0:0:0:
88,304,67889,1,0,0:0:0:0:
256,360,68284,5,2,0:0:0:0:
432,256,68679,1,0,0:0:0:0:
432,48,69074,1,2,0:0:0:0:
408,48,69337,1,8,0:0:0:0:
256,48,69468,1,4,0:0:0:0:
256,192,69863,5,6,0:0:0:0:
288,48,70258,1,0,0:0:0:0:
368,72,70521,1,0,0:0:0:0:
392,88,70653,1,0,0:0:0:0:
416,192,70916,1,0,0:0:0:0:
416,224,71047,1,0,0:0:0:0:
376,320,71311,1,0,0:0:0:0:
344,336,71442,1,2,0:0:0:0:
168,336,71837,5,0,0:0:0:0:
88,304,72100,1,0,0:0:0:0:
72,280,72232,1,0,0:0:0:0:
48,144,72495,1,0,0:0:0:0:
56,112,72626,1,0,0:0:0:0:
256,56,72889,1,0,0:0:0:0:
200,336,73416,5,0,0:0:0:0:
312,336,73679,1,0,0:0:0:0:
256,192,74074,1,0,0:0:0:0:
256,192,74468,1,0,0:0:0:0:
256,104,74600,5,6,0:0:0:0:
256,368,75389,2,0,L|256:256,1,99.9999999999999,6|0,0:0|0:0,0:0:0:0:
256,16,76179,1,6,0:0:0:0:
304,0,76311,5,0,0:0:0:0:
328,16,76442,1,0,0:0:0:0:
344,40,76574,1,0,0:0:0:0:
360,64,76705,5,0,0:0:0:0:
352,96,76837,1,0,0:0:0:0:
328,120,76968,1,0,0:0:0:0:
296,128,77100,1,0,0:0:0:0:
264,128,77232,5,0,0:0:0:0:
232,120,77363,1,0,0:0:0:0:
200,104,77495,1,0,0:0:0:0:
160,96,77626,5,0,0:0:0:0:
128,104,77758,1,0,0:0:0:0:
96,120,77889,1,0,0:0:0:0:
72,144,78021,1,0,0:0:0:0:
56,176,78153,5,0,0:0:0:0:
80,208,78284,1,0,0:0:0:0:
104,232,78416,1,0,0:0:0:0:
128,256,78547,5,0,0:0:0:0:
128,288,78679,1,0,0:0:0:0:
96,312,78811,1,4,0:0:0:0:
368,352,79205,5,0,0:0:0:0:
392,328,79337,1,0,0:0:0:0:
416,296,79468,1,0,0:0:0:0:
424,264,79600,5,0,0:0:0:0:
424,224,79732,1,0,0:0:0:0:
400,192,79863,1,0,0:0:0:0:
368,168,79995,5,0,0:0:0:0:
344,144,80126,1,0,0:0:0:0:
360,112,80258,1,0,0:0:0:0:
352,80,80389,5,0,0:0:0:0:
328,56,80521,1,0,0:0:0:0:
304,32,80653,1,0,0:0:0:0:
272,16,80784,5,0,0:0:0:0:
240,16,80916,1,0,0:0:0:0:
208,32,81047,1,0,0:0:0:0:
184,56,81179,5,0,0:0:0:0:
152,72,81311,1,0,0:0:0:0:
144,104,81442,1,0,0:0:0:0:
136,136,81574,5,0,0:0:0:0:
112,168,81705,1,0,0:0:0:0:
80,192,81837,1,0,0:0:0:0:
96,328,82363,5,0,0:0:0:0:
136,344,82495,1,0,0:0:0:0:
168,352,82626,1,0,0:0:0:0:
200,344,82758,5,0,0:0:0:0:
240,328,82889,1,0,0:0:0:0:
272,304,83021,1,0,0:0:0:0:
312,296,83153,5,0,0:0:0:0:
352,296,83284,1,0,0:0:0:0:
376,272,83416,1,0,0:0:0:0:
408,256,83547,5,0,0:0:0:0:
432,224,83679,1,0,0:0:0:0:
448,192,83811,1,0,0:0:0:0:
464,160,83942,5,0,0:0:0:0:
464,120,84074,1,0,0:0:0:0:
448,80,84205,1,0,0:0:0:0:
424,56,84337,5,0,0:0:0:0:
384,32,84468,1,0,0:0:0:0:
352,48,84600,1,0,0:0:0:0:
320,72,84732,5,0,0:0:0:0:
280,56,84863,1,0,0:0:0:0:
240,40,84995,1,0,0:0:0:0:
0,384,85653,5,2,0:0:0:0:
0,336,85784,1,0,0:0:0:0:
0,288,85916,1,0,0:0:0:0:
96,336,86047,5,2,0:0:0:0:
96,288,86179,1,0,0:0:0:0:
96,240,86311,1,0,0:0:0:0:
192,288,86442,5,2,0:0:0:0:
192,240,86574,1,0,0:0:0:0:
192,192,86705,1,0,0:0:0:0:
296,232,86837,5,2,0:0:0:0:
296,184,86968,1,0,0:0:0:0:
296,136,87100,1,0,0:0:0:0:
384,136,87232,5,2,0:0:0:0:
384,96,87363,1,0,0:0:0:0:
384,56,87495,1,0,0:0:0:0:
384,16,87626,1,0,0:0:0:0:
168,24,88021,5,6,0:0:0:0:
472,152,88416,1,6,0:0:0:0:
168,312,88811,1,6,0:0:0:0:
88,232,89600,5,8,0:0:0:0:
256,0,89995,1,0,0:0:0:0:
400,128,90258,1,0,0:0:0:0:
320,48,90784,5,0,0:0:0:0:
288,48,90916,1,0,0:0:0:0:
256,48,91047,1,0,0:0:0:0:
216,48,91179,1,0,0:0:0:0:
64,184,91574,1,0,0:0:0:0:
256,192,91968,5,4,0:0:0:0:
56,176,92363,5,0,0:0:0:0:
88,136,92495,1,0,0:0:0:0:
128,176,92626,1,0,0:0:0:0:
200,176,92758,1,0,0:0:0:0:
336,176,93153,1,0,0:0:0:0:
240,352,93547,5,4,0:0:0:0:
48,280,93942,1,0,0:0:0:0:
96,248,94074,1,0,0:0:0:0:
144,216,94205,1,0,0:0:0:0:
192,184,94337,1,0,0:0:0:0:
352,184,94732,1,0,0:0:0:0:
256,192,95126,5,4,0:0:0:0:
72,144,95521,1,0,0:0:0:0:
112,96,95653,1,0,0:0:0:0:
144,144,95784,1,0,0:0:0:0:
208,144,95916,1,8,0:0:0:0:
368,144,96311,1,0,0:0:0:0:
488,144,96574,1,0,0:0:0:0:
112,144,97100,5,0,0:0:0:0:
176,200,97232,1,0,0:0:0:0:
176,256,97363,1,0,0:0:0:0:
176,312,97495,1,0,0:0:0:0:
328,208,97889,1,0,0:0:0:0:
56,56,98284,5,4,0:0:0:0:
152,64,98679,1,0,0:0:0:0:
192,96,98811,1,0,0:0:0:0:
232,64,98942,1,0,0:0:0:0:
312,64,99074,1,0,0:0:0:0:
368,192,99468,1,0,0:0:0:0:
256,192,99863,5,2,0:0:0:0:
0,0,100653,1,2,0:0:0:0:
512,0,101047,1,2,0:0:0:0:
256,384,101442,1,6,0:0:0:0:
