osu file format v12

[General]
AudioFilename: Waterflame - Carrots.mp3
AudioLeadIn: 3000
PreviewTime: 18263
Countdown: 1
SampleSet: Soft
StackLeniency: 0.7
Mode: 0
LetterboxInBreaks: 1

[Editor]
Bookmarks: 5588,5976,10621,38685,41201,42750,45072,46040,52427,62105,68298,74492,84943,86492
DistanceSpacing: 0.8
BeatDivisor: 1
GridSize: 8

[Metadata]
Title:Carrots
TitleUnicode:Carrots
Artist:Waterflame
ArtistUnicode:Waterflame
Creator:Natureshadow
Version:Normal
Source:
Tags:Carrots Waterflame Natureshadow Upbeat Non-lyrical Fun Happy
BeatmapID:256707
BeatmapSetID:94570

[Difficulty]
HPDrainRate:2
CircleSize:4
OverallDifficulty:3
ApproachRate:3
SliderMultiplier:1.25
SliderTickRate:1

[Events]
//Background and Video events
0,0,"Smoke Flower.jpg",0,0
Video,0,"Waterflame - Carrots.flv"
//Break Periods
2,52623,60653
//Storyboard Layer 0 (Background)
//Storyboard Layer 1 (Fail)
//Storyboard Layer 2 (Pass)
//Storyboard Layer 3 (Foreground)
//Storyboard Sound Samples
//Background Colour Transformations
3,100,163,162,255

[TimingPoints]
165,387.096774193548,4,2,0,100,1,0
49327,-100,4,2,0,100,0,1
55907,-100,4,2,0,100,0,0

[Colours]
Combo1 : 26,140,255
Combo2 : 255,146,36
Combo3 : 0,255,64
Combo4 : 249,145,160

[HitObjects]
168,104,164,1,0,0:0:0:0:
256,192,939,1,0,0:0:0:0:
256,320,1713,1,0,0:0:0:0:
320,208,2487,1,8,0:0:0:0:
192,208,3261,5,0,0:0:0:0:
256,104,4035,1,0,0:0:0:0:
320,104,4423,2,0,P|352:151|308:194,1,125
192,104,5584,2,8,P|156:152|192:200,1,125
232,154,6358,5,0,0:0:0:0:
256,280,7132,1,0,0:0:0:0:
344,192,7906,1,0,0:0:0:0:
255,103,8681,1,8,0:0:0:0:
344,16,9455,5,0,0:0:0:0:
344,109,10035,1,0,0:0:0:0:
256,136,10616,2,0,L|256:280,1,125
384,264,11777,1,8,0:0:0:0:
384,136,12552,5,0,0:0:0:0:
256,136,13326,1,0,0:0:0:0:
256,264,14100,1,0,0:0:0:0:
360,192,14874,1,8,0:0:0:0:
360,64,15648,5,0,0:0:0:0:
256,136,16423,1,0,0:0:0:0:
211,91,16810,2,0,P|179:147|223:181,1,125
305,92,17971,2,8,P|353:140|305:188,1,125
264,192,18745,5,0,0:0:0:0:
256,312,19519,1,0,0:0:0:0:
320,208,20294,1,0,0:0:0:0:
256,104,21068,1,8,0:0:0:0:
136,64,21842,6,0,L|205:171,1,125
240,120,22616,2,0,L|178:228,1,125
221,272,23390,1,0,0:0:0:0:
320,192,24165,1,0,0:0:0:0:
416,272,24939,1,8,0:0:0:0:
166,272,26487,5,0,0:0:0:0:
256,192,27261,1,8,0:0:0:0:
256,320,28035,1,0,0:0:0:0:
344,232,28810,1,8,0:0:0:0:
344,104,29584,5,0,0:0:0:0:
256,16,30358,1,8,0:0:0:0:
168,104,31132,1,0,0:0:0:0:
400,192,32681,5,0,0:0:0:0:
312,104,33455,1,8,0:0:0:0:
440,104,34229,1,0,0:0:0:0:
192,48,35777,5,0,0:0:0:0:
304,112,36552,1,8,0:0:0:0:
256,152,36939,2,0,L|256:276,1,125
224,128,38294,5,0,0:0:0:0:
288,128,38681,2,0,P|344:168|312:212,1,125
334,288,40423,6,2,L|232:56,1,250
168,56,41584,1,0,0:0:0:0:
128,104,41971,2,8,B|280:328,1,250
320,256,43132,2,0,L|320:384,1,125
416,117,45068,5,0,0:0:0:0:
328,208,45842,1,8,0:0:0:0:
328,80,46616,1,0,0:0:0:0:
128,232,48165,5,0,0:0:0:0:
256,232,48939,1,8,0:0:0:0:
320,232,49326,2,2,B|379:205|354:201|354:201|353:270,1,125
256,192,50100,12,0,52423,0:0:0:0:
80,192,62100,5,0,0:0:0:0:
80,64,62487,1,8,0:0:0:0:
208,64,62874,1,0,0:0:0:0:
208,160,63165,1,8,0:0:0:0:
208,312,63648,5,0,0:0:0:0:
336,312,64035,1,8,0:0:0:0:
464,312,64423,1,0,0:0:0:0:
464,218,64713,1,8,0:0:0:0:
352,104,65197,5,0,0:0:0:0:
256,32,65584,1,8,0:0:0:0:
152,104,65971,1,0,0:0:0:0:
216,168,66261,1,8,0:0:0:0:
104,280,66745,5,0,0:0:0:0:
228,280,67132,1,8,0:0:0:0:
352,280,67519,1,0,0:0:0:0:
416,344,67810,1,8,0:0:0:0:
416,184,68294,5,0,0:0:0:0:
328,96,68681,1,8,0:0:0:0:
203,96,69068,1,0,0:0:0:0:
269,29,69358,1,8,0:0:0:0:
272,184,69842,5,0,0:0:0:0:
184,272,70229,1,8,0:0:0:0:
312,272,70616,1,0,0:0:0:0:
376,200,70906,1,8,0:0:0:0:
376,48,71390,5,0,0:0:0:0:
256,96,71777,1,8,0:0:0:0:
136,144,72165,1,0,0:0:0:0:
136,48,72455,1,8,0:0:0:0:
136,208,72939,5,0,0:0:0:0:
256,160,73326,1,8,0:0:0:0:
376,208,73713,1,0,0:0:0:0:
312,272,74003,1,8,0:0:0:0:
201,161,74487,6,0,L|325:144,1,125
408,96,75261,2,0,L|282:73,1,125
192,104,76035,1,0,0:0:0:0:
368,192,76810,1,8,0:0:0:0:
296,264,77197,5,0,0:0:0:0:
336,168,77584,2,0,L|214:134,1,125
120,96,78358,2,0,L|240:56,1,125
336,56,79132,1,0,0:0:0:0:
136,56,79906,1,8,0:0:0:0:
136,160,80294,5,0,0:0:0:0:
208,232,80681,2,0,L|332:207,1,125
416,160,81455,2,0,L|290:137,1,125
224,64,82229,1,0,0:0:0:0:
224,264,83003,1,8,0:0:0:0:
408,192,83777,5,0,0:0:0:0:
256,192,84358,2,0,L|78:126,1,187.5
152,200,85326,1,0,0:0:0:0:
312,320,86100,1,8,0:0:0:0:
312,224,86487,5,0,0:0:0:0:
241,153,86874,2,0,L|365:128,1,125
448,80,87648,2,0,L|314:57,1,125
224,58,88423,1,0,0:0:0:0:
80,192,89197,1,8,0:0:0:0:
168,248,89584,5,0,0:0:0:0:
267,248,89971,2,0,L|309:126,1,125
392,80,90745,2,0,L|272:48,1,125
232,136,91519,1,0,0:0:0:0:
40,192,92294,1,8,0:0:0:0:
112,264,92681,5,0,0:0:0:0:
208,264,93068,2,0,L|332:239,1,125
416,192,93842,2,0,L|290:169,1,125
256,80,94616,1,0,0:0:0:0:
56,80,95390,1,8,0:0:0:0:
200,224,96165,5,0,0:0:0:0:
288,184,96552,2,0,L|426:132,1,125
376,80,97326,2,0,L|248:128,1,125
256,192,98100,12,2,99648,0:0:0:0:
384,184,100035,2,0,L|353:58,1,125
256,80,100810,1,0,0:0:0:0:
304,272,101584,1,8,0:0:0:0:
232,344,101971,5,0,0:0:0:0:
232,248,102358,2,0,L|110:206,1,125
104,112,103132,2,0,L|72:232,1,125
144,296,103906,1,0,0:0:0:0:
344,296,104681,1,8,0:0:0:0:
272,224,105068,5,0,0:0:0:0:
184,176,105455,2,0,L|312:152,1,125
352,64,106229,2,0,L|375:190,1,125
448,256,107003,1,0,0:0:0:0:
448,56,107777,1,8,0:0:0:0:
256,96,108552,5,0,0:0:0:0:
136,192,109132,1,0,0:0:0:0:
160,40,109713,2,0,L|203:165,1,125
400,192,110874,1,0,0:0:0:0:
328,264,111261,1,0,0:0:0:0:
256,336,111648,1,12,0:0:0:0:
