osu file format v12

[General]
AudioFilename: 110798_the_race_around_the.mp3
AudioLeadIn: 0
PreviewTime: 16009
Countdown: 0
SampleSet: Soft
StackLeniency: 0.7
Mode: 0
LetterboxInBreaks: 1
WidescreenStoryboard: 1

[Editor]
DistanceSpacing: 0.8
BeatDivisor: 1
GridSize: 16

[Metadata]
Title:-Race around the world- (ID: 110798)
TitleUnicode:-Race around the world- (ID: 110798)
Artist:Waterflame
ArtistUnicode:Waterflame
Creator:GasTheJuice
Version:Normal
Source:
Tags:Waterflame89 race around the world waterflame
BeatmapID:329941
BeatmapSetID:130920

[Difficulty]
HPDrainRate:3
CircleSize:3
OverallDifficulty:3
ApproachRate:5
SliderMultiplier:1.2
SliderTickRate:1

[Events]
//Background and Video events
0,0,"earth-wallpaper.jpg",0,0
//Break Periods
2,38209,46809
2,96876,97143
2,101543,110809
//Storyboard Layer 0 (Background)
//Storyboard Layer 1 (Fail)
//Storyboard Layer 2 (Pass)
//Storyboard Layer 3 (Foreground)
//Storyboard Sound Samples
//Background Colour Transformations
3,100,163,162,255

[TimingPoints]
10,333.333333333333,4,2,0,50,1,0
16009,-100,4,2,0,80,0,1
37343,-100,4,2,0,80,0,0
80009,-100,4,2,0,80,0,1
101343,-100,4,2,0,80,0,0

[Colours]
Combo1 : 64,0,128
Combo2 : 255,0,0
Combo3 : 255,128,0
Combo4 : 253,197,2
Combo5 : 0,128,0
Combo6 : 0,0,255

[HitObjects]
160,312,10,1,0,0:0:0:0:
256,224,676,2,0,B|256:168|256:144|256:144,2,60,0|2|0,0:0|0:0|0:0,0:0:0:0:
352,72,1343,1,0,0:0:0:0:
256,168,2009,2,2,L|256:256,2,60,2|0|2,0:0|0:0|0:0,0:0:0:0:
360,192,2676,5,0,0:0:0:0:
256,88,3343,2,0,L|256:24,2,60,0|2|0,0:0|0:0|0:0,0:0:0:0:
160,192,4009,1,2,0:0:0:0:
256,288,4676,2,0,L|256:368,2,60,0|2|0,0:0|0:0|0:0,0:0:0:0:
168,240,5343,6,0,P|200:192|280:184,1,120
352,176,6009,2,0,L|416:176,2,60,0|2|0,0:0|0:0|0:0,0:0:0:0:
344,248,6676,5,0,0:0:0:0:
248,208,7009,1,2,0:0:0:0:
152,248,7343,2,0,L|152:312,2,60,2|0|2,0:0|0:0|0:0,0:0:0:0:
152,168,8009,6,0,P|216:112|272:112,1,120,0|2,0:0|0:0,0:0:0:0:
336,200,8676,2,0,L|416:200,2,60,0|2|0,0:0|0:0|0:0,0:0:0:0:
256,312,9343,6,0,P|199:297|136:240,1,120,2|0,0:0|0:0,0:0:0:0:
104,192,10009,2,0,L|24:192,2,60,0|2|0,0:0|0:0|0:0,0:0:0:0:
176,192,10676,5,0,0:0:0:0:
256,120,11009,1,2,0:0:0:0:
344,192,11343,2,0,L|416:192|416:192,2,60,0|2|0,0:0|0:0|0:0,0:0:0:0:
344,192,12009,5,0,0:0:0:0:
248,256,12343,1,2,0:0:0:0:
152,192,12676,2,2,L|64:192,2,60,2|0|2,0:0|0:0|0:0,0:0:0:0:
200,88,13343,6,2,P|256:64|320:104,2,120,2|0|2,0:0|0:0|0:0,0:0:0:0:
152,192,14343,1,0,0:0:0:0:
200,296,14676,2,2,P|256:320|320:280,3,120
360,214,16009,6,2,P|311:249|256:272,1,120
153,168,16676,2,2,P|199:131|256:112,1,120,2|2,0:0|0:0,0:0:0:0:
352,112,17343,6,0,P|384:152|344:200,1,120,2|0,0:0|0:0,0:0:0:0:
248,200,18009,2,0,P|192:152|128:136,1,120,2|0,0:0|0:0,0:0:0:0:
96,232,18676,6,4,P|144:280|216:296,1,120
322,292,20009,2,4,P|406:260|448:224,1,120
328,152,21343,6,0,P|264:144|184:160,1,120
208,240,22009,2,0,P|272:248|352:232,1,120,0|2,0:0|0:0,0:0:0:0:
352,192,22676,1,0,0:0:0:0:
256,136,23009,1,2,0:0:0:0:
160,192,23343,1,0,0:0:0:0:
64,136,23676,1,0,0:0:0:0:
201,101,24009,5,2,0:0:0:0:
325,112,24343,1,0,0:0:0:0:
353,233,24676,1,0,0:0:0:0:
246,297,25009,1,2,0:0:0:0:
173,190,25343,2,0,L|309:189,3,120,2|0|0|2,0:0|0:0|0:0|0:0,0:0:0:0:
448,184,26676,5,4,0:0:0:0:
376,184,27009,2,0,L|248:184,1,120
312,104,27676,2,0,L|176:104,1,120,2|0,0:0|0:0,0:0:0:0:
256,32,28343,5,0,0:0:0:0:
192,80,28676,1,2,0:0:0:0:
128,32,29009,1,0,0:0:0:0:
56,80,29343,2,2,P|32:168|48:288,1,120,2|2,0:0|0:0,0:0:0:0:
176,192,30676,2,0,P|192:119|169:33,1,120,2|2,0:0|0:0,0:0:0:0:
208,256,32009,6,0,P|176:192|200:128,1,120
312,152,32676,2,0,P|320:210|290:260,1,120,0|2,0:0|0:0,0:0:0:0:
256,328,33343,1,0,0:0:0:0:
256,240,33676,1,2,0:0:0:0:
256,152,34009,1,2,0:0:0:0:
256,64,34343,1,0,0:0:0:0:
176,64,34676,6,0,B|171:55|203:103|219:175,1,120,2|0,0:0|0:0,0:0:0:0:
360,176,35343,2,0,P|391:124|414:69,1,120,0|2,0:0|0:0,0:0:0:0:
320,48,36009,2,0,P|256:40|176:48,3,120,0|2|0|2,0:0|0:0|0:0|0:0,0:0:0:0:
96,96,37343,1,0,0:0:0:0:
64,48,48009,5,0,0:0:0:0:
104,112,48343,2,0,L|40:112,2,60,0|8|0,0:0|0:0|0:0,0:0:0:0:
104,184,49009,2,0,L|164:184,2,60,0|8|0,0:0|0:0|0:0,0:0:0:0:
100,256,49676,2,0,L|40:256,1,60,0|8,0:0|0:0,0:0:0:0:
352,320,50676,5,0,0:0:0:0:
352,248,51009,2,0,L|312:248|280:248,2,60,0|8|0,0:0|0:0|0:0,0:0:0:0:
352,176,51675,2,0,L|412:176,2,60,0|8|0,0:0|0:0|0:0,0:0:0:0:
348,104,52342,2,0,L|288:104,1,60,0|8,0:0|0:0,0:0:0:0:
256,192,53343,12,0,58343,0:0:0:0:
256,192,58676,5,0,0:0:0:0:
256,192,59009,1,2,0:0:0:0:
192,152,59343,2,0,P|240:104|288:128,1,120,0|2,0:0|0:0,0:0:0:0:
304,224,60009,2,0,P|272:270|220:250,1,120,2|0,0:0|0:0,0:0:0:0:
197,156,60676,2,0,P|177:208|223:240,1,120
327,217,61342,2,0,P|341:162|296:128,1,120,0|2,0:0|0:0,0:0:0:0:
296,128,62009,5,0,0:0:0:0:
240,64,62343,1,2,0:0:0:0:
160,64,62676,2,2,P|96:88|56:144,1,120,2|0,0:0|0:0,0:0:0:0:
160,176,63343,1,0,0:0:0:0:
104,248,63676,1,0,0:0:0:0:
176,304,64009,6,2,P|264:328|296:328,1,120,0|2,0:0|0:0,0:0:0:0:
400,312,65009,2,0,P|456:264|456:208,1,120,2|0,0:0|0:0,0:0:0:0:
464,136,65676,2,0,P|448:64|400:32,1,120
319,47,66343,6,0,P|265:32|230:76,1,120
240,152,67009,2,0,P|200:194|143:188,1,120,2|0,0:0|0:0,0:0:0:0:
136,112,67676,1,0,0:0:0:0:
136,112,68009,1,0,0:0:0:0:
192,176,68343,5,2,0:0:0:0:
256,232,68676,1,0,0:0:0:0:
312,288,69009,1,0,0:0:0:0:
344,192,69343,5,0,0:0:0:0:
448,176,69676,2,0,P|480:120|464:64,1,120
400,32,70343,2,0,P|345:52|319:105,1,120,2|0,0:0|0:0,0:0:0:0:
328,200,71009,1,0,0:0:0:0:
328,304,71343,2,0,P|288:344|224:320,1,120
200,232,72009,6,0,P|241:192|298:203,1,120
384,248,72676,2,0,P|437:226|445:170,1,120,0|2,0:0|0:0,0:0:0:0:
376,112,73343,1,2,0:0:0:0:
296,80,73676,5,0,0:0:0:0:
216,112,74009,1,0,0:0:0:0:
152,160,74343,1,0,0:0:0:0:
96,216,74676,2,0,P|128:272|192:288,1,120,0|2,0:0|0:0,0:0:0:0:
256,192,75343,12,0,78676,0:0:0:0:
208,136,79009,1,2,0:0:0:0:
328,168,79343,1,0,0:0:0:0:
232,256,79676,1,4,0:0:0:0:
256,192,80009,5,0,0:0:0:0:
256,192,80343,1,0,0:0:0:0:
328,168,80676,2,0,P|312:232|264:256,2,120,0|2|0,0:0|0:0|0:0,0:0:0:0:
240,48,82343,2,2,P|305:62|330:109,2,120,2|2|0,0:0|0:0|0:0,0:0:0:0:
144,112,83343,2,0,P|124:167|153:218,1,120
240,272,84009,2,0,P|291:243|302:187,1,120,0|2,0:0|0:0,0:0:0:0:
256,96,84676,1,0,0:0:0:0:
56,144,85343,5,0,0:0:0:0:
136,80,85676,2,0,P|128:48|112:24,1,60
240,64,86176,2,0,P|296:48|368:72,1,120,0|2,0:0|0:0,0:0:0:0:
480,192,87343,5,0,0:0:0:0:
416,272,87676,1,0,0:0:0:0:
320,320,88009,2,0,P|256:344|200:312,1,120,2|0,0:0|0:0,0:0:0:0:
128,272,88676,1,0,0:0:0:0:
64,192,89009,1,0,0:0:0:0:
88,96,89343,1,2,0:0:0:0:
176,56,89676,2,0,P|256:32|304:48,2,120
144,176,90676,5,0,0:0:0:0:
144,280,91009,2,0,P|208:320|256:320,1,120,0|2,0:0|0:0,0:0:0:0:
257,248,91676,2,0,P|316:243|363:207,1,120,0|0,0:0|0:0,0:0:0:0:
352,64,92676,5,0,0:0:0:0:
256,16,93009,1,2,0:0:0:0:
161,14,93343,2,0,P|87:27|83:112,1,120
80,144,94009,2,0,P|89:218|112:280,1,120
168,336,94676,1,2,0:0:0:0:
384,64,95676,5,2,0:0:0:0:
320,128,96009,1,0,0:0:0:0:
256,192,96343,2,0,L|148:288,1,120,2|0,0:0|0:0,0:0:0:0:
120,320,98343,5,2,0:0:0:0:
192,256,98676,1,0,0:0:0:0:
256,192,99009,1,0,0:0:0:0:
256,192,99343,12,0,101343,0:0:0:0:
192,264,112009,5,0,0:0:0:0:
288,256,112343,2,0,P|344:272|408:256,2,120,2|0|0,0:0|0:0|0:0,0:0:0:0:
224,190,113343,2,0,P|232:102|304:48,3,120,0|0|0|2,0:0|0:0|0:0|0:0,0:0:0:0:
368,80,114676,6,0,P|400:144|392:208,2,120,0|0|0,0:0|0:0|0:0,0:0:0:0:
298,10,115676,1,0,0:0:0:0:
199,13,116009,2,0,P|127:19|77:60,2,120,0|2|0,0:0|0:0|0:0,0:0:0:0:
298,34,117009,5,2,0:0:0:0:
304,132,117343,2,0,P|284:186|232:221,1,120,0|2,0:0|0:0,0:0:0:0:
130,242,118009,1,0,0:0:0:0:
128,64,119676,5,2,0:0:0:0:
225,71,120010,2,0,P|279:94|315:141,1,120
339,229,120676,1,0,0:0:0:0:
256,192,121009,12,0,122676,0:0:0:0:
