osu file format v12

[General]
AudioFilename: 110798_the_race_around_the.mp3
AudioLeadIn: 0
PreviewTime: 16009
Countdown: 0
SampleSet: Soft
StackLeniency: 0.7
Mode: 0
LetterboxInBreaks: 1
WidescreenStoryboard: 1

[Editor]
Bookmarks: 101926
DistanceSpacing: 0.8
BeatDivisor: 8
GridSize: 16

[Metadata]
Title:-Race around the world- (ID: 110798)
TitleUnicode:-Race around the world- (ID: 110798)
Artist:Waterflame
ArtistUnicode:Waterflame
Creator:GasTheJuice
Version:Insane
Source:
Tags:Waterflame89 race around the world waterflame
BeatmapID:329940
BeatmapSetID:130920

[Difficulty]
HPDrainRate:6
CircleSize:4
OverallDifficulty:8
ApproachRate:9
SliderMultiplier:2
SliderTickRate:1

[Events]
//Background and Video events
0,0,"earth-wallpaper.jpg",0,0
//Break Periods
2,37578,47444
2,101578,111444
//Storyboard Layer 0 (Background)
//Storyboard Layer 1 (Fail)
//Storyboard Layer 2 (Pass)
//Storyboard Layer 3 (Foreground)
//Storyboard Sound Samples
//Background Colour Transformations
3,100,163,162,255

[TimingPoints]
45,333.333333333333,4,2,0,50,1,0
4509,-100,4,2,0,80,0,0
16044,-100,4,2,0,80,0,1
18676,-66.6666666666667,4,2,0,80,0,1
21009,-100,4,2,0,80,0,1
25676,-200,4,2,0,80,0,1
26676,-100,4,2,0,80,0,1
29343,-66.6666666666667,4,2,0,80,0,1
32009,-100,4,2,0,80,0,1
37378,-100,4,2,0,80,0,0
55843,-200,4,2,0,80,0,0
58676,-100,4,2,0,80,0,0
80044,-100,4,2,0,80,0,1
93343,-200,4,2,0,80,0,1
101378,-100,4,2,0,80,0,0

[Colours]
Combo1 : 64,0,128
Combo2 : 255,0,0
Combo3 : 255,128,0
Combo4 : 253,197,2
Combo5 : 0,128,0
Combo6 : 0,0,255

[HitObjects]
168,176,45,2,0,B|184:248|328:128|360:208,1,200,4|0,0:0|0:0,0:0:0:0:
352,128,711,1,0,0:0:0:0:
256,192,878,1,2,0:0:0:0:
160,256,1044,1,0,0:0:0:0:
240,280,1378,6,0,B|312:264|192:120|272:88,1,200,0|2,0:0|0:0,0:0:0:0:
192,96,2044,1,2,0:0:0:0:
256,192,2211,1,0,0:0:0:0:
320,288,2378,1,2,0:0:0:0:
256,96,2711,6,0,P|200:40|104:112,1,200,0|2,0:0|0:0,0:0:0:0:
96,296,3378,1,0,0:0:0:0:
176,344,3544,1,2,0:0:0:0:
256,296,3711,2,0,B|328:240|200:144|264:104,1,200,0|4,0:0|0:0,0:0:0:0:
256,32,4378,5,0,0:0:0:0:
392,128,4711,1,0,0:0:0:0:
416,224,4878,1,2,0:0:0:0:
368,312,5044,1,0,0:0:0:0:
256,368,5378,5,0,0:0:0:0:
200,272,5544,1,0,0:0:0:0:
312,208,5711,1,2,0:0:0:0:
256,112,5878,1,0,0:0:0:0:
256,8,6044,6,0,P|296:-8|368:16,1,100,0|2,0:0|0:0,0:0:0:0:
256,128,6378,2,0,P|200:144|156:128,1,100,0|0,0:0|0:0,0:0:0:0:
184,40,6711,6,0,B|192:136|328:56|312:184,1,200,0|2,0:0|0:0,0:0:0:0:
336,32,7378,1,2,0:0:0:0:
256,104,7544,1,0,0:0:0:0:
176,168,7711,1,2,0:0:0:0:
256,24,8044,5,0,0:0:0:0:
312,120,8211,1,0,0:0:0:0:
200,184,8378,1,2,0:0:0:0:
256,280,8544,1,0,0:0:0:0:
256,368,8711,6,0,P|216:384|144:344,1,100,0|2,0:0|0:0,0:0:0:0:
256,256,9044,2,0,P|312:240|356:256,1,100,0|0,0:0|0:0,0:0:0:0:
328,344,9378,6,0,B|320:248|184:328|200:200,1,200,2|0,0:0|0:0,0:0:0:0:
176,352,10044,1,0,0:0:0:0:
256,280,10211,1,2,0:0:0:0:
336,216,10378,1,0,0:0:0:0:
512,192,10711,5,0,0:0:0:0:
424,128,10878,1,0,0:0:0:0:
352,192,11044,1,2,0:0:0:0:
256,128,11211,1,0,0:0:0:0:
88,24,11378,6,0,P|131:49|153:93,1,100,0|2,0:0|0:0,0:0:0:0:
224,252,11711,2,0,P|183:226|161:181,1,100,0|0,0:0|0:0,0:0:0:0:
72,136,12044,6,0,B|140:48|179:200|253:138,1,200,0|2,0:0|0:0,0:0:0:0:
334,116,12544,1,0,0:0:0:0:
334,262,12711,1,2,0:0:0:0:
386,189,12878,1,0,0:0:0:0:
248,234,13044,1,2,0:0:0:0:
352,96,13378,5,2,0:0:0:0:
160,296,13711,1,0,0:0:0:0:
352,96,14044,1,2,0:0:0:0:
218,257,14378,5,0,0:0:0:0:
218,127,14544,1,2,0:0:0:0:
328,192,14711,2,0,B|256:248|200:136|120:200,1,200
293,257,15378,5,0,0:0:0:0:
293,127,15544,1,2,0:0:0:0:
180,192,15711,1,0,0:0:0:0:
256,192,16044,5,4,0:0:0:0:
256,192,16378,1,0,0:0:0:0:
192,256,16544,5,0,0:0:0:0:
126,317,16711,1,0,0:0:0:0:
82,142,17044,1,2,0:0:0:0:
128,64,17211,1,0,0:0:0:0:
212,17,17378,2,0,B|264:0|296:128|392:64,1,200,2|0,0:0|0:0,0:0:0:0:
464,144,17878,1,0,0:0:0:0:
429,241,18044,1,2,0:0:0:0:
299,366,18378,1,0,0:0:0:0:
112,352,18711,6,4,B|176:456|256:168|336:464|400:344,1,300.000011444092
128,192,19544,1,2,0:0:0:0:
192,192,19628,1,0,0:0:0:0:
256,192,19711,1,0,0:0:0:0:
400,32,20044,6,4,B|336:-72|256:216|176:-80|112:40,1,300.000011444092
384,192,20878,1,0,0:0:0:0:
320,192,20961,1,2,0:0:0:0:
256,192,21044,1,0,0:0:0:0:
153,327,21378,5,0,0:0:0:0:
258,21,21711,1,0,0:0:0:0:
353,331,22044,2,0,P|288:288|256:168,1,200,0|2,0:0|0:0,0:0:0:0:
200,120,22544,1,0,0:0:0:0:
153,57,22711,5,0,0:0:0:0:
258,363,23044,1,2,0:0:0:0:
353,53,23378,2,0,P|288:96|256:216,1,200,0|0,0:0|0:0,0:0:0:0:
168,160,24044,6,0,B|256:128|256:264|344:224,1,200,2|0,0:0|0:0,0:0:0:0:
432,192,24544,1,0,0:0:0:0:
344,160,24711,2,0,B|256:128|256:264|168:224,1,200,0|2,0:0|0:0,0:0:0:0:
92,151,25211,1,0,0:0:0:0:
92,151,25294,1,0,0:0:0:0:
92,151,25378,1,2,0:0:0:0:
298,28,25711,1,0,0:0:0:0:
421,234,26044,1,0,0:0:0:0:
215,357,26378,1,2,0:0:0:0:
256,192,26711,5,4,0:0:0:0:
256,192,27044,1,0,0:0:0:0:
381,322,27211,5,0,0:0:0:0:
381,322,27378,1,0,0:0:0:0:
81,236,27711,1,2,0:0:0:0:
160,88,27878,1,0,0:0:0:0:
305,19,28044,2,0,B|304:96|448:64|432:152,1,200,2|0,0:0|0:0,0:0:0:0:
352,288,28544,1,0,0:0:0:0:
206,366,28711,1,2,0:0:0:0:
130,63,29044,1,0,0:0:0:0:
416,336,29378,6,4,B|520:272|232:192|528:112|408:48,1,300.000011444092
328,312,30211,1,2,0:0:0:0:
272,264,30294,1,0,0:0:0:0:
224,216,30378,1,0,0:0:0:0:
96,48,30711,6,4,B|-8:112|280:192|-16:272|104:336,1,300.000011444092
128,80,31544,1,0,0:0:0:0:
176,128,31628,1,2,0:0:0:0:
224,168,31711,1,0,0:0:0:0:
284,102,32044,6,0,P|284:152|256:192,1,100
345,220,32378,2,0,P|295:220|256:192,1,100,0|0,0:0|0:0,0:0:0:0:
227,281,32711,2,0,P|227:231|256:192,1,100,2|0,0:0|0:0,0:0:0:0:
166,163,33044,2,2,P|216:163|256:192,1,100,2|0,0:0|0:0,0:0:0:0:
278,179,33378,5,0,0:0:0:0:
358,137,33544,1,0,0:0:0:0:
400,216,33711,1,2,0:0:0:0:
320,259,33878,1,0,0:0:0:0:
231,206,34044,5,0,0:0:0:0:
155,157,34211,1,0,0:0:0:0:
106,232,34378,1,0,0:0:0:0:
181,281,34544,1,0,0:0:0:0:
224,280,34711,6,0,B|192:192|328:192|288:104,1,200,2|0,0:0|0:0,0:0:0:0:
256,24,35211,1,0,0:0:0:0:
224,112,35378,2,0,B|192:200|328:200|288:288,1,200,0|2,0:0|0:0,0:0:0:0:
240,336,35878,1,0,0:0:0:0:
240,336,35961,1,0,0:0:0:0:
240,336,36044,2,0,P|160:376|64:320,1,200,2|0,0:0|0:0,0:0:0:0:
256,72,36711,2,0,P|334:18|415:68,1,200,0|2,0:0|0:0,0:0:0:0:
464,176,37211,1,0,0:0:0:0:
456,296,37378,1,4,0:0:0:0:
344,48,48044,6,0,P|304:16|256:8,1,100
168,24,48378,2,0,L|168:80,2,50,8|0|0,0:0|0:0|0:0,0:0:0:0:
168,152,48711,6,0,P|224:192|256:200,1,100
344,200,49044,2,0,L|344:136,2,50,8|0|0,0:0|0:0|0:0,0:0:0:0:
392,96,49378,2,0,L|336:96|264:96,1,100
184,96,49711,2,0,L|112:96,2,50,8|0|0,0:0|0:0|0:0,0:0:0:0:
48,96,50044,6,2,L|48:72,7,25
48,248,50544,1,0,0:0:0:0:
160,256,50711,6,0,P|200:288|248:296,1,100
336,280,51044,2,0,L|336:224,2,50,8|0|0,0:0|0:0|0:0,0:0:0:0:
336,152,51378,6,0,P|280:112|248:104,1,100
160,104,51711,2,0,L|160:168,2,50,8|0|0,0:0|0:0|0:0,0:0:0:0:
112,208,52044,2,0,L|168:208|240:208,1,100
320,208,52378,2,0,L|392:208,2,50,8|0|0,0:0|0:0|0:0,0:0:0:0:
456,208,52711,6,2,L|456:176,7,25
344,32,53211,6,0,P|304:32|248:72,1,100,2|0,0:0|0:0,0:0:0:0:
256,128,53544,1,0,0:0:0:0:
256,192,53711,1,8,0:0:0:0:
73,195,53878,6,0,P|93:230|156:258,1,100
200,224,54211,1,0,0:0:0:0:
256,192,54378,1,8,0:0:0:0:
350,348,54544,6,0,P|370:313|363:245,1,100
311,224,54878,1,0,0:0:0:0:
256,192,55044,1,8,0:0:0:0:
200,152,55211,1,0,0:0:0:0:
152,120,55378,6,2,L|152:88,7,25
352,120,55878,1,2,0:0:0:0:
256,192,56044,6,2,L|256:176,3,12.5
176,192,56378,1,8,0:0:0:0:
96,192,56544,1,0,0:0:0:0:
256,192,56711,6,2,L|256:176,3,12.5
344,192,57044,1,8,0:0:0:0:
424,192,57211,1,0,0:0:0:0:
256,192,57378,12,0,58044,0:0:0:0:
192,192,58378,5,2,0:0:0:0:
320,192,58544,1,0,0:0:0:0:
432,280,58711,6,2,P|352:320|248:272,1,200
240,192,59211,1,0,0:0:0:0:
224,96,59378,2,0,P|144:48|48:104,1,200,0|2,0:0|0:0,0:0:0:0:
40,192,59878,1,0,0:0:0:0:
80,280,60044,2,2,P|160:320|264:272,1,200,2|0,0:0|0:0,0:0:0:0:
272,192,60544,1,0,0:0:0:0:
288,96,60711,2,0,P|368:48|464:104,1,200,0|0,0:0|0:0,0:0:0:0:
480,192,61211,5,0,0:0:0:0:
408,288,61378,2,0,L|448:336,2,50
288,320,61711,2,0,L|288:376,2,50,2|0|0,0:0|0:0|0:0,0:0:0:0:
160,288,62044,2,0,L|128:328,2,50,0|0|0,0:0|0:0|0:0,0:0:0:0:
80,192,62378,2,0,L|32:208,2,50,2|0|2,0:0|0:0|0:0,0:0:0:0:
152,88,62711,1,2,0:0:0:0:
336,272,63044,1,0,0:0:0:0:
392,48,63378,1,0,0:0:0:0:
112,304,63711,1,0,0:0:0:0:
256,312,64044,5,0,0:0:0:0:
256,64,64378,1,2,0:0:0:0:
256,192,65044,6,0,P|264:104|328:16,1,200,2|0,0:0|0:0,0:0:0:0:
416,80,65544,1,0,0:0:0:0:
432,192,65711,2,0,P|424:280|360:368,1,200,0|0,0:0|0:0,0:0:0:0:
256,320,66211,1,2,0:0:0:0:
152,368,66378,2,0,P|91:290|80:192,1,200,0|2,0:0|0:0,0:0:0:0:
96,80,66878,1,0,0:0:0:0:
192,16,67044,2,0,P|253:94|265:193,1,200,2|0,0:0|0:0,0:0:0:0:
256,176,67711,6,0,L|256:400,1,200
16,192,68378,1,2,0:0:0:0:
256,8,68711,1,0,0:0:0:0:
512,192,69044,1,0,0:0:0:0:
256,368,69378,6,0,L|256:224,1,100
352,144,69711,2,0,P|288:16|224:32,1,200
176,112,70211,1,0,0:0:0:0:
256,192,70378,6,0,P|376:256|448:208,1,200,2|0,0:0|0:0,0:0:0:0:
400,112,70878,1,0,0:0:0:0:
298,23,71044,2,0,P|318:118|256:192,1,200,0|0,0:0|0:0,0:0:0:0:
256,191,71544,1,2,0:0:0:0:
255,191,71711,2,0,P|182:129|87:149,1,200,0|0,0:0|0:0,0:0:0:0:
112,272,72211,1,0,0:0:0:0:
213,360,72378,2,0,P|193:265|255:192,1,200,2|0,0:0|0:0,0:0:0:0:
256,192,73044,5,2,0:0:0:0:
256,192,73378,1,0,0:0:0:0:
156,50,73711,1,0,0:0:0:0:
428,176,74044,1,0,0:0:0:0:
182,348,74378,1,0,0:0:0:0:
128,112,74711,6,0,L|80:80,2,50
256,192,75044,1,2,0:0:0:0:
408,312,75378,6,0,L|448:344,2,50
416,192,75711,1,8,0:0:0:0:
416,192,75878,1,0,0:0:0:0:
408,72,76044,2,0,L|448:40,2,50
256,64,76378,1,8,0:0:0:0:
256,64,76544,1,0,0:0:0:0:
104,72,76711,2,0,L|64:40,2,50
96,192,77044,1,8,0:0:0:0:
96,192,77211,1,0,0:0:0:0:
104,312,77378,2,0,L|64:344,2,50
256,336,77711,1,8,0:0:0:0:
256,336,77878,1,0,0:0:0:0:
256,192,77961,12,0,80044,0:0:0:0:
384,120,80378,6,0,B|424:176|328:224|368:320,1,200
464,216,81044,2,0,B|377:179|329:275|273:235,3,200,0|2|2|2,0:0|0:0|0:0|0:0,0:0:0:0:
176,288,82378,5,0,0:0:0:0:
76,337,82711,2,0,P|38:247|80:160,1,200,2|0,0:0|0:0,0:0:0:0:
416,72,83378,2,0,P|456:144|400:264,1,200
424,344,84044,1,0,0:0:0:0:
72,32,84378,2,0,P|40:120|88:240,1,200,2|0,0:0|0:0,0:0:0:0:
288,328,85378,6,0,P|224:360|168:328,3,100
112,304,86044,2,0,P|64:256|40:208,3,100,0|0|0|2,0:0|0:0|0:0|0:0,0:0:0:0:
48,56,86711,1,4,0:0:0:0:
456,320,87378,5,0,0:0:0:0:
176,40,87711,2,0,P|136:168|176:248,1,200,2|2,0:0|0:0,0:0:0:0:
344,144,88378,2,2,P|360:256|304:344,1,200,2|0,0:0|0:0,0:0:0:0:
104,320,89044,2,0,P|64:192|104:112,1,200,0|2,0:0|0:0,0:0:0:0:
408,64,89711,2,0,P|448:192|408:272,1,200,2|0,0:0|0:0,0:0:0:0:
256,192,90378,1,0,0:0:0:0:
151,192,90711,6,0,P|116:69|203:43,1,200,0|0,0:0|0:0,0:0:0:0:
256,0,91211,1,0,0:0:0:0:
343,43,91378,2,0,P|417:111|363:196,1,200,2|0,0:0|0:0,0:0:0:0:
256,192,91878,1,0,0:0:0:0:
151,192,92044,2,0,P|116:314|203:340,1,200
256,383,92544,1,0,0:0:0:0:
343,340,92711,2,0,P|417:271|363:186,1,200,2|0,0:0|0:0,0:0:0:0:
360,56,93378,6,2,P|248:32|136:72,1,200,0|0,0:0|0:0,0:0:0:0:
256,192,94378,1,0,0:0:0:0:
208,336,94711,2,0,B|256:384|320:336|320:336,3,100,0|2|0|2,0:0|0:0|0:0|0:0,0:0:0:0:
117,200,96044,1,0,0:0:0:0:
342,34,96378,1,2,0:0:0:0:
404,277,96711,1,0,0:0:0:0:
256,192,97044,12,0,98378,0:0:0:0:
257,348,98711,1,2,0:0:0:0:
422,62,99044,1,0,0:0:0:0:
92,62,99378,2,0,L|-24:64,1,100,2|0,0:0|0:0,0:0:0:0:
384,72,100044,2,0,L|509:73,1,100,2|0,0:0|0:0,0:0:0:0:
256,336,100711,1,0,0:0:0:0:
256,328,100794,1,0,0:0:0:0:
256,320,100878,1,0,0:0:0:0:
256,312,100961,1,0,0:0:0:0:
256,304,101044,1,0,0:0:0:0:
256,296,101128,1,0,0:0:0:0:
256,288,101211,1,0,0:0:0:0:
256,80,101378,1,4,0:0:0:0:
456,32,112044,5,0,0:0:0:0:
360,80,112211,1,0,0:0:0:0:
256,32,112378,2,0,P|200:80|168:216,1,200,2|0,0:0|0:0,0:0:0:0:
176,288,112878,1,0,0:0:0:0:
256,352,113044,2,0,P|304:296|336:160,1,200,0|2,0:0|0:0,0:0:0:0:
128,95,113711,5,0,0:0:0:0:
108,121,113794,1,0,0:0:0:0:
89,146,113878,1,0,0:0:0:0:
70,172,113961,1,0,0:0:0:0:
51,197,114044,1,2,0:0:0:0:
320,352,114378,2,0,P|440:320|472:224,1,200,2|0,0:0|0:0,0:0:0:0:
400,184,115044,5,0,0:0:0:0:
381,156,115128,1,0,0:0:0:0:
363,131,115211,1,0,0:0:0:0:
344,105,115294,1,0,0:0:0:0:
326,80,115378,1,2,0:0:0:0:
192,32,115711,2,0,P|72:64|40:160,1,200,0|2,0:0|0:0,0:0:0:0:
216,192,116378,5,0,0:0:0:0:
244,206,116461,1,0,0:0:0:0:
273,220,116544,1,0,0:0:0:0:
302,234,116628,1,0,0:0:0:0:
338,251,116711,1,2,0:0:0:0:
256,352,117044,2,0,P|136:296|112:208,1,200,2|0,0:0|0:0,0:0:0:0:
256,32,117711,2,0,P|376:88|400:176,1,200,2|0,0:0|0:0,0:0:0:0:
352,328,118378,5,0,0:0:0:0:
320,328,118461,1,0,0:0:0:0:
288,328,118544,1,0,0:0:0:0:
256,328,118628,1,0,0:0:0:0:
224,328,118711,1,2,0:0:0:0:
96,192,119044,5,0,0:0:0:0:
119,169,119128,1,0,0:0:0:0:
141,147,119211,1,0,0:0:0:0:
164,124,119294,1,0,0:0:0:0:
187,102,119378,1,2,0:0:0:0:
352,32,119711,2,0,P|472:88|496:176,1,200,2|0,0:0|0:0,0:0:0:0:
160,352,120378,2,0,P|40:296|16:208,1,200,0|2,0:0|0:0,0:0:0:0:
256,192,121044,12,0,122711,0:0:0:0:
