osu file format v12

[General]
AudioFilename: hRwSLMGq7bSR.128.mp3
AudioLeadIn: 2500
PreviewTime: 40422
Countdown: 0
SampleSet: Soft
StackLeniency: 0.7
Mode: 2
LetterboxInBreaks: 0
WidescreenStoryboard: 0

[Editor]
DistanceSpacing: 1.2
BeatDivisor: 4
GridSize: 4

[Metadata]
Title:Wareta Ringo (TV Size)
TitleUnicode:割れたリンゴ (TV Size)
Artist:Watanabe Saki (Taneda Risa)
ArtistUnicode:渡辺早季(種田梨沙)
Creator:Kin
Version:Salad
Source:Shin Sekai Yori
Tags:Shinsekai ending anime -Kirito -Neipezi Yusuke Kishi A-1 Pictures Sentai Filmworks From the New World
BeatmapID:263881
BeatmapSetID:69551

[Difficulty]
HPDrainRate:5
CircleSize:3
OverallDifficulty:6
ApproachRate:6
SliderMultiplier:1.4
SliderTickRate:1

[Events]
//Background and Video events
0,-750,"Shinsekai Yori BG.jpg",0,0
Video,-750,"BGV.flv"
//Break Periods
//Storyboard Layer 0 (Background)
//Storyboard Layer 1 (Fail)
//Storyboard Layer 2 (Pass)
//Storyboard Layer 3 (Foreground)
//Storyboard Sound Samples
//Background Colour Transformations
3,100,163,162,255

[TimingPoints]
-1578,500,4,2,1,50,1,0
38422,-100,4,2,0,50,0,0
40422,-100,4,2,2,60,0,1
78422,-100,4,2,2,50,0,0
80172,-100,4,2,0,50,0,0

[Colours]
Combo1 : 253,77,17
Combo2 : 170,85,0
Combo3 : 193,0,0
Combo4 : 210,210,0

[HitObjects]
256,192,172,2,0,B|326:192|326:192|256:192,1,140,2|2,0:0|0:0,0:0:0:0:
172,192,922,2,0,L|112:132,1,70,0|2,0:0|0:0,0:0:0:0:
122,142,1422,1,4,0:0:0:0:
376,144,1797,1,4,0:0:0:0:
376,144,2422,6,0,L|376:216,2,70,4|2|0,0:0|0:0|0:0,0:0:0:0:
292,144,3172,1,0,0:0:0:0:
208,144,3422,1,4,0:0:0:0:
460,144,3797,1,4,0:0:0:0:
460,144,4422,6,0,B|424:144|424:144|388:120,1,70,4|2,0:0|0:0,0:0:0:0:
312,124,4922,1,0,0:0:0:0:
396,124,5172,1,0,0:0:0:0:
312,124,5422,1,4,0:0:0:0:
60,124,5797,1,4,0:0:0:0:
256,204,6422,6,0,L|256:280,1,70,4|2,0:0|0:0,0:0:0:0:
172,272,6922,2,0,L|248:272,2,70,0|0|4,0:0|0:0|0:0,0:0:0:0:
424,272,7797,1,4,0:0:0:0:
256,144,8422,6,0,L|256:72,1,70,4|2,0:0|0:0,0:0:0:0:
172,76,8922,1,0,0:0:0:0:
340,76,9172,1,0,0:0:0:0:
256,76,9422,2,0,L|352:172,1,105,4|4,0:0|0:0,0:0:0:0:
330,150,10422,6,0,L|330:242,1,70,4|2,0:0|0:0,0:0:0:0:
248,220,10922,1,0,0:0:0:0:
80,220,11172,1,0,0:0:0:0:
164,220,11422,2,0,L|164:112,1,105,4|4,0:0|0:0,0:0:0:0:
256,304,12422,6,0,L|256:232,1,70,4|2,0:0|0:0,0:0:0:0:
340,232,12922,1,0,0:0:0:0:
172,232,13172,1,0,0:0:0:0:
256,232,13422,2,0,L|181:157,1,105,4|4,0:0|0:0,0:0:0:0:
392,156,14422,6,0,L|392:244,1,70,4|2,0:0|0:0,0:0:0:0:
308,228,14922,1,0,0:0:0:0:
224,228,15172,1,0,0:0:0:0:
308,228,15422,1,4,0:0:0:0:
56,228,15797,1,4,0:0:0:0:
180,228,16172,6,0,B|110:228|110:228|180:228,1,140,2|2,0:0|0:0,0:0:0:0:
264,228,16922,2,0,L|336:228,1,70
416,228,17422,1,4,0:0:0:0:
164,228,17797,1,4,0:0:0:0:
256,40,18422,6,0,L|256:120,1,70,4|2,0:0|0:0,0:0:0:0:
172,108,18922,2,0,L|96:108,2,70,0|0|4,0:0|0:0|0:0,0:0:0:0:
424,108,19797,1,4,0:0:0:0:
424,108,20422,6,0,L|424:180,2,70,4|2|0,0:0|0:0|0:0,0:0:0:0:
508,108,21172,1,0,0:0:0:0:
340,108,21422,2,0,L|248:200,1,105,4|4,0:0|0:0,0:0:0:0:
256,296,22422,6,0,L|200:240,1,70,4|2,0:0|0:0,0:0:0:0:
292,248,22922,1,0,0:0:0:0:
124,248,23172,1,0,0:0:0:0:
208,248,23422,2,0,L|336:248,1,105,4|4,0:0|0:0,0:0:0:0:
164,100,24422,6,0,L|272:100,2,105,4|0|0,0:0|0:0|0:0,0:0:0:0:
332,100,25672,1,2,0:0:0:0:
456,104,26047,2,0,L|456:176,1,70
372,172,26422,6,0,L|264:172,2,105,4|0|0,0:0|0:0|0:0,0:0:0:0:
204,172,27672,1,2,0:0:0:0:
204,172,28422,6,0,L|308:172,1,105,4|0,0:0|0:0,0:0:0:0:
184,172,29172,2,0,L|344:172,1,140,0|2,0:0|0:0,0:0:0:0:
448,176,30047,2,0,L|500:228,1,70
413,225,30422,6,0,L|308:225,1,105,4|0,0:0|0:0,0:0:0:0:
184,224,31172,2,0,L|356:224,1,140,0|2,0:0|0:0,0:0:0:0:
256,44,32422,6,0,L|256:160,1,105,4|0,0:0|0:0,0:0:0:0:
132,148,33172,1,0,0:0:0:0:
380,148,33672,1,2,0:0:0:0:
256,144,34047,2,0,L|204:196,1,70
292,192,34422,6,0,L|416:192,2,105,4|0|0,0:0|0:0|0:0,0:0:0:0:
124,196,35672,1,2,0:0:0:0:
256,192,36422,12,4,38422,0:0:0:0:
256,192,40422,2,0,L|256:112,1,70,6|2,0:0|0:0,0:0:0:0:
340,124,40922,1,8,0:0:0:0:
88,124,41297,2,0,L|88:232,1,105,2|2,0:0|0:0,0:0:0:0:
172,228,41922,1,8,0:0:0:0:
88,228,42172,1,2,0:0:0:0:
172,228,42422,5,2,0:0:0:0:
340,228,42922,1,8,0:0:0:0:
256,228,43422,1,2,0:0:0:0:
424,228,43922,1,8,0:0:0:0:
256,228,44422,6,0,L|340:228,1,70,2|2,0:0|0:0,0:0:0:0:
186,228,44922,1,8,0:0:0:0:
312,228,45297,2,0,L|312:124,1,105,2|2,0:0|0:0,0:0:0:0:
228,124,45922,1,8,0:0:0:0:
60,124,46422,5,2,0:0:0:0:
228,124,46922,1,8,0:0:0:0:
144,124,47422,1,2,0:0:0:0:
312,124,47922,1,8,0:0:0:0:
144,124,48422,6,0,L|200:180,1,70,2|2,0:0|0:0,0:0:0:0:
108,172,48922,2,0,L|216:172,2,105,8|2|2,0:0|0:0|0:0,0:0:0:0:
276,172,49922,1,8,0:0:0:0:
192,172,50172,1,2,0:0:0:0:
276,172,50422,6,0,L|276:320,1,140,2|8,0:0|0:0,0:0:0:0:
444,312,51422,2,0,L|444:164,1,140,2|8,0:0|0:0,0:0:0:0:
276,172,52422,5,2,0:0:0:0:
360,172,52672,1,2,0:0:0:0:
192,172,52922,1,8,0:0:0:0:
276,172,53172,2,0,L|276:232,1,35,0|2,0:0|0:0,0:0:0:0:
108,172,53547,2,0,L|108:228,1,35,0|2,0:0|0:0,0:0:0:0:
192,172,53922,1,8,0:0:0:0:
108,172,54172,1,2,0:0:0:0:
24,172,54422,6,0,L|144:292,1,140,2|8,0:0|0:0,0:0:0:0:
292,272,55422,2,0,L|193:173,1,140,2|8,0:0|0:0,0:0:0:0:
360,172,56422,5,6,0:0:0:0:
276,172,56672,1,2,0:0:0:0:
444,172,56922,2,0,L|324:172,2,105,8|2|2,0:0|0:0|0:0,0:0:0:0:
360,172,57922,1,8,0:0:0:0:
444,172,58172,1,2,0:0:0:0:
360,172,58422,5,2,0:0:0:0:
192,172,58922,1,8,0:0:0:0:
276,172,59422,1,2,0:0:0:0:
108,172,59922,1,8,0:0:0:0:
276,172,60422,6,0,L|356:172,2,70,2|2|8,0:0|0:0|0:0,0:0:0:0:
192,172,61172,2,0,L|192:207,1,35,0|2,0:0|0:0,0:0:0:0:
360,207,61547,2,0,L|360:172,1,35,0|2,0:0|0:0,0:0:0:0:
276,172,61922,2,0,L|276:248,1,70,8|2,0:0|0:0,0:0:0:0:
192,240,62422,5,2,0:0:0:0:
360,240,62922,1,8,0:0:0:0:
276,240,63422,1,2,0:0:0:0:
444,240,63922,1,8,0:0:0:0:
276,240,64422,6,0,B|348:240|348:240|372:216,1,105,6|0,0:0|0:0,0:0:0:0:
372,152,64922,2,0,L|300:152,1,70,8|0,0:0|0:0,0:0:0:0:
304,152,65297,1,2,0:0:0:0:
176,152,65672,1,2,0:0:0:0:
92,152,65922,1,8,0:0:0:0:
176,196,66172,1,2,0:0:0:0:
260,196,66422,6,0,B|332:196|332:196|332:128,1,140,2|8,0:0|0:0,0:0:0:0:
164,128,67422,2,0,B|92:128|92:128|92:196,1,140,2|8,0:0|0:0,0:0:0:0:
260,192,68422,6,0,L|336:192,2,70,2|2|8,0:0|0:0|0:0,0:0:0:0:
132,192,69297,1,0,0:0:0:0:
132,192,69422,2,0,L|132:264,1,70,2|0,0:0|0:0,0:0:0:0:
216,264,69922,1,8,0:0:0:0:
48,264,70172,1,2,0:0:0:0:
132,264,70422,6,0,B|64:240|64:240|132:224,1,140,2|8,0:0|0:0,0:0:0:0:
300,224,71422,2,0,B|368:200|368:200|300:184,1,140,2|8,0:0|0:0,0:0:0:0:
132,184,72422,5,6,0:0:0:0:
48,184,72672,1,2,0:0:0:0:
216,184,72922,2,0,L|112:184,2,105,8|2|2,0:0|0:0|0:0,0:0:0:0:
300,184,73922,1,8,0:0:0:0:
216,184,74172,1,2,0:0:0:0:
384,184,74422,6,0,L|384:256,1,70,2|2,0:0|0:0,0:0:0:0:
468,256,74922,1,8,0:0:0:0:
216,256,75297,1,2,0:0:0:0:
340,256,75672,2,0,L|340:184,1,70,2|8,0:0|0:0,0:0:0:0:
256,184,76172,1,2,0:0:0:0:
172,184,76422,6,0,L|100:184,2,70,2|2|8,0:0|0:0|0:0,0:0:0:0:
256,219,77172,2,0,L|256:184,1,35,0|2,0:0|0:0,0:0:0:0:
88,219,77547,2,0,L|88:184,1,35,0|2,0:0|0:0,0:0:0:0:
172,184,77922,1,8,0:0:0:0:
88,184,78172,1,2,0:0:0:0:
256,176,78422,1,4,0:0:0:0:
256,192,78672,12,0,80172,0:0:0:0:
256,192,80422,6,0,L|256:264,1,70,2|2,0:0|0:0,0:0:0:0:
340,264,80922,2,0,L|416:264,1,70
410,264,81422,1,2,0:0:0:0:
156,264,81797,1,2,0:0:0:0:
156,264,82422,6,0,L|156:192,1,70,2|2,0:0|0:0,0:0:0:0:
240,196,82922,2,0,L|320:196,1,70,0|0,0:0|0:0,0:0:0:0:
310,196,83422,1,2,0:0:0:0:
56,196,83797,1,2,0:0:0:0:
256,136,84422,6,0,L|256:208,1,70,2|2,0:0|0:0,0:0:0:0:
172,204,84922,1,0,0:0:0:0:
340,204,85172,1,0,0:0:0:0:
256,204,85422,2,0,L|256:80,1,105,2|2,0:0|0:0,0:0:0:0:
256,80,86422,6,0,L|328:80,1,70,2|2,0:0|0:0,0:0:0:0:
412,80,86922,1,0,0:0:0:0:
244,80,87172,1,0,0:0:0:0:
328,80,87422,2,0,L|328:200,1,105,2|2,0:0|0:0,0:0:0:0:
