osu file format v13

[General]
AudioFilename: hRwSLMGq7bSR.128.mp3
AudioLeadIn: 2500
PreviewTime: 40422
Countdown: 0
SampleSet: Soft
StackLeniency: 0.7
Mode: 2
LetterboxInBreaks: 0
WidescreenStoryboard: 0

[Editor]
DistanceSpacing: 1.7
BeatDivisor: 4
GridSize: 4
TimelineZoom: 1

[Metadata]
Title:Wareta Ringo (TV Size)
TitleUnicode:割れたリンゴ (TV Size)
Artist:Watanabe Saki (Taneda Risa)
ArtistUnicode:渡辺早季(種田梨沙)
Creator:Kin
Version:Rain
Source:Shin Sekai Yori
Tags:Shinsekai ending anime -Kirito -Neipezi Yusuke Kishi A-1 Pictures Sentai Filmworks From the New World
BeatmapID:245354
BeatmapSetID:69551

[Difficulty]
HPDrainRate:7
CircleSize:4
OverallDifficulty:8
ApproachRate:8
SliderMultiplier:2
SliderTickRate:1

[Events]
//Background and Video events
0,0,"Shinsekai Yori BG.jpg",0,0
Video,-750,"BGV.flv"
//Break Periods
//Storyboard Layer 0 (Background)
//Storyboard Layer 1 (Fail)
//Storyboard Layer 2 (Pass)
//Storyboard Layer 3 (Foreground)
//Storyboard Sound Samples
//Background Colour Transformations
3,100,163,162,255

[TimingPoints]
-1578,500,4,2,1,50,1,0
36922,-100,4,2,1,30,0,0
37297,-100,4,2,1,50,0,0
37797,-100,4,2,1,30,0,0
38047,-100,4,2,0,50,0,0
40422,-100,4,2,2,50,0,1
78422,-100,4,2,2,50,0,0
80422,-100,4,2,1,50,0,0

[Colours]
Combo1 : 253,77,17
Combo2 : 170,85,0
Combo3 : 193,0,0
Combo4 : 210,210,0

[HitObjects]
144,192,172,6,0,L|116:176,1,25,2|0,0:0|0:0,0:0:0:0:
198,180,297,2,0,L|226:164,1,25
144,192,422,1,4,0:0:0:0:
144,192,672,1,2,0:0:0:0:
252,192,922,2,0,L|252:132,1,50,2|0,0:0|0:0,0:0:0:0:
372,192,1172,1,2,0:0:0:0:
372,192,1422,2,0,L|416:128,1,50,4|0,0:0|0:0,0:0:0:0:
476,152,1672,1,2,0:0:0:0:
276,152,1797,1,4,0:0:0:0:
160,192,2422,6,0,B|108:192|108:192|160:192,1,100,4|2,0:0|0:0,0:0:0:0:
376,192,2922,2,0,L|432:192,2,50,2|0|2,0:0|0:0|0:0,0:0:0:0:
264,192,3422,2,0,L|244:144,1,50,4|2,0:0|0:0,0:0:0:0:
160,144,3672,1,2,0:0:0:0:
360,148,3797,1,4,0:0:0:0:
192,192,4297,5,2,0:0:0:0:
140,192,4359,1,0,0:0:0:0:
192,192,4422,1,4,0:0:0:0:
192,192,4672,1,0,0:0:0:0:
300,192,4922,2,0,L|320:108,1,50,2|0,0:0|0:0,0:0:0:0:
180,144,5172,1,2,0:0:0:0:
52,144,5422,2,0,L|88:108,2,50,4|2|2,0:0|0:0|0:0,0:0:0:0:
228,144,5797,1,4,0:0:0:0:
380,152,6297,5,0,0:0:0:0:
348,192,6359,1,0,0:0:0:0:
412,192,6422,2,0,L|312:128,1,100,4|0,0:0|0:0,0:0:0:0:
112,136,6922,2,0,L|108:84,1,50,2|0,0:0|0:0,0:0:0:0:
16,84,7172,1,2,0:0:0:0:
124,84,7422,2,0,L|160:48,2,50,4|2|2,0:0|0:0|0:0,0:0:0:0:
300,84,7797,1,4,0:0:0:0:
364,192,8422,6,0,B|388:148|388:148|364:104,1,100,4|2,0:0|0:0,0:0:0:0:
144,104,8922,2,0,L|194:104,1,50,2|0,0:0|0:0,0:0:0:0:
36,104,9172,1,2,0:0:0:0:
144,104,9422,2,0,L|200:104,1,50,4|2,0:0|0:0,0:0:0:0:
368,104,9672,2,0,L|312:104,1,50,2|4,0:0|0:0,0:0:0:0:
232,192,10422,5,4,0:0:0:0:
232,192,10672,2,0,L|132:192,1,100,2|2,0:0|0:0,0:0:0:0:
280,192,11047,2,0,L|196:192,1,50,0|2,0:0|0:0,0:0:0:0:
340,192,11422,2,0,L|284:192,1,50,4|0,0:0|0:0,0:0:0:0:
116,192,11672,2,0,L|172:192,1,50,2|4,0:0|0:0,0:0:0:0:
176,192,12297,5,0,0:0:0:0:
120,192,12359,1,0,0:0:0:0:
68,192,12422,2,0,L|112:304,1,100,4|2,0:0|0:0,0:0:0:0:
216,264,12922,1,2,0:0:0:0:
324,264,13047,1,0,0:0:0:0:
432,264,13172,1,2,0:0:0:0:
432,264,13422,2,0,L|392:192,1,50,4|2,0:0|0:0,0:0:0:0:
492,220,13672,1,0,0:0:0:0:
292,220,13797,1,4,0:0:0:0:
160,192,14422,6,0,B|108:192|108:192|64:160,1,100,4|2,0:0|0:0,0:0:0:0:
180,164,14922,2,0,L|236:164,1,50,2|0,0:0|0:0,0:0:0:0:
68,164,15172,1,2,0:0:0:0:
180,164,15422,2,0,L|204:104,1,50,4|2,0:0|0:0,0:0:0:0:
284,120,15672,1,2,0:0:0:0:
84,120,15797,1,4,0:0:0:0:
144,192,16172,6,0,L|116:176,1,25,2|0,0:0|0:0,0:0:0:0:
198,180,16297,2,0,L|226:164,1,25
144,192,16422,2,0,B|108:156|108:156|144:120,1,100,4|2,0:0|0:0,0:0:0:0:
364,120,16922,2,0,L|400:84,2,50,2|0|2,0:0|0:0|0:0,0:0:0:0:
148,120,17422,2,0,L|112:84,1,50,4|2,0:0|0:0,0:0:0:0:
288,84,17672,2,0,L|324:48,1,50,2|4,0:0|0:0,0:0:0:0:
280,192,18297,5,2,0:0:0:0:
224,192,18359,1,0,0:0:0:0:
168,192,18422,1,4,0:0:0:0:
280,192,18672,2,0,L|180:192,1,100,0|2,0:0|0:0,0:0:0:0:
340,192,19047,2,0,L|392:192,1,50,0|2,0:0|0:0,0:0:0:0:
280,192,19422,2,0,L|244:156,1,50,4|2,0:0|0:0,0:0:0:0:
420,156,19672,2,0,L|456:120,1,50,2|4,0:0|0:0,0:0:0:0:
120,148,20297,5,2,0:0:0:0:
68,148,20359,1,0,0:0:0:0:
120,148,20422,2,0,L|40:228,1,100,4|2,0:0|0:0,0:0:0:0:
328,224,20922,2,0,L|288:184,2,50,2|0|2,0:0|0:0|0:0,0:0:0:0:
440,224,21422,2,0,L|492:224,2,50,4|2|2,0:0|0:0|0:0,0:0:0:0:
264,224,21797,1,4,0:0:0:0:
168,192,22422,6,0,L|96:120,1,100,4|2,0:0|0:0,0:0:0:0:
316,120,22922,2,0,L|372:120,2,50,2|0|2,0:0|0:0|0:0,0:0:0:0:
196,120,23422,2,0,L|140:120,2,50,4|0|2,0:0|0:0|0:0,0:0:0:0:
372,120,23797,1,4,0:0:0:0:
168,192,24422,6,0,L|64:192,1,100,4|0,0:0|0:0,0:0:0:0:
216,192,24797,2,0,L|324:192,1,100,2|0,0:0|0:0,0:0:0:0:
464,192,25172,1,2,0:0:0:0:
356,192,25422,6,0,B|308:176|308:176|356:168,1,100,0|2,0:0|0:0,0:0:0:0:
412,168,25797,1,0,0:0:0:0:
304,168,26047,1,0,0:0:0:0:
176,168,26172,1,0,0:0:0:0:
76,168,26297,1,0,0:0:0:0:
304,168,26422,5,4,0:0:0:0:
391,132,26672,1,0,0:0:0:0:
240,132,26797,2,0,L|352:132,1,100,2|0,0:0|0:0,0:0:0:0:
192,132,27172,2,0,L|312:132,2,100,2|0|2,0:0|0:0|0:0,0:0:0:0:
136,132,27797,1,0,0:0:0:0:
356,128,28047,2,0,L|392:92,1,50,0|2,0:0|0:0,0:0:0:0:
280,84,28422,6,0,L|120:84,2,150,4|2|2,0:0|0:0|0:0,0:0:0:0:
500,84,29422,2,0,L|400:84,1,100,0|2,0:0|0:0,0:0:0:0:
456,84,29797,1,0,0:0:0:0:
348,84,30047,2,0,L|288:84,1,50
456,84,30297,1,0,0:0:0:0:
236,84,30422,6,0,L|84:84|80:84,2,150,4|2|2,0:0|0:0|0:0,0:0:0:0:
344,84,31422,2,0,L|220:84,1,100,0|2,0:0|0:0,0:0:0:0:
188,84,31797,1,0,0:0:0:0:
408,84,32047,2,0,L|460:84,1,50,0|2,0:0|0:0,0:0:0:0:
348,84,32422,6,0,L|248:84,1,100,4|0,0:0|0:0,0:0:0:0:
400,84,32797,2,0,L|296:84,1,100,2|0,0:0|0:0,0:0:0:0:
152,84,33172,2,0,L|256:84,2,100,2|0|2,0:0|0:0|0:0,0:0:0:0:
96,84,33797,1,0,0:0:0:0:
224,84,34047,1,0,0:0:0:0:
152,84,34172,1,0,0:0:0:0:
360,84,34297,1,0,0:0:0:0:
288,84,34422,6,0,L|132:84,2,150,4|2|2,0:0|0:0|0:0,0:0:0:0:
416,84,35422,2,0,L|308:84,1,100,0|2,0:0|0:0,0:0:0:0:
444,84,35922,1,0,0:0:0:0:
280,84,36297,5,0,0:0:0:0:
228,84,36359,1,0,0:0:0:0:
280,84,36422,1,0,0:0:0:0:
388,84,36672,2,0,L|452:84,2,50,0|0|8,0:0|0:0|0:0,0:0:0:0:
148,84,37172,2,0,L|220:84,1,50,8|0,0:0|0:0,0:0:0:0:
424,84,37547,2,0,L|352:84,2,50,0|0|8,0:0|0:0|0:0,0:0:0:0:
424,84,38047,1,0,0:0:0:0:
304,84,38172,1,0,0:0:0:0:
88,84,38297,1,0,0:0:0:0:
208,84,38422,1,4,0:0:0:0:
200,192,39422,6,0,L|216:140,1,50,2|0,0:0|0:0,0:0:0:0:
364,140,39672,1,0,0:0:0:0:
400,140,39734,1,2,0:0:0:0:
436,140,39797,1,0,0:0:0:0:
216,144,39922,1,0,0:0:0:0:
104,144,40047,1,0,0:0:0:0:
48,144,40172,1,0,0:0:0:0:
104,144,40297,1,0,0:0:0:0:
156,144,40422,6,0,L|264:144,1,100,6|2,0:0|0:0,0:0:0:0:
156,144,40797,1,0,0:0:0:0:
48,144,40922,2,0,L|160:144,1,100,8|0,0:0|0:0,0:0:0:0:
296,144,41297,2,0,L|188:144,1,100,2|8,0:0|0:0,0:0:0:0:
344,144,41672,2,0,L|244:144,1,100,2|8,0:0|0:0,0:0:0:0:
136,144,42172,2,0,L|68:144,1,50,0|8,0:0|0:0,0:0:0:0:
136,144,42422,6,0,L|12:144,1,100,2|2,0:0|0:0,0:0:0:0:
376,144,42922,2,0,L|476:144,1,100,8|0,0:0|0:0,0:0:0:0:
328,144,43297,2,0,L|440:144,1,100,2|0,0:0|0:0,0:0:0:0:
484,144,43672,1,2,0:0:0:0:
484,144,43797,1,0,0:0:0:0:
272,144,43922,1,8,0:0:0:0:
164,192,44172,6,0,L|164:88,1,100,0|2,0:0|0:0,0:0:0:0:
88,92,44547,1,0,0:0:0:0:
424,92,44797,1,2,0:0:0:0:
348,92,44922,2,0,L|348:192,1,100,8|0,0:0|0:0,0:0:0:0:
424,192,45297,1,2,0:0:0:0:
276,192,45422,2,0,L|176:192,1,100,2|2,0:0|0:0,0:0:0:0:
324,192,45797,1,0,0:0:0:0:
176,192,45922,1,8,0:0:0:0:
68,192,46172,5,2,0:0:0:0:
176,192,46422,1,2,0:0:0:0:
444,192,46672,1,0,0:0:0:0:
336,192,46922,2,0,L|448:192,1,100,8|0,0:0|0:0,0:0:0:0:
288,192,47297,2,0,L|180:192,1,100,2|0,0:0|0:0,0:0:0:0:
112,192,47672,1,2,0:0:0:0:
188,192,47797,1,0,0:0:0:0:
36,192,47922,1,8,0:0:0:0:
256,104,48422,6,0,L|148:104,1,100,6|0,0:0|0:0,0:0:0:0:
356,104,48922,2,0,L|468:104,1,100,8|0,0:0|0:0,0:0:0:0:
304,104,49297,2,0,L|424:104,1,100,2|0,0:0|0:0,0:0:0:0:
256,104,49672,2,0,L|356:104,2,100,2|8|2,0:0|0:0|0:0,0:0:0:0:
404,104,50297,1,8,0:0:0:0:
204,104,50422,5,2,0:0:0:0:
96,104,50547,1,0,0:0:0:0:
40,104,50672,1,8,0:0:0:0:
40,192,50922,2,0,L|140:192,1,100,8|8,0:0|0:0,0:0:0:0:
64,192,51297,1,2,0:0:0:0:
448,192,51547,1,8,0:0:0:0:
372,192,51672,2,0,L|472:192,1,100,2|8,0:0|0:0,0:0:0:0:
252,192,52172,5,2,0:0:0:0:
360,192,52422,2,0,L|256:192,1,100,2|2,0:0|0:0,0:0:0:0:
316,192,52797,1,0,0:0:0:0:
168,192,52922,2,0,L|68:192,1,100,8|0,0:0|0:0,0:0:0:0:
12,192,53297,1,2,0:0:0:0:
284,192,53547,2,0,L|334:192,1,50,0|2,0:0|0:0,0:0:0:0:
68,192,53922,1,8,0:0:0:0:
176,192,54172,6,0,L|100:116,1,100,2|2,0:0|0:0,0:0:0:0:
105,121,54672,1,0,0:0:0:0:
216,120,54797,1,0,0:0:0:0:
324,120,54922,1,8,0:0:0:0:
324,120,55172,1,0,0:0:0:0:
400,120,55297,2,0,L|400:232,1,100,2|0,0:0|0:0,0:0:0:0:
324,220,55672,1,2,0:0:0:0:
476,220,55797,1,0,0:0:0:0:
276,220,55922,1,8,0:0:0:0:
256,56,56422,5,6,0:0:0:0:
148,56,56672,2,0,L|148:108,1,50,2|0,0:0|0:0,0:0:0:0:
296,108,56922,2,2,L|296:208,1,100,8|0,0:0|0:0,0:0:0:0:
220,208,57297,2,0,L|344:208,1,100,2|0,0:0|0:0,0:0:0:0:
376,208,57672,1,2,0:0:0:0:
124,208,57922,1,8,0:0:0:0:
376,208,58172,6,0,L|428:208,2,50,0|8|2,0:0|0:0|0:0,0:0:0:0:
268,208,58672,1,2,0:0:0:0:
376,208,58922,2,0,L|256:208,1,100,8|0,0:0|0:0,0:0:0:0:
76,208,59297,2,0,L|196:208,1,100,2|0,0:0|0:0,0:0:0:0:
120,208,59672,1,2,0:0:0:0:
268,208,59797,1,0,0:0:0:0:
324,208,59922,1,8,0:0:0:0:
216,208,60172,6,0,L|216:104,1,100,2|2,0:0|0:0,0:0:0:0:
104,108,60672,1,2,0:0:0:0:
48,108,60797,1,0,0:0:0:0:
216,108,60922,2,0,L|116:108,1,100,8|0,0:0|0:0,0:0:0:0:
48,108,61297,1,8,0:0:0:0:
216,108,61422,2,0,L|316:108,2,100,2|2|8,0:0|0:0|0:0,0:0:0:0:
104,108,62172,6,0,L|84:60,1,50,0|8,0:0|0:0,0:0:0:0:
236,60,62422,2,0,L|274:152,1,100,2|2,0:0|0:0,0:0:0:0:
56,152,62922,2,0,L|156:152,1,100,8|8,0:0|0:0,0:0:0:0:
456,152,63297,2,0,L|356:152,1,100,2|0,0:0|0:0,0:0:0:0:
168,152,63672,1,2,0:0:0:0:
244,152,63797,1,0,0:0:0:0:
56,152,63922,1,8,0:0:0:0:
256,312,64422,5,6,0:0:0:0:
148,312,64672,2,0,L|96:312,1,50,2|0,0:0|0:0,0:0:0:0:
256,312,64922,2,0,L|156:312,1,100,8|0,0:0|0:0,0:0:0:0:
304,312,65297,2,0,L|304:212,1,100,2|0,0:0|0:0,0:0:0:0:
156,212,65672,2,0,L|156:312,1,100,2|8,0:0|0:0,0:0:0:0:
264,312,66172,6,0,L|288:260,1,50,0|8,0:0|0:0,0:0:0:0:
360,268,66422,2,0,L|252:268,1,100,2|2,0:0|0:0,0:0:0:0:
112,268,66797,1,0,0:0:0:0:
188,268,66922,2,0,L|80:268,1,100,8|0,0:0|0:0,0:0:0:0:
236,192,67297,2,0,L|124:192,1,100,2|0,0:0|0:0,0:0:0:0:
80,192,67672,1,2,0:0:0:0:
236,192,67797,1,0,0:0:0:0:
24,192,67922,1,8,0:0:0:0:
24,192,68172,5,2,0:0:0:0:
24,192,68422,2,0,L|132:192,1,100,2|2,0:0|0:0,0:0:0:0:
80,192,68797,1,0,0:0:0:0:
236,192,68922,1,8,0:0:0:0:
344,192,69172,1,8,0:0:0:0:
420,192,69297,2,0,L|420:88,1,100,2|8,0:0|0:0,0:0:0:0:
496,92,69672,1,2,0:0:0:0:
376,92,69797,1,0,0:0:0:0:
496,92,69922,1,8,0:0:0:0:
496,92,70172,6,0,L|496:192,1,100,2|2,0:0|0:0,0:0:0:0:
420,192,70547,1,0,0:0:0:0:
92,192,70797,1,0,0:0:0:0:
16,192,70922,2,0,L|16:92,1,100,8|0,0:0|0:0,0:0:0:0:
164,92,71297,1,8,0:0:0:0:
16,92,71422,2,0,L|120:92,1,100,2|2,0:0|0:0,0:0:0:0:
264,92,71922,1,8,0:0:0:0:
168,192,72422,6,0,L|168:296,1,100,6|0,0:0|0:0,0:0:0:0:
316,292,72797,1,0,0:0:0:0:
260,292,72922,2,0,L|368:292,1,100,8|0,0:0|0:0,0:0:0:0:
508,292,73297,2,0,L|408:292,1,100,2|0,0:0|0:0,0:0:0:0:
456,292,73672,1,2,0:0:0:0:
56,292,73922,1,8,0:0:0:0:
56,292,74172,6,0,L|156:292,2,100,2|2|2,0:0|0:0|0:0,0:0:0:0:
196,292,74797,1,0,0:0:0:0:
336,292,74922,1,8,0:0:0:0:
336,292,75172,1,0,0:0:0:0:
412,292,75297,2,0,L|412:192,1,100,2|0,0:0|0:0,0:0:0:0:
344,192,75672,1,2,0:0:0:0:
480,192,75797,1,0,0:0:0:0:
276,192,75922,1,8,0:0:0:0:
148,192,76172,6,0,L|76:264,2,100,2|2|0,0:0|0:0|0:0,0:0:0:0:
72,192,76797,1,0,0:0:0:0:
224,192,76922,2,0,L|224:88,1,100,8|0,0:0|0:0,0:0:0:0:
372,92,77297,2,0,L|268:92,1,100,2|0,0:0|0:0,0:0:0:0:
420,92,77672,2,0,L|320:92,1,100,2|8,0:0|0:0,0:0:0:0:
256,264,78422,1,4,0:0:0:0:
256,192,78672,12,0,80172,0:0:0:0:
256,192,80422,6,0,B|306:192|306:192|256:192,1,100,2|2,0:0|0:0,0:0:0:0:
148,192,80922,2,0,L|120:136,1,50,2|0,0:0|0:0,0:0:0:0:
276,148,81172,2,0,L|321:239,1,100,2|0,0:0|0:0,0:0:0:0:
452,236,81547,1,2,0:0:0:0:
191,237,81672,1,0,0:0:0:0:
60,236,81797,1,2,0:0:0:0:
180,192,82422,6,0,B|130:192|130:192|180:192,1,100,2|2,0:0|0:0,0:0:0:0:
288,92,82922,2,0,L|340:92,1,50,2|0,0:0|0:0,0:0:0:0:
180,92,83172,1,2,0:0:0:0:
180,92,83422,2,0,L|180:144,1,50,0|2,0:0|0:0,0:0:0:0:
104,140,83672,1,0,0:0:0:0:
408,140,83797,1,2,0:0:0:0:
200,192,84297,5,2,0:0:0:0:
252,192,84359,1,0,0:0:0:0:
200,192,84422,2,0,L|100:192,2,100,2|2|2,0:0|0:0|0:0,0:0:0:0:
348,192,85047,2,0,L|296:192,1,50,0|2,0:0|0:0,0:0:0:0:
188,192,85422,2,0,L|188:264,1,50,0|2,0:0|0:0,0:0:0:0:
112,240,85672,1,0,0:0:0:0:
264,240,85797,1,2,0:0:0:0:
404,192,86422,6,0,B|476:192|476:192|444:192,1,100,2|2,0:0|0:0,0:0:0:0:
340,192,86922,2,0,L|400:192,2,50,2|0|2,0:0|0:0|0:0,0:0:0:0:
448,192,87422,1,0,0:0:0:0:
260,196,87547,1,2,0:0:0:0:
152,196,87672,1,0,0:0:0:0:
96,196,87797,1,2,0:0:0:0:
