osu file format v12

[General]
AudioFilename: hRwSLMGq7bSR.128.mp3
AudioLeadIn: 2500
PreviewTime: 40422
Countdown: 0
SampleSet: Soft
StackLeniency: 0.7
Mode: 0
LetterboxInBreaks: 0
WidescreenStoryboard: 0

[Editor]
DistanceSpacing: 0.9
BeatDivisor: 4
GridSize: 4

[Metadata]
Title:Wareta Ringo (TV Size)
TitleUnicode:割れたリンゴ (TV Size)
Artist:Watanabe Saki (Taneda Risa)
ArtistUnicode:渡辺早季(種田梨沙)
Creator:Kin
Version:Normal
Source:Shin Sekai Yori
Tags:Shinsekai ending anime -Kirito -Neipezi Yusuke Kishi A-1 Pictures Sentai Filmworks From the New World
BeatmapID:245415
BeatmapSetID:69551

[Difficulty]
HPDrainRate:5
CircleSize:3
OverallDifficulty:4
ApproachRate:4
SliderMultiplier:1.2
SliderTickRate:1

[Events]
//Background and Video events
0,0,"Shinsekai Yori BG.jpg",0,0
Video,-750,"BGV.flv"
//Break Periods
//Storyboard Layer 0 (Background)
//Storyboard Layer 1 (Fail)
//Storyboard Layer 2 (Pass)
//Storyboard Layer 3 (Foreground)
//Storyboard Sound Samples
//Background Colour Transformations
3,100,163,162,255

[TimingPoints]
-1578,500,4,2,1,50,1,0
38422,-100,4,2,0,50,0,0
40422,-100,4,2,2,60,0,1
78422,-100,4,2,2,60,0,0
79922,-100,4,2,1,5,0,0
80422,-100,4,2,1,50,0,0

[Colours]
Combo1 : 253,77,17
Combo2 : 170,85,0
Combo3 : 193,0,0
Combo4 : 210,210,0

[HitObjects]
232,180,172,2,0,B|291:120|291:120|386:108,1,180,2|0,0:0|0:0,0:0:0:0:
396,216,1422,2,0,B|360:244|360:244|304:256,1,90,4|4,0:0|0:0,0:0:0:0:
188,292,2422,2,0,L|228:340,2,60,4|2|0,0:0|0:0|0:0,0:0:0:0:
100,352,3422,2,0,B|108:308|108:308|92:264,1,90,4|4,0:0|0:0,0:0:0:0:
28,148,4422,6,0,P|68:100|136:96,1,120,4|2,0:0|0:0,0:0:0:0:
200,20,5422,2,0,P|211:31|228:108,1,90,4|4,0:0|0:0,0:0:0:0:
284,224,6422,2,0,B|321:271|321:271|321:330,1,120,4|2,0:0|0:0,0:0:0:0:
216,352,7422,2,0,B|188:316|188:316|188:272,1,90,4|4,0:0|0:0,0:0:0:0:
92,176,8422,6,0,L|40:216,2,60,4|0|0,0:0|0:0|0:0,0:0:0:0:
176,108,9422,2,0,P|240:84|280:96,1,90,4|4,0:0|0:0,0:0:0:0:
388,132,10422,2,0,L|444:76,2,60,4|0|0,0:0|0:0|0:0,0:0:0:0:
308,204,11422,2,0,B|272:232|272:232|220:240,1,90,4|4,0:0|0:0,0:0:0:0:
96,256,12422,6,0,L|48:304,2,60,4|0|0,0:0|0:0|0:0,0:0:0:0:
168,176,13422,2,0,B|200:140|200:140|264:132,1,90,4|4,0:0|0:0,0:0:0:0:
324,28,14422,2,0,P|348:40|372:80,1,60,4|0,0:0|0:0,0:0:0:0:
388,116,14922,1,0,0:0:0:0:
364,220,15422,2,0,P|332:264|280:284,1,90,4|4,0:0|0:0,0:0:0:0:
204,188,16422,6,0,L|288:188,2,60,4|0|0,0:0|0:0|0:0,0:0:0:0:
132,108,17422,2,0,B|156:80|208:80|208:80|236:80,1,90,4|4,0:0|0:0,0:0:0:0:
348,80,18422,2,0,P|340:40|308:12,2,60,4|0|0,0:0|0:0|0:0,0:0:0:0:
348,188,19422,2,0,B|344:209|320:218|320:218|290:227|287:249,1,90,4|4,0:0|0:0,0:0:0:0:
368,356,20422,6,0,P|396:360|428:352,2,60,4|0|0,0:0|0:0|0:0,0:0:0:0:
264,332,21422,2,0,B|243:320|219:329|219:329|193:329|181:311,1,90,4|4,0:0|0:0,0:0:0:0:
76,228,22422,2,0,P|60:196|28:180,2,60,4|0|0,0:0|0:0|0:0,0:0:0:0:
180,252,23422,2,0,B|188:220|176:192|176:192|216:164,1,90,4|4,0:0|0:0,0:0:0:0:
316,104,24422,6,0,P|368:88|408:104,2,90,4|2|0,0:0|0:0|0:0,0:0:0:0:
352,208,25672,2,0,B|298:242|298:242|274:234|274:234|275:266|275:266|247:252|247:252|244:277,1,180,2|4,0:0|0:0,0:0:0:0:
212,356,26797,2,0,B|188:348|172:320|172:320|128:320,1,90,2|0,0:0|0:0,0:0:0:0:
88,224,27672,1,2,0:0:0:0:
208,116,28422,6,0,P|168:88|112:72,2,90,4|2|0,0:0|0:0|0:0,0:0:0:0:
292,180,29672,2,0,B|346:213|346:213|349:238|349:238|377:223|377:223|377:255|377:255|401:246,1,180,2|4,0:0|0:0,0:0:0:0:
476,208,30797,2,0,P|484:156|456:120,1,90,2|0,0:0|0:0,0:0:0:0:
372,72,31672,1,2,0:0:0:0:
212,68,32422,6,0,P|148:96|128:136,2,90,4|2|0,0:0|0:0|0:0,0:0:0:0:
228,176,33672,2,0,B|204:224|159:229|159:229|152:256|152:256|164:280|164:280|164:324,1,180,2|4,0:0|0:0,0:0:0:0:
84,324,34797,2,0,B|84:300|84:300|68:272|68:272|76:224,1,90,2|0,0:0|0:0,0:0:0:0:
100,136,35672,1,2,0:0:0:0:
256,192,36422,12,4,38422,0:0:0:0:
232,180,40422,6,0,P|242:241|288:277,1,120,6|8,0:0|0:0,0:0:0:0:
380,226,41422,2,0,P|369:164|323:128,1,120,2|8,0:0|0:0,0:0:0:0:
259,46,42422,1,2,0:0:0:0:
157,85,42922,1,8,0:0:0:0:
163,194,43422,1,2,0:0:0:0:
266,221,43922,1,8,0:0:0:0:
325,130,44422,6,0,P|364:164|376:228,1,120,2|8,0:0|0:0,0:0:0:0:
320,320,45422,2,0,L|387:363,2,60,2|2|8,0:0|0:0|0:0,0:0:0:0:
232,256,46422,2,0,B|180:224|180:224|121:224,1,120,2|8,0:0|0:0,0:0:0:0:
96,180,47172,1,2,0:0:0:0:
121,132,47422,2,0,B|181:132|181:132|232:100,1,120,2|8,0:0|0:0,0:0:0:0:
308,176,48422,6,0,L|368:176,2,60,6|2|8,0:0|0:0|0:0,0:0:0:0:
228,252,49422,2,0,B|260:288|304:288|304:288|348:288,2,120,2|8|2,0:0|0:0|0:0,0:0:0:0:
192,212,50672,2,0,P|160:188|128:180,1,60,2|8,0:0|0:0,0:0:0:0:
44,140,51422,2,0,P|88:88|160:80,1,120,2|8,0:0|0:0,0:0:0:0:
240,100,52422,1,2,0:0:0:0:
340,144,52922,2,0,P|352:96|340:56,2,90,8|2|2,0:0|0:0|0:0,0:0:0:0:
304,184,53922,1,8,0:0:0:0:
240,100,54422,5,2,0:0:0:0:
132,100,54922,1,8,0:0:0:0:
80,196,55422,1,2,0:0:0:0:
132,292,55922,1,8,0:0:0:0:
240,292,56422,5,6,0:0:0:0:
340,256,56922,2,0,P|389:224|402:166,1,120,8|2,0:0|0:0,0:0:0:0:
372,119,57672,1,2,0:0:0:0:
319,102,57922,2,0,P|267:126|248:183,1,120,8|2,0:0|0:0,0:0:0:0:
240,292,58922,1,8,0:0:0:0:
348,300,59422,2,0,P|380:280|404:240,2,60,2|2|8,0:0|0:0|0:0,0:0:0:0:
240,292,60422,6,0,B|208:284|188:264|188:264|160:276|128:276,1,120,2|8,0:0|0:0,0:0:0:0:
72,184,61422,2,0,P|52:152|8:140,2,60,2|2|8,0:0|0:0|0:0,0:0:0:0:
180,172,62422,2,0,B|180:140|160:116|160:116|224:76,1,120,2|8,0:0|0:0,0:0:0:0:
256,56,63172,1,2,0:0:0:0:
301,84,63422,2,0,B|352:116|352:116|332:140|332:172,1,120,2|8,0:0|0:0,0:0:0:0:
440,184,64422,6,0,P|460:152|504:140,2,60,6|2|8,0:0|0:0|0:0,0:0:0:0:
404,288,65422,2,0,B|391:320|353:301|353:301|315:282|303:314,1,120,2|8,0:0|0:0,0:0:0:0:
220,380,66422,2,0,P|192:328|208:264,1,120,2|8,0:0|0:0,0:0:0:0:
232,224,67172,1,2,0:0:0:0:
260,180,67422,2,0,P|244:128|184:96,1,120,2|8,0:0|0:0,0:0:0:0:
104,164,68422,5,2,0:0:0:0:
136,268,68922,2,0,P|104:276|60:268,2,60,8|2|2,0:0|0:0|0:0,0:0:0:0:
244,252,69922,2,0,B|296:227|296:227|308:229|308:229|369:199,1,120,8|2,0:0|0:0,0:0:0:0:
449,154,70922,1,8,0:0:0:0:
438,46,71422,1,2,0:0:0:0:
332,25,71922,1,8,0:0:0:0:
279,118,72422,5,6,0:0:0:0:
352,206,72922,1,8,0:0:0:0:
279,286,73422,2,0,L|324:336,2,60,2|2|8,0:0|0:0|0:0,0:0:0:0:
172,272,74422,2,0,B|172:228|208:200|208:200|172:140,1,120,2|8,0:0|0:0,0:0:0:0:
216,64,75422,2,0,B|260:70|285:111|285:111|308:149,1,120,2|8,0:0|0:0,0:0:0:0:
360,232,76422,6,0,B|373:257|373:257|368:295,1,60,2|2,0:0|0:0,0:0:0:0:
352,340,76922,1,8,0:0:0:0:
252,376,77422,2,0,B|192:380|192:380|140:328,1,120,2|8,0:0|0:0,0:0:0:0:
92,248,78422,1,4,0:0:0:0:
256,192,78672,12,0,79922,0:0:0:0:
108,160,80422,5,2,0:0:0:0:
196,100,80922,2,0,P|236:80|276:80,1,60,2|0,0:0|0:0,0:0:0:0:
304,84,81422,2,0,P|364:116|384:148,1,90,2|2,0:0|0:0,0:0:0:0:
268,212,82422,2,0,L|224:268,1,60,2|2,0:0|0:0,0:0:0:0:
200,304,82922,1,2,0:0:0:0:
104,260,83422,2,0,P|76:224|72:176,1,90,2|2,0:0|0:0,0:0:0:0:
156,76,84422,6,0,P|220:64|272:88,1,120,2|2,0:0|0:0,0:0:0:0:
360,140,85422,2,0,P|340:170|292:190,1,90,2|2,0:0|0:0,0:0:0:0:
156,200,86422,2,0,P|124:213|111:233,2,60,2|0|2,0:0|0:0|0:0,0:0:0:0:
220,288,87422,2,0,P|256:308|316:308,1,90,2|2,0:0|0:0,0:0:0:0:
