osu file format v13

[General]
AudioFilename: hRwSLMGq7bSR.128.mp3
AudioLeadIn: 2500
PreviewTime: 40422
Countdown: 0
SampleSet: Soft
StackLeniency: 0.7
Mode: 0
LetterboxInBreaks: 0
WidescreenStoryboard: 0

[Editor]
DistanceSpacing: 2
BeatDivisor: 4
GridSize: 4
TimelineZoom: 1

[Metadata]
Title:Wareta Ringo (TV Size)
TitleUnicode:割れたリンゴ (TV Size)
Artist:Watanabe Saki (Taneda Risa)
ArtistUnicode:渡辺早季(種田梨沙)
Creator:Kin
Version:Hard
Source:Shin Sekai Yori
Tags:Shinsekai ending anime -Kirito -Neipezi Yusuke Kishi A-1 Pictures Sentai Filmworks From the New World
BeatmapID:245413
BeatmapSetID:69551

[Difficulty]
HPDrainRate:5
CircleSize:4
OverallDifficulty:6
ApproachRate:7
SliderMultiplier:1.6
SliderTickRate:1

[Events]
//Background and Video events
0,0,"Shinsekai Yori BG.jpg",0,0
Video,-750,"BGV.flv"
//Break Periods
//Storyboard Layer 0 (Background)
//Storyboard Layer 1 (Fail)
//Storyboard Layer 2 (Pass)
//Storyboard Layer 3 (Foreground)
//Storyboard Sound Samples
//Background Colour Transformations
3,100,163,162,255

[TimingPoints]
-1578,500,4,2,1,50,1,0
36422,-100,4,2,0,50,0,0
40422,-100,4,2,2,60,0,1
78422,-100,4,2,2,50,0,0
80172,-100,4,2,1,5,0,0
80422,-100,4,2,1,50,0,0

[Colours]
Combo1 : 253,77,17
Combo2 : 170,85,0
Combo3 : 193,0,0
Combo4 : 210,210,0

[HitObjects]
268,248,172,6,0,L|268:224,4,20,0|0|0|0|4,0:0|0:0|0:0|0:0|0:0,0:0:0:0:
340,192,672,1,2,0:0:0:0:
220,112,922,1,2,0:0:0:0:
184,120,1047,1,0,0:0:0:0:
160,148,1172,1,2,0:0:0:0:
124,228,1422,2,0,L|100:264,1,40,4|2,0:0|0:0,0:0:0:0:
192,228,1672,2,0,L|220:264,1,40,2|4,0:0|0:0,0:0:0:0:
428,196,2422,5,4,0:0:0:0:
420,192,2672,1,2,0:0:0:0:
328,104,2922,1,2,0:0:0:0:
296,88,3047,1,0,0:0:0:0:
264,104,3172,1,2,0:0:0:0:
196,156,3422,2,0,L|160:184,1,40,4|2,0:0|0:0,0:0:0:0:
232,240,3672,2,0,L|263:265,1,40,2|4,0:0|0:0,0:0:0:0:
424,192,4297,6,0,L|456:192,2,20,2|0|4,0:0|0:0|0:0,0:0:0:0:
368,124,4672,1,2,0:0:0:0:
368,260,4922,1,2,0:0:0:0:
348,288,5047,1,0,0:0:0:0:
316,300,5172,1,2,0:0:0:0:
228,300,5422,2,0,L|184:300,1,40,4|2,0:0|0:0,0:0:0:0:
148,228,5672,2,0,L|188:228,1,40,2|4,0:0|0:0,0:0:0:0:
256,64,6297,6,0,L|256:36,2,20,2|0|4,0:0|0:0|0:0,0:0:0:0:
324,120,6672,1,2,0:0:0:0:
188,120,6922,1,2,0:0:0:0:
152,132,7047,1,0,0:0:0:0:
140,164,7172,1,2,0:0:0:0:
128,252,7422,2,0,L|120:300,1,40,4|2,0:0|0:0,0:0:0:0:
196,300,7672,2,0,L|202:260,1,40,2|4,0:0|0:0,0:0:0:0:
420,292,8422,5,4,0:0:0:0:
420,300,8672,1,2,0:0:0:0:
276,196,8922,2,0,L|216:196,2,40,2|0|2,0:0|0:0|0:0,0:0:0:0:
292,108,9422,2,0,L|320:80,1,40,4|2,0:0|0:0,0:0:0:0:
220,108,9672,2,0,L|192:80,1,40,2|4,0:0|0:0,0:0:0:0:
256,292,10422,6,0,L|256:208,1,80,4|2,0:0|0:0,0:0:0:0:
180,252,10922,2,0,L|120:252,2,40,2|0|2,0:0|0:0|0:0,0:0:0:0:
336,252,11422,2,0,L|392:252,1,40,4|2,0:0|0:0,0:0:0:0:
432,172,11672,2,0,L|368:172,1,40,2|4,0:0|0:0,0:0:0:0:
256,60,12297,6,0,L|256:40,2,20,0|0|4,0:0|0:0|0:0,0:0:0:0:
200,128,12672,1,2,0:0:0:0:
256,196,12922,2,0,L|288:236,2,40,2|0|2,0:0|0:0|0:0,0:0:0:0:
144,60,13422,2,0,L|119:28,1,40,4|2,0:0|0:0,0:0:0:0:
32,32,13672,2,0,L|56:63,1,40,2|4,0:0|0:0,0:0:0:0:
192,236,14422,6,0,P|236:258|295:236,2,80,4|2|2,0:0|0:0|0:0,0:0:0:0:
164,216,15047,1,0,0:0:0:0:
132,204,15172,1,2,0:0:0:0:
52,172,15422,2,0,L|0:160,1,40,4|2,0:0|0:0,0:0:0:0:
48,96,15672,2,0,L|100:108,1,40,2|4,0:0|0:0,0:0:0:0:
307,105,16172,6,0,L|326:100,4,20,2|0|0|0|4,0:0|0:0|0:0|0:0|0:0,0:0:0:0:
232,152,16672,2,0,B|256:188|288:192|328:188,1,80,2|2,0:0|0:0,0:0:0:0:
336,184,17047,1,0,0:0:0:0:
368,204,17172,1,2,0:0:0:0:
428,268,17422,2,0,B|440:284|440:312|440:312,1,40,4|2,0:0|0:0,0:0:0:0:
380,344,17672,2,0,B|368:328|368:300|368:300,1,40,2|4,0:0|0:0,0:0:0:0:
384,132,18297,6,0,L|398:105,2,20,2|0|4,0:0|0:0|0:0,0:0:0:0:
336,204,18672,1,2,0:0:0:0:
292,280,18922,1,2,0:0:0:0:
268,304,19047,1,0,0:0:0:0:
232,308,19172,1,2,0:0:0:0:
144,296,19422,2,0,B|125:289|109:266|109:266,1,40,4|2,0:0|0:0,0:0:0:0:
140,204,19672,2,0,B|158:210|174:233|174:233,1,40,2|4,0:0|0:0,0:0:0:0:
308,120,20297,6,0,L|299:86,2,20,2|0|4,0:0|0:0|0:0,0:0:0:0:
340,204,20672,1,2,0:0:0:0:
412,156,20922,2,0,P|384:128|348:124,2,40,2|0|2,0:0|0:0|0:0,0:0:0:0:
408,244,21422,2,0,P|380:272|344:276,1,40,4|2,0:0|0:0,0:0:0:0:
273,244,21672,2,0,P|300:272|336:276,1,40,2|4,0:0|0:0,0:0:0:0:
340,56,22422,6,0,L|340:148,1,80,4|2,0:0|0:0,0:0:0:0:
256,160,22922,2,0,L|196:180,1,40,2|0,0:0|0:0,0:0:0:0:
176,188,23172,1,2,0:0:0:0:
112,248,23422,2,0,P|140:272|168:272,1,40,4|2,0:0|0:0,0:0:0:0:
128,344,23672,2,0,P|164:344|186:326,1,40,2|4,0:0|0:0,0:0:0:0:
360,240,24422,6,0,P|404:168|396:128,2,120,4|0|0,0:0|0:0|0:0,0:0:0:0:
316,164,25422,1,0,0:0:0:0:
236,132,25672,1,2,0:0:0:0:
152,232,26047,2,0,L|120:276,1,40,0|2,0:0|0:0,0:0:0:0:
212,288,26297,1,2,0:0:0:0:
212,288,26422,2,0,P|252:336|328:336,2,120,4|0|0,0:0|0:0|0:0,0:0:0:0:
300,256,27422,1,0,0:0:0:0:
388,256,27672,1,2,0:0:0:0:
132,192,28422,6,0,P|104:148|128:72,2,120,4|0|0,0:0|0:0|0:0,0:0:0:0:
192,128,29422,2,0,P|220:176|212:224,1,80,0|2,0:0|0:0,0:0:0:0:
216,332,30047,2,0,L|176:332,1,40,0|2,0:0|0:0,0:0:0:0:
104,328,30297,1,2,0:0:0:0:
104,328,30422,2,0,B|116:260|185:261|185:261|219:261,2,120,4|0|0,0:0|0:0|0:0,0:0:0:0:
52,256,31422,2,0,P|88:216|136:196,1,80,0|2,0:0|0:0,0:0:0:0:
368,140,32422,6,0,P|396:88|376:20,2,120,4|0|0,0:0|0:0|0:0,0:0:0:0:
308,76,33422,1,0,0:0:0:0:
248,140,33672,1,2,0:0:0:0:
132,76,34047,2,0,L|104:104,1,40,0|2,0:0|0:0,0:0:0:0:
104,180,34297,1,2,0:0:0:0:
104,180,34422,2,0,P|48:160|28:104,2,120,4|0|0,0:0|0:0|0:0,0:0:0:0:
188,156,35422,2,0,P|192:208|164:244,1,80,0|2,0:0|0:0,0:0:0:0:
256,272,35922,1,0,0:0:0:0:
412,192,36422,5,4,0:0:0:0:
336,144,36672,2,0,P|364:116|408:104,1,80
480,64,37172,2,0,P|464:44|440:32,2,40,0|0|2,0:0|0:0|0:0,0:0:0:0:
476,152,37672,2,0,P|448:180|404:192,1,80
368,208,38047,2,0,B|344:216|344:216|332:236,1,40,0|2,0:0|0:0,0:0:0:0:
368,300,38297,2,0,B|392:292|392:292|404:272,1,40,2|4,0:0|0:0,0:0:0:0:
127,152,39422,6,0,L|87:158,1,40,2|0,0:0|0:0,0:0:0:0:
99,83,39672,2,2,L|138:76,1,40
200,120,39922,2,0,L|239:126,3,40,2|0|0|0,0:0|0:0|0:0|0:0,0:0:0:0:
284,136,40422,5,2,0:0:0:0:
312,220,40672,1,2,0:0:0:0:
400,208,40922,2,0,B|436:248|436:248|392:304,1,120,8|0,0:0|0:0,0:0:0:0:
372,328,41422,2,0,B|344:360|344:360|300:360,1,80,2|0,0:0|0:0,0:0:0:0:
256,288,41922,1,8,0:0:0:0:
211,211,42172,1,2,0:0:0:0:
168,288,42422,1,2,0:0:0:0:
255,135,42922,1,8,0:0:0:0:
343,287,43422,1,2,0:0:0:0:
168,288,43922,1,8,0:0:0:0:
320,199,44422,5,2,0:0:0:0:
396,156,44672,2,0,B|432:132|432:132|432:92,1,80,2|8,0:0|0:0,0:0:0:0:
352,56,45172,2,0,P|364:32|396:20,2,40,0|8|2,0:0|0:0|0:0,0:0:0:0:
256,144,45672,1,2,0:0:0:0:
160,56,45922,1,8,0:0:0:0:
188,228,46422,2,0,P|256:264|324:228,1,160,2|8,0:0|0:0,0:0:0:0:
388,168,47172,2,0,B|404:156|404:156|424:152,2,40,0|8|2,0:0|0:0|0:0,0:0:0:0:
472,100,47672,2,0,B|472:144|472:144|496:184,2,80,2|8|2,0:0|0:0|0:0,0:0:0:0:
436,20,48422,6,0,B|400:40|392:76|392:76|324:76,1,120,6|0,0:0|0:0,0:0:0:0:
308,76,48922,2,0,B|268:76|268:76|216:116,1,80,8|0,0:0|0:0,0:0:0:0:
212,128,49297,1,2,0:0:0:0:
212,256,49547,2,0,L|212:212,1,40,0|2,0:0|0:0,0:0:0:0:
176,328,49922,2,0,B|212:308|212:308|248:328,1,80,8|2,0:0|0:0,0:0:0:0:
328,292,50422,2,0,B|284:264|284:264|284:196,1,120,2|0,0:0|0:0,0:0:0:0:
246,135,50922,2,0,B|286:147|286:147|326:135,1,80,8|0,0:0|0:0,0:0:0:0:
384,173,51297,2,0,B|372:133|372:133|384:93,1,80,2|0,0:0|0:0,0:0:0:0:
400,64,51672,2,0,B|416:28|416:28|464:28,2,80,2|8|2,0:0|0:0|0:0,0:0:0:0:
328,28,52422,6,0,B|312:64|312:64|272:64,1,80,2|0,0:0|0:0,0:0:0:0:
224,140,52922,1,8,0:0:0:0:
272,212,53172,2,0,L|312:256,2,40,0|8|2,0:0|0:0|0:0,0:0:0:0:
372,236,53672,2,0,P|352:292|324:308,1,80,2|8,0:0|0:0,0:0:0:0:
163,345,54422,1,2,0:0:0:0:
18,244,54922,1,8,0:0:0:0:
70,76,55422,1,2,0:0:0:0:
244,73,55922,1,8,0:0:0:0:
303,238,56422,5,6,0:0:0:0:
240,300,56672,1,2,0:0:0:0:
177,238,56922,2,0,B|151:212|151:212|162:189|151:150,1,80,8|0,0:0|0:0,0:0:0:0:
86,187,57297,2,0,B|64:236|112:276|112:276,1,80,2|0,0:0|0:0,0:0:0:0:
124,288,57672,1,2,0:0:0:0:
232,184,57922,1,8,0:0:0:0:
296,124,58172,2,0,P|312:112|336:108,2,40,0|8|2,0:0|0:0|0:0,0:0:0:0:
396,72,58672,2,0,B|376:108|376:108|400:144,1,80,2|8,0:0|0:0,0:0:0:0:
452,208,59172,2,0,L|484:248,1,40,0|2,0:0|0:0,0:0:0:0:
316,236,59547,2,0,L|341:205,1,40,0|2,0:0|0:0,0:0:0:0:
365,289,59922,2,0,P|297:305|245:233,1,160,8|2,0:0|0:0,0:0:0:0:
216,160,60672,6,0,P|200:124|148:104,2,80,0|8|0,0:0|0:0|0:0,0:0:0:0:
148,172,61297,2,0,B|112:192|112:192|76:172,1,80,2|0,0:0|0:0,0:0:0:0:
16,136,61672,2,0,B|34:169|34:169|14:205,1,80,2|8,0:0|0:0,0:0:0:0:
80,264,62172,2,0,L|120:296,2,40,0|8|2,0:0|0:0|0:0,0:0:0:0:
140,372,62672,2,0,B|142:352|142:352|164:340|173:321|173:321|190:321,1,80,2|8,0:0|0:0,0:0:0:0:
276,332,63172,2,0,L|324:360,1,40,0|2,0:0|0:0,0:0:0:0:
316,224,63547,2,0,L|277:234,1,40,0|2,0:0|0:0,0:0:0:0:
396,284,63922,1,8,0:0:0:0:
220,280,64422,6,0,B|140:280|140:280|112:240,1,120,6|0,0:0|0:0,0:0:0:0:
96,216,64922,2,0,B|76:180|76:180|96:144,1,80,8|0,0:0|0:0,0:0:0:0:
104,72,65297,2,0,P|128:108|176:112,1,80,2|0,0:0|0:0,0:0:0:0:
200,116,65672,1,2,0:0:0:0:
256,48,65922,1,8,0:0:0:0:
432,48,66422,1,2,0:0:0:0:
432,224,66922,1,8,0:0:0:0:
256,224,67422,1,2,0:0:0:0:
256,48,67922,1,8,0:0:0:0:
108,140,68422,6,0,L|188:140,2,80,2|2|8,0:0|0:0|0:0,0:0:0:0:
56,68,69172,2,0,P|88:56|120:56,1,40,0|2,0:0|0:0,0:0:0:0:
93,224,69547,2,0,P|87:224|56:212,1,40,0|2,0:0|0:0,0:0:0:0:
104,300,69922,2,0,B|124:264|124:264|168:260,1,80,8|2,0:0|0:0,0:0:0:0:
248,248,70422,2,0,B|328:240|328:240|340:280|388:296,1,160,2|8,0:0|0:0,0:0:0:0:
408,212,71172,2,0,L|444:176,2,40,0|8|2,0:0|0:0|0:0,0:0:0:0:
296,348,71672,1,2,0:0:0:0:
184,212,71922,1,8,0:0:0:0:
296,76,72422,5,6,0:0:0:0:
376,108,72672,2,0,B|396:64|360:20,2,80,2|8|0,0:0|0:0|0:0,0:0:0:0:
360,140,73297,2,0,B|340:176|340:176|344:224,1,80,2|0,0:0|0:0,0:0:0:0:
348,252,73672,1,2,0:0:0:0:
436,308,73922,2,0,B|396:314|358:295|358:295|334:331|296:345,1,160,8|2,0:0|0:0,0:0:0:0:
256,172,74672,1,2,0:0:0:0:
214,345,74922,1,8,0:0:0:0:
148,288,75172,2,0,L|108:248,2,40,0|8|2,0:0|0:0|0:0,0:0:0:0:
52,232,75672,2,0,B|92:220|92:220|120:168,1,80,2|8,0:0|0:0,0:0:0:0:
172,124,76172,1,2,0:0:0:0:
256,92,76422,5,2,0:0:0:0:
312,160,76672,2,0,B|340:188|340:188|380:188,1,80,2|8,0:0|0:0,0:0:0:0:
448,244,77172,2,0,P|416:268|388:264,1,40,0|2,0:0|0:0,0:0:0:0:
448,132,77547,2,0,P|416:107|388:111,1,40,0|2,0:0|0:0,0:0:0:0:
380,188,77922,1,8,0:0:0:0:
320,252,78172,1,2,0:0:0:0:
260,188,78422,1,4,0:0:0:0:
256,192,78547,12,0,80172,0:0:0:0:
256,112,80422,5,2,0:0:0:0:
256,120,80672,1,2,0:0:0:0:
296,200,80922,2,0,P|316:220|344:224,2,40,0|2|2,0:0|0:0|0:0,0:0:0:0:
400,220,81422,2,0,B|368:244|368:244|364:296,1,80,2|0,0:0|0:0,0:0:0:0:
360,320,81797,1,2,0:0:0:0:
156,240,82422,5,2,0:0:0:0:
148,236,82672,1,2,0:0:0:0:
80,184,82922,2,0,P|56:156|52:128,2,40,0|2|2,0:0|0:0|0:0,0:0:0:0:
144,124,83422,2,0,L|172:96,1,40,0|2,0:0|0:0,0:0:0:0:
300,124,83672,2,0,L|272:96,1,40,2|0,0:0|0:0,0:0:0:0:
222,264,84297,6,2,L|222:288,2,20
184,348,84672,2,0,B|224:332|224:332|264:348,1,80,2|0,0:0|0:0,0:0:0:0:
296,344,85047,2,2,L|344:328,1,40
380,256,85422,2,0,L|380:208,1,40,0|2,0:0|0:0,0:0:0:0:
324,116,85672,2,0,L|324:156,1,40,0|2,0:0|0:0,0:0:0:0:
164,196,86422,5,2,0:0:0:0:
156,196,86672,1,2,0:0:0:0:
68,196,86922,2,0,L|20:196,2,40,0|2|0,0:0|0:0|0:0,0:0:0:0:
104,116,87422,2,0,L|148:116,1,40,0|2,0:0|0:0,0:0:0:0:
144,272,87672,2,0,L|104:272,1,40,0|2,0:0|0:0,0:0:0:0:
