osu file format v12

[General]
AudioFilename: hRwSLMGq7bSR.128.mp3
AudioLeadIn: 2500
PreviewTime: 40422
Countdown: 0
SampleSet: Soft
StackLeniency: 0.7
Mode: 0
LetterboxInBreaks: 0
WidescreenStoryboard: 0

[Editor]
DistanceSpacing: 1
BeatDivisor: 4
GridSize: 4

[Metadata]
Title:Wareta Ringo (TV Size)
TitleUnicode:割れたリンゴ (TV Size)
Artist:Watanabe Saki (Taneda Risa)
ArtistUnicode:渡辺早季(種田梨沙)
Creator:Kin
Version:Easy
Source:Shin Sekai Yori
Tags:Shinsekai ending anime -Kirito -Neipezi Yusuke Kishi A-1 Pictures Sentai Filmworks From the New World
BeatmapID:245412
BeatmapSetID:69551

[Difficulty]
HPDrainRate:3
CircleSize:3
OverallDifficulty:3
ApproachRate:4
SliderMultiplier:0.8
SliderTickRate:1

[Events]
//Background and Video events
0,0,"Shinsekai Yori BG.jpg",0,0
Video,-750,"BGV.flv"
//Break Periods
//Storyboard Layer 0 (Background)
//Storyboard Layer 1 (Fail)
//Storyboard Layer 2 (Pass)
//Storyboard Layer 3 (Foreground)
//Storyboard Sound Samples
//Background Colour Transformations
3,100,163,162,255

[TimingPoints]
-1578,500,4,2,1,50,1,0
38422,-100,4,2,0,50,0,0
40422,-100,4,2,2,60,0,1
78422,-100,4,2,2,60,0,0
78797,-100,4,2,1,5,0,0
80422,-100,4,2,1,50,0,0

[Colours]
Combo1 : 253,77,17
Combo2 : 170,85,0
Combo3 : 193,0,0
Combo4 : 210,210,0

[HitObjects]
112,312,172,2,0,B|96:276|96:276|124:184,1,120
148,124,1422,2,0,P|164:100|196:80,1,60,4|4,0:0|0:0,0:0:0:0:
236,172,2422,2,0,P|252:184|284:183,2,40,4|0|2,0:0|0:0|0:0,0:0:0:0:
164,208,3422,2,0,P|184:232|220:256,1,60,4|4,0:0|0:0,0:0:0:0:
300,288,4422,6,0,B|340:296|340:296|392:268,1,80,4|0,0:0|0:0,0:0:0:0:
448,244,5422,2,0,P|492:228|508:212,1,60,4|4,0:0|0:0,0:0:0:0:
436,144,6422,2,0,B|416:147|416:147|396:144,2,40,4|2|0,0:0|0:0|0:0,0:0:0:0:
456,64,7422,2,0,B|416:68|416:68|384:64,1,60,4|4,0:0|0:0,0:0:0:0:
300,44,8422,6,0,P|248:36|204:52,1,80,4|0,0:0|0:0,0:0:0:0:
152,80,9422,1,4,0:0:0:0:
112,236,10422,2,0,P|163:244|207:228,1,80,4|0,0:0|0:0,0:0:0:0:
260,200,11422,1,4,0:0:0:0:
404,128,12422,5,4,0:0:0:0:
448,196,12922,1,0,0:0:0:0:
405,262,13422,1,4,0:0:0:0:
108,128,14422,5,4,0:0:0:0:
64,196,14922,1,0,0:0:0:0:
107,262,15422,1,4,0:0:0:0:
380,204,16422,6,0,P|424:192|476:220,1,80,4|0,0:0|0:0,0:0:0:0:
420,276,17422,1,4,0:0:0:0:
268,324,18422,2,0,P|224:336|176:316,1,80,4|0,0:0|0:0,0:0:0:0:
120,288,19422,1,4,0:0:0:0:
224,164,20422,6,0,B|192:136|192:136|148:132,2,80,4|0|4,0:0|0:0|0:0,0:0:0:0:
356,256,22422,2,0,B|388:284|388:284|432:288,2,80,4|0|4,0:0|0:0|0:0,0:0:0:0:
452,128,24422,6,0,P|436:92|410:64,2,60,4|0|2,0:0|0:0|0:0,0:0:0:0:
372,144,25672,2,0,P|260:76|144:156,1,280
116,308,28422,6,0,P|120:348|140:380,2,60,4|0|2,0:0|0:0|0:0,0:0:0:0:
196,320,29672,1,2,0:0:0:0:
316,304,30422,2,0,P|355:298|387:277,2,60,4|0|2,0:0|0:0|0:0,0:0:0:0:
324,224,31672,1,2,0:0:0:0:
328,104,32422,6,0,P|296:64|276:52,2,60,4|0|2,0:0|0:0|0:0,0:0:0:0:
256,136,33672,2,0,P|144:136|208:248,1,280,2|0,0:0|0:0,0:0:0:0:
256,192,36422,12,4,38422,0:0:0:0:
256,152,40422,5,6,0:0:0:0:
288,80,40922,2,0,P|332:124|304:214,1,160,8|8,0:0|0:0,0:0:0:0:
248,260,42422,1,2,0:0:0:0:
192,204,42922,2,0,P|172:291|216:335,1,160,8|8,0:0|0:0,0:0:0:0:
296,348,44422,5,2,0:0:0:0:
376,336,44922,2,0,P|420:292|400:204,1,160,8|8,0:0|0:0,0:0:0:0:
345,262,46421,1,2,0:0:0:0:
280,216,46922,2,0,P|260:128|304:82,1,160,8|8,0:0|0:0,0:0:0:0:
335,157,48422,5,6,0:0:0:0:
388,96,48922,2,0,B|424:136|408:184|408:184|488:216,1,160,8|8,0:0|0:0,0:0:0:0:
444,284,50422,2,0,B|372:256|372:256|344:296|284:284,1,160,2|2,0:0|0:0,0:0:0:0:
309,207,51922,1,8,0:0:0:0:
232,228,52422,6,0,P|260:144|333:130,1,160,2|2,0:0|0:0,0:0:0:0:
400,144,53922,2,0,B|412:84|352:48,1,80,8|2,0:0|0:0,0:0:0:0:
304,48,54922,1,8,0:0:0:0:
224,52,55422,2,0,B|144:56|144:56|88:112,1,160,2|6,0:0|0:0,0:0:0:0:
40,180,56922,5,8,0:0:0:0:
92,240,57422,2,0,B|148:296|148:296|232:308,1,160,2|2,0:0|0:0,0:0:0:0:
296,352,58922,2,0,P|308:292|236:228,1,160,8|8,0:0|0:0,0:0:0:0:
164,220,60422,5,2,0:0:0:0:
84,212,60922,2,8,B|96:148|156:140|156:140|196:92,1,160
244,44,62422,1,2,0:0:0:0:
299,101,62922,2,8,B|330:139|330:139|390:147|402:211,1,160,8|8,0:0|0:0,0:0:0:0:
322,219,64422,5,6,0:0:0:0:
360,288,64922,2,8,P|300:296|244:208,1,160
228,144,66422,1,2,0:0:0:0:
272,76,66922,2,8,B|308:104|308:144|308:144|392:144,1,160
468,144,68422,5,2,0:0:0:0:
428,212,68922,2,8,B|400:248|360:248|360:248|268:248,1,160
200,248,70422,1,2,0:0:0:0:
196,168,70922,2,0,P|128:216|132:288,1,160,8|8,0:0|0:0,0:0:0:0:
180,352,72422,5,6,0:0:0:0:
252,312,72922,2,8,B|292:288|328:312|328:312|368:336|402:312,1,160
456,252,74422,1,2,0:0:0:0:
404,192,74922,2,8,B|364:168|328:192|328:192|288:216|252:192,1,160
184,152,76422,5,2,0:0:0:0:
124,204,76922,2,0,P|104:148|176:72,1,160,8|8,0:0|0:0,0:0:0:0:
240,80,78422,1,4,0:0:0:0:
256,264,80422,6,0,B|280:260|296:248|296:248|344:252,1,80,2|2,0:0|0:0,0:0:0:0:
352,172,81422,2,0,B|312:168|312:168|288:156,1,60,2|2,0:0|0:0,0:0:0:0:
212,104,82422,2,0,L|236:64,2,40,2|0|2,0:0|0:0|0:0,0:0:0:0:
168,172,83422,2,0,B|144:208|144:208|144:236,1,60,2|2,0:0|0:0,0:0:0:0:
220,292,84422,6,0,B|240:308|268:308|268:308|304:308,1,80,2|2,0:0|0:0,0:0:0:0:
368,268,85422,2,0,P|384:240|384:212,1,60,2|2,0:0|0:0,0:0:0:0:
336,124,86422,2,0,P|352:100|376:84,2,40,2|0|2,0:0|0:0|0:0,0:0:0:0:
300,196,87422,2,0,P|276:220|240:232,1,60,2|2,0:0|0:0,0:0:0:0:
