osu file format v10

[General]
AudioFilename: Watanabe Saki (Taneda Risa) - Wareta Ringo (TV Size).mp3
AudioLeadIn: 500
PreviewTime: 40665
Countdown: 0
SampleSet: Normal
StackLeniency: 0.7
Mode: 0
LetterboxInBreaks: 0

[Editor]
DistanceSpacing: 0.7
BeatDivisor: 4
GridSize: 8

[Metadata]
Title:Wareta Ringo (TV Size)
TitleUnicode:割れたリンゴ
Artist:Watanabe Saki (Taneda Risa)
ArtistUnicode:渡辺早季(種田梨沙)
Creator:Colin Hou
Version:Easy
Source:From the New World
Tags:Asahina Satoru Aonema Shun Akizuki Maria Itou Mamoru Kishi Yuusuke Inaba Emi OZA Ozaki Sakara Shin Sekai yori
BeatmapID:191835
BeatmapSetID:65387

[Difficulty]
HPDrainRate:2
CircleSize:3
OverallDifficulty:2
ApproachRate:3
SliderMultiplier:1
SliderTickRate:1

[Events]
//Background and Video events
Video,-62,"BGV.flv"
0,0,"BG.jpg"
//Break Periods
//Storyboard Layer 0 (Background)
//Storyboard Layer 1 (Fail)
//Storyboard Layer 2 (Pass)
//Storyboard Layer 3 (Foreground)
//Storyboard Sound Samples
//Background Colour Transformations
3,100,54,54,54

[TimingPoints]
1915,500,4,1,1,30,1,0
9915,-100,4,1,1,40,0,0
19415,-100,4,2,1,20,0,0
19915,-100,4,1,1,40,0,0
21415,-100,4,2,1,20,0,0
21665,-100,4,1,1,40,0,0
25915,-100,4,1,2,40,0,0
26040,-100,4,2,1,35,0,0
27665,-100,4,1,2,30,0,0
27915,-100,4,1,2,40,0,0
28040,-100,4,2,1,35,0,0
29915,-100,4,1,2,40,0,0
30040,-100,4,2,1,35,0,0
31665,-100,4,1,2,30,0,0
31915,-100,4,1,2,40,0,0
32040,-100,4,2,1,35,0,0
33915,-100,4,1,2,40,0,0
34040,-100,4,2,1,35,0,0
35665,-100,4,1,2,30,0,0
35915,-100,4,1,2,40,0,0
36040,-100,4,2,1,35,0,0
37915,-100,4,1,2,40,0,0
38040,-100,4,2,1,35,0,0
39915,-100,4,1,2,40,0,0
41915,-100,4,1,1,50,0,1
49790,-100,4,1,1,50,0,0
49915,-100,4,1,1,50,0,1
57790,-100,4,1,1,45,0,0
57915,-100,4,1,1,50,0,1
65790,-100,4,1,1,50,0,0
65915,-100,4,1,1,50,0,1
73790,-100,4,1,1,50,0,0
73915,-100,4,1,1,50,0,1
79852,-100,4,1,1,50,0,0
79915,-100,4,1,1,50,0,1
79977,-100,4,1,1,45,0,0
80665,-100,4,1,1,30,0,0
81915,-100,4,1,1,25,0,0
87915,-100,4,1,1,20,0,0
88915,-100,4,1,1,15,0,0
89290,-100,4,1,1,10,0,0

[Colours]
Combo1 : 233,73,213
Combo2 : 5,84,148
Combo3 : 54,125,129
Combo4 : 181,179,253
Combo5 : 165,91,247
Combo6 : 249,72,121
Combo7 : 238,230,68
Combo8 : 85,238,226

[HitObjects]
383,107,1915,2,0,P|388:161|388:206,1,100,8|0,0:0|0:0,0:0:0
289,227,2915,2,0,P|291:271|296:304,1,75,8|8,0:0|0:0,0:0:0
177,259,3915,6,0,P|163:303|159:324,2,50,8|0|0,0:0|0:0|0:0,0:0:0
199,161,4915,2,0,P|153:168|118:168,1,75,8|8,0:0|0:0,0:0:0
37,78,5915,5,8,0:0:0
136,75,6415,1,0,0:0:0
231,43,6915,2,0,P|277:56|319:62,1,75,8|8,0:0|0:0,0:0:0
347,177,7915,6,0,P|390:172|416:169,2,50,8|0|0,0:0|0:0|0:0,0:0:0
392,266,8915,2,0,P|348:284|306:291,1,75,8|8,0:0|0:0,0:0:0
205,271,9915,70,0,P|176:308|125:329,2,100,8|0|8,0:0|0:0|0:0,0:0:0
344,127,11915,5,8,0:0:0
423,188,12415,1,0,0:0:0
331,227,12915,1,8,0:0:0
157,127,13915,5,8,0:0:0
71,179,14415,2,0,P|116:221|156:230,1,100,0|8,0:0|0:0,0:0:0
316,115,15915,6,0,P|345:64,2,50,8|0|0,0:0|0:0|0:0,0:0:0
272,204,16915,1,8,0:0:0
88,284,17915,70,0,P|76:235,1,50,8|0,0:0|0:0,0:0:0
107,196,18415,2,0,P|82:94,1,100,0|8,0:0|0:0,0:0:0
189,99,19415,1,2,0:0:0
278,57,19915,6,0,P|287:109,1,50,8|0,0:0|0:0,0:0:0
331,128,20415,2,0,P|347:230,1,100,0|8,0:0|0:0,0:0:0
263,294,21415,1,2,0:0:0
156,289,21915,6,0,P|96:321|58:316,1,100,8|0,0:0|0:0,0:0:0
30,283,22665,2,0,P|38:230,1,50,0|8,0:0|0:0,0:0:0
130,56,23915,6,0,P|141:84|146:115,1,50,8|0,0:0|0:0,0:0:0
141,153,24415,2,0,P|144:172|155:200,2,50,0|0|8,0:0|0:0|0:0,0:0:0
337,114,25915,70,0,P|380:114|419:105,2,75,8|0|0,0:0|0:0|0:0,0:0:0
253,58,27165,1,0,0:0:0
182,129,27665,1,8,0:0:0
151,175,27915,6,0,P|112:182|74:185,2,75,8|0|0,0:0|0:0|0:0,0:0:0
259,191,29165,1,0,0:0:0
208,277,29665,1,0,0:0:0
160,304,29915,6,0,P|169:347|178:382,2,75,8|0|0,0:0|0:0|0:0,0:0:0
146,197,31165,1,0,0:0:0
193,109,31665,1,8,0:0:0
246,96,31915,6,0,P|249:57|256:16,2,75,8|0|0,0:0|0:0|0:0,0:0:0
241,196,33165,1,0,0:0:0
365,112,33915,70,0,P|400:124|442:127,2,75,8|0|0,0:0|0:0|0:0,0:0:0
301,34,35165,1,0,0:0:0
211,79,35665,1,8,0:0:0
189,129,35915,6,0,P|104:135,2,75,8|0|0,0:0|0:0|0:0,0:0:0
267,205,37165,2,0,P|320:200,2,50
217,215,37915,2,0,P|196:292|230:352,2,150,8|0|0,0:0|0:0|0:0,0:0:0
294,278,39915,5,8,0:0:0
123,82,41915,22,0,P|92:129|96:183,1,100,12|10,0:0|0:0,0:0:0
172,150,42790,2,0,P|247:156,1,75,8|8,0:0|0:0,0:0:0
278,111,43415,2,0,P|344:119|390:116,1,100,2|8,0:0|0:0,0:0:0
473,171,44415,5,10,0:0:0
442,276,44915,1,0,0:0:0
332,269,45415,1,2,0:0:0
307,161,45915,6,0,P|247:170|205:187,1,100,8|2,0:0|0:0,0:0:0
175,258,46790,2,0,P|115:263|81:260,1,75,8|8,0:0|0:0,0:0:0
57,228,47415,2,0,P|51:166|47:116,1,100,2|8,0:0|0:0,0:0:0
129,54,48415,5,2,0:0:0
212,126,48915,1,0,0:0:0
309,75,49415,1,2,0:0:0
404,129,49915,70,0,P|404:192|408:251,1,100,12|2,0:0|0:0,0:0:0
324,239,50790,2,0,P|326:324,1,75,8|8,0:0|0:0,0:0:0
288,354,51415,1,2,0:0:0
191,300,51915,5,8,0:0:0
84,326,52415,1,2,0:0:0
48,221,52915,1,0,0:0:0
154,192,53415,1,2,0:0:0
260,164,53915,6,0,P|340:174|372:176,1,100,8|2,0:0|0:0,0:0:0
438,151,54790,2,0,P|434:91|428:68,1,75,8|8,0:0|0:0,0:0:0
394,35,55415,1,2,0:0:0
284,37,55915,6,0,P|259:84|264:141,1,100,8|2,0:0|0:0,0:0:0
369,119,56915,2,0,P|397:172|392:211,1,100,0|2,0:0|0:0,0:0:0
304,275,57915,70,0,P|241:264|205:264,1,100,12|2,0:0|0:0,0:0:0
129,297,58790,2,0,P|119:239|113:209,1,75,8|8,0:0|0:0,0:0:0
85,176,59415,1,2,0:0:0
130,76,59915,5,8,0:0:0
215,145,60415,1,2,0:0:0
297,71,60915,2,0,P|328:72|402:79,1,100,0|2,0:0|0:0,0:0:0
480,149,61915,6,0,P|434:184|391:186,1,100,8|2,0:0|0:0,0:0:0
317,153,62790,2,0,P|311:203|307:244,1,75,8|8,0:0|0:0,0:0:0
285,277,63415,1,2,0:0:0
188,224,63915,6,0,P|176:277|149:312,2,100,8|2|0,0:0|0:0|0:0,0:0:0
261,142,65415,1,2,0:0:0
159,99,65915,70,0,P|191:52|236:38,1,100,12|2,0:0|0:0,0:0:0
307,67,66790,2,0,P|361:61|395:63,1,75,8|8,0:0|0:0,0:0:0
426,68,67415,1,2,0:0:0
413,176,67915,5,8,0:0:0
436,283,68415,1,2,0:0:0
334,240,68915,1,0,0:0:0
236,189,69415,1,2,0:0:0
240,298,69915,6,0,P|184:304|130:303,1,100,8|2,0:0|0:0,0:0:0
63,275,70790,2,0,P|80:213|86:191,1,75,8|8,0:0|0:0,0:0:0
99,149,71415,1,2,0:0:0
189,87,71915,6,0,P|231:116|245:166,1,100,8|2,0:0|0:0,0:0:0
355,161,72915,2,0,P|350:211|314:248,1,100,0|2,0:0|0:0,0:0:0
212,217,73915,70,0,P|134:232,2,75,12|0|0,0:0|0:0|0:0,0:0:0
267,122,75165,2,0,P|320:131,1,50,8|2,0:0|0:0,0:0:0
381,218,75915,6,0,P|427:201|484:199,1,100,8|2,0:0|0:0,0:0:0
442,284,76790,2,0,P|396:311|368:312,1,75,8|8,0:0|0:0,0:0:0
326,286,77415,1,2,0:0:0
241,215,77915,6,0,P|220:266|212:296,2,75,8|0|0,0:0|0:0|0:0,0:0:0
335,158,79165,2,0,P|318:111,1,50,8|2,0:0|0:0,0:0:0
232,41,79915,5,12,0:0:0
256,192,80040,12,0,81915,0:0:0
198,172,82915,6,0,P|165:211|144:240,1,75,0|0,0:0|0:0,0:0:0
281,273,83915,6,0,P|272:330,2,50
390,271,84915,2,0,P|368:216|360:184,1,75
293,82,85915,6,0,P|262:90|225:96,2,50
391,32,86915,2,0,P|383:81|387:126,1,75
330,232,87915,6,0,P|334:294,2,50
251,154,88915,2,0,P|213:169|172:176,1,75
