osu file format v14

[General]
AudioFilename: WataamefeatIALoveFragmentOriginal[www.MP3Fiber.com].mp3
AudioLeadIn: 0
PreviewTime: 98060
Countdown: 0
SampleSet: Soft
StackLeniency: 0.7
Mode: 0
LetterboxInBreaks: 1
WidescreenStoryboard: 1

[Editor]
DistanceSpacing: 1.1
BeatDivisor: 4
GridSize: 4
TimelineZoom: 1.5

[Metadata]
Title:Love Fragment
TitleUnicode:ラヴ・フラグメント
Artist:Wataame ft. IA
ArtistUnicode:Wataame ft. IA
Creator:Indeed
Version:Insane
Source:
Tags:vocaloid 綿飴
BeatmapID:657874
BeatmapSetID:290805

[Difficulty]
HPDrainRate:7
CircleSize:4
OverallDifficulty:8
ApproachRate:9
SliderMultiplier:1.5
SliderTickRate:1

[Events]
//Background and Video events
0,0,"fragment.jpg",0,0
//Break Periods
2,760,3960
2,4760,7960
2,66760,73710
//Storyboard Layer 0 (Background)
//Storyboard Layer 1 (Fail)
//Storyboard Layer 2 (Pass)
//Storyboard Layer 3 (Foreground)
//Storyboard Sound Samples

[TimingPoints]
560,250,4,1,0,75,1,0
8560,-100,4,1,0,70,0,0
24560,-100,4,2,0,55,0,0
48560,-90.9090909090909,4,1,0,80,0,1
66560,-83.3333333333333,4,2,0,75,0,0
74060,-100,4,2,0,55,0,0
74310,-100,4,2,0,55,0,0
82560,-100,4,2,0,30,0,0
82810,-100,4,2,0,65,0,0
98560,-90.9090909090909,4,1,0,80,0,1
116560,-100,4,2,0,55,0,0
138560,-90.9090909090909,4,1,0,80,0,1
156560,-100,4,2,0,75,0,0

[HitObjects]
136,92,560,5,0,0:0:0:0:
420,144,4560,5,0,0:0:0:0:
304,68,8560,6,0,L|388:68,1,75
460,68,8810,1,0,0:0:0:0:
400,220,9060,2,0,L|320:220,1,75
240,220,9310,1,0,0:0:0:0:
240,220,9435,1,0,0:0:0:0:
168,260,9560,2,0,P|156:213|224:140,1,150
300,124,9935,1,0,0:0:0:0:
240,68,10060,2,0,B|192:40|192:40|140:72|88:52,1,150
101,56,10435,1,0,0:0:0:0:
64,128,10560,6,0,P|48:168|52:204,1,75
60,280,10810,2,0,B|80:316|80:348|80:348|116:332|164:336,1,150
240,332,11185,1,0,0:0:0:0:
320,320,11310,2,0,L|396:312,1,75
356,240,11560,2,0,L|424:204,1,75
360,152,11810,2,0,L|400:80,1,75
396,86,12060,1,0,0:0:0:0:
336,32,12185,5,0,0:0:0:0:
336,32,12247,1,0,0:0:0:0:
336,32,12310,2,0,P|296:72|256:76,1,75
196,76,12560,6,0,L|112:76,1,75
40,76,12810,1,0,0:0:0:0:
108,228,13060,2,0,L|192:228,1,75
264,228,13310,1,0,0:0:0:0:
264,228,13435,1,0,0:0:0:0:
332,272,13560,2,0,B|368:292|368:292|444:296|444:296|476:312,1,150
416,372,13935,1,0,0:0:0:0:
472,312,14060,2,0,P|488:216|456:168,1,150
404,116,14435,1,0,0:0:0:0:
344,60,14560,6,0,P|296:40|268:40,1,75
286,120,14810,2,0,P|249:116|216:100,1,75
172,28,15060,2,0,P|128:88|160:164,1,150
196,224,15435,1,0,0:0:0:0:
256,284,15560,2,0,L|308:344,1,75
200,344,15810,2,0,P|164:332|128:340,1,75
60,296,16060,5,0,0:0:0:0:
144,148,16247,1,0,0:0:0:0:
256,284,16435,1,0,0:0:0:0:
256,284,16497,1,0,0:0:0:0:
256,284,16560,6,0,L|332:248,1,75
396,212,16810,1,0,0:0:0:0:
256,124,17060,2,0,L|184:84,1,75
120,44,17310,1,0,0:0:0:0:
120,44,17435,1,0,0:0:0:0:
72,112,17560,2,0,P|56:156|84:256,1,150
136,316,17935,1,0,0:0:0:0:
216,336,18060,2,0,B|260:344|260:344|308:304|360:308,1,150
440,316,18435,1,0,0:0:0:0:
456,236,18560,6,0,L|472:148,1,75
388,164,18810,2,0,L|392:80,1,75
312,108,19060,2,0,L|296:28,1,75
228,80,19310,2,0,P|216:120|192:144,1,75
144,76,19560,2,0,P|112:148|152:216,1,150
200,264,19935,1,0,0:0:0:0:
220,344,20060,2,0,B|280:340|288:252|352:252,1,150
416,228,20435,1,0,0:0:0:0:
416,228,20497,1,0,0:0:0:0:
416,228,20560,6,0,P|440:176|440:148,1,75
452,76,20810,1,0,0:0:0:0:
292,40,21060,2,0,P|268:92|268:120,1,75
260,192,21310,1,0,0:0:0:0:
260,192,21435,1,0,0:0:0:0:
272,272,21560,2,0,B|284:316|284:316|164:296,1,150
100,284,21935,1,0,0:0:0:0:
20,300,22060,2,0,P|52:220|116:204,1,150
192,200,22435,1,0,0:0:0:0:
160,124,22560,6,0,B|156:84|48:88|36:28,1,150
180,36,22935,1,0,0:0:0:0:
180,36,22997,1,0,0:0:0:0:
180,36,23060,2,0,P|256:48|328:36,1,150
408,20,23435,1,0,0:0:0:0:
408,20,23497,1,0,0:0:0:0:
408,20,23560,2,0,B|432:60|432:60|400:108|424:168,1,150
464,228,23935,1,0,0:0:0:0:
440,308,24060,6,0,P|412:340|380:352,1,75
364,272,24310,2,0,P|329:286|306:315,1,75
228,348,24560,6,0,P|140:348|88:296,1,150
52,240,24935,1,0,0:0:0:0:
52,240,25060,2,0,P|96:228|144:248,1,75
208,240,25310,2,0,L|336:144,1,150
392,96,25685,1,0,0:0:0:0:
368,16,25810,2,0,P|324:40|312:68,1,75
236,88,26060,2,0,P|236:40|248:12,1,75
164,16,26310,1,0,0:0:0:0:
164,16,26435,1,0,0:0:0:0:
148,96,26560,6,0,P|120:172|48:200,1,150
64,116,26935,1,0,0:0:0:0:
64,116,27060,2,0,L|136:184,1,75
184,220,27310,2,0,L|248:276,1,75
280,196,27560,2,0,P|260:160|264:124,1,75
328,76,27810,2,0,P|348:112|344:148,1,75
368,224,28060,2,0,L|408:288,1,75
328,304,28310,2,0,P|284:296|256:304,1,75
176,328,28560,6,0,P|96:328|40:264,1,150
36,200,28935,1,0,0:0:0:0:
116,180,29060,2,0,L|196:160,1,75
260,204,29310,2,0,P|272:148|264:124,1,75
236,56,29560,1,0,0:0:0:0:
236,56,29685,1,0,0:0:0:0:
316,48,29810,2,0,L|392:36,1,75
380,120,30060,2,0,L|464:136,1,75
412,204,30310,2,0,L|484:256,1,75
408,300,30560,6,0,B|360:288|360:288|312:320|256:304,1,150
188,272,30935,1,0,0:0:0:0:
116,312,31060,2,0,P|116:232|176:188,1,150
244,164,31435,1,0,0:0:0:0:
304,108,31560,2,0,L|364:48,1,75
280,28,31810,2,0,P|240:40|200:28,1,75
128,28,32060,5,0,0:0:0:0:
64,80,32185,1,0,0:0:0:0:
128,132,32310,1,0,0:0:0:0:
68,188,32435,1,0,0:0:0:0:
24,256,32560,6,0,P|65:271|102:257,1,75
164,220,32810,1,0,0:0:0:0:
240,188,32935,1,0,0:0:0:0:
304,132,33060,2,0,P|324:176|320:212,2,75
248,72,33435,1,0,0:0:0:0:
168,48,33560,2,0,P|112:44|76:64,1,75
128,132,33810,2,0,P|176:132|204:144,1,75
164,220,34060,2,0,P|112:224|80:244,1,75
144,300,34310,2,0,P|164:336|204:352,1,75
228,276,34560,6,0,L|292:220,2,75
228,276,34935,1,0,0:0:0:0:
280,340,35060,2,0,P|316:320|356:328,1,75
432,336,35310,2,0,P|428:288|404:260,1,75
348,212,35560,1,0,0:0:0:0:
268,196,35685,1,0,0:0:0:0:
188,172,35810,6,0,L|116:128,1,75
188,76,36060,2,0,P|224:84|272:68,1,75
320,16,36310,2,0,P|340:56|332:112,1,75
420,112,36560,2,0,B|392:176|320:168|320:168|344:212,1,150
372,264,36935,1,0,0:0:0:0:
296,292,37060,2,0,B|264:328|176:268|144:312,1,150
84,356,37435,1,0,0:0:0:0:
48,280,37560,6,0,L|8:204,1,75
92,184,37810,2,0,P|136:196|176:188,1,75
212,124,38060,2,0,P|168:112|128:120,1,75
92,184,38310,2,0,P|80:228|88:268,1,75
164,232,38560,6,0,P|176:188|168:148,1,75
128,88,38810,1,0,0:0:0:0:
60,40,38935,1,0,0:0:0:0:
28,116,39060,2,0,L|0:192,1,75
92,184,39310,2,0,P|144:160|168:164,1,75
244,164,39560,2,0,P|328:160|400:120,1,150
432,64,39935,1,0,0:0:0:0:
476,132,40060,6,0,P|492:168|492:208,1,75
412,192,40310,2,0,P|404:240|380:260,1,75
316,304,40560,2,0,B|276:304|276:304|208:336|208:336|164:336,1,150
88,336,40935,1,0,0:0:0:0:
40,268,41060,2,0,P|20:188|44:116,1,150
80,52,41435,1,0,0:0:0:0:
164,52,41560,6,0,P|212:48|244:32,2,75
124,124,41935,1,0,0:0:0:0:
164,196,42060,2,0,L|208:272,1,75
256,196,42310,2,0,P|272:148|296:128,1,75
340,68,42560,2,0,P|320:28|288:12,2,75
364,148,42935,1,0,0:0:0:0:
432,196,43060,2,0,P|472:208|512:200,2,75
356,228,43435,1,0,0:0:0:0:
312,296,43560,6,0,P|240:336|160:320,1,150
100,296,43935,1,0,0:0:0:0:
100,212,44060,2,0,B|100:160|100:160|72:136|68:96|84:64,1,150
160,100,44435,1,0,0:0:0:0:
232,64,44560,6,0,B|280:44|280:44|336:72|388:56,1,150
452,28,44935,1,0,0:0:0:0:
468,108,45060,2,0,B|496:152|436:216|476:264,1,150
492,332,45435,1,0,0:0:0:0:
408,328,45560,2,0,L|316:320,1,75
252,332,45810,2,0,P|260:280|276:260,1,75
320,196,46060,2,0,P|328:156|312:116,1,75
292,44,46310,6,0,P|236:96|244:168,1,150
380,252,46810,2,0,P|386:175|332:127,1,150
176,256,47310,2,0,P|251:266|302:215,1,150
48,48,48060,5,0,0:0:0:0:
48,48,48310,1,0,0:0:0:0:
76,228,48560,6,0,B|116:208|116:208|200:208|200:208|240:184,1,165.000005035401
304,108,48935,1,0,0:0:0:0:
396,56,49060,2,0,P|412:100|400:144,1,82.5000025177003
372,236,49310,2,0,P|360:280|376:324,2,82.5000025177003
468,192,49685,1,0,0:0:0:0:
376,140,49810,2,0,P|288:108|216:136,1,165.000005035401
136,192,50185,1,0,0:0:0:0:
72,276,50310,2,0,L|24:344,1,82.5000025177003
132,336,50560,6,0,P|172:312|212:316,1,82.5000025177003
304,268,50810,2,0,P|316:316|304:352,2,82.5000025177003
248,176,51185,1,0,0:0:0:0:
160,112,51310,2,0,L|92:56,1,82.5000025177003
200,28,51560,2,0,P|240:48|284:48,1,82.5000025177003
384,36,51810,1,0,0:0:0:0:
464,108,51935,1,0,0:0:0:0:
464,108,51997,1,0,0:0:0:0:
464,108,52060,6,0,B|500:148|460:188|420:236|472:280,1,165.000005035401
500,360,52435,1,0,0:0:0:0:
400,324,52560,2,0,P|296:292|244:312,1,165.000005035401
144,344,52935,1,0,0:0:0:0:
96,248,53060,2,0,P|64:200|32:184,1,82.5000025177003
20,84,53310,2,0,P|72:80|104:96,1,82.5000025177003
204,104,53560,2,0,P|192:148|160:176,2,82.5000025177003
204,4,53935,1,0,0:0:0:0:
300,52,54060,6,0,L|376:88,1,82.5000025177003
464,148,54310,2,0,P|424:172|404:208,1,82.5000025177003
368,304,54560,2,0,P|328:332|288:340,1,82.5000025177003
188,352,54810,2,0,P|192:300|212:268,1,82.5000025177003
260,180,55060,1,0,0:0:0:0:
260,180,55185,1,0,0:0:0:0:
180,112,55310,2,0,L|116:60,1,82.5000025177003
84,164,55560,2,0,P|88:208|72:256,1,82.5000025177003
28,340,55810,1,0,0:0:0:0:
132,308,55935,5,0,0:0:0:0:
132,308,55997,1,0,0:0:0:0:
132,308,56060,2,0,P|180:288|220:292,1,82.5000025177003
316,304,56310,2,0,P|372:292|400:268,1,82.5000025177003
488,236,56560,6,0,P|420:180|340:188,1,165.000005035401
252,232,56935,1,0,0:0:0:0:
236,124,57060,2,0,L|224:36,1,82.5000025177003
132,96,57310,2,0,P|128:152|96:188,1,82.5000025177003
52,260,57560,2,0,P|32:300|32:344,2,82.5000025177003
136,328,57935,1,0,0:0:0:0:
244,328,58060,2,0,L|328:328,1,82.5000025177003
432,312,58310,2,0,P|416:264|380:240,1,82.5000025177003
296,196,58560,6,0,P|264:156|256:116,1,82.5000025177003
248,20,58810,1,0,0:0:0:0:
248,20,58935,1,0,0:0:0:0:
152,68,59060,2,0,L|64:128,1,82.5000025177003
52,216,59310,2,0,P|100:220|140:204,1,82.5000025177003
228,164,59560,2,0,P|264:136|312:132,1,82.5000025177003
408,136,59810,1,0,0:0:0:0:
408,136,59935,1,0,0:0:0:0:
480,216,60060,6,0,P|424:244|328:208,1,165.000005035401
244,152,60435,1,0,0:0:0:0:
220,48,60560,2,0,B|164:60|164:148|88:172,1,165.000005035401
8,204,60935,1,0,0:0:0:0:
56,300,61060,2,0,P|88:328|128:336,1,82.5000025177003
144,228,61310,2,0,P|183:236|214:264,1,82.5000025177003
304,324,61560,6,0,P|344:336|388:328,2,82.5000025177003
352,228,61935,1,0,0:0:0:0:
396,128,62060,2,0,L|432:40,1,82.5000025177003
320,56,62310,2,0,P|288:88|244:100,1,82.5000025177003
144,108,62560,2,0,P|72:128|56:144,1,82.5000025177003
136,212,62810,2,0,L|172:296,1,82.5000025177003
256,224,63060,2,0,L|296:144,1,82.5000025177003
368,72,63310,2,0,P|396:116|396:156,1,82.5000025177003
452,240,63560,6,0,P|404:256|368:248,1,82.5000025177003
272,220,63810,1,0,0:0:0:0:
272,220,63935,1,0,0:0:0:0:
208,136,64060,2,0,L|156:56,1,82.5000025177003
92,148,64310,2,0,P|80:192|52:220,1,82.5000025177003
104,316,64560,2,0,P|144:296|184:304,1,82.5000025177003
280,336,64810,2,0,P|284:276|268:248,1,82.5000025177003
216,168,65060,2,0,P|268:148|300:152,1,82.5000025177003
400,176,65310,2,0,P|400:116|388:92,1,82.5000025177003
312,24,65560,5,0,0:0:0:0:
312,24,65685,1,0,0:0:0:0:
216,76,65810,2,0,P|160:96|116:88,1,82.5000025177003
40,48,66060,2,0,P|28:92|36:136,1,82.5000025177003
56,232,66310,1,0,0:0:0:0:
60,256,66372,1,0,0:0:0:0:
68,280,66435,1,0,0:0:0:0:
80,300,66497,1,0,0:0:0:0:
96,320,66560,1,0,0:0:0:0:
408,88,74310,6,0,P|388:136|364:156,1,75
392,232,74560,2,0,P|312:216|284:156,1,150
276,76,74935,1,0,0:0:0:0:
196,64,75060,2,0,B|152:52|152:52|84:60|84:60|24:48,1,150
48,52,75435,1,0,0:0:0:0:
32,132,75560,2,0,P|24:184|32:212,1,75
16,288,75810,2,0,P|64:280|88:260,1,75
140,204,76060,2,0,P|168:176|208:164,1,75
240,92,76310,2,0,P|272:116|284:168,1,75
