osu file format v14

[General]
AudioFilename: REANIMATE.mp3
AudioLeadIn: 0
PreviewTime: 117953
Countdown: 0
SampleSet: Soft
StackLeniency: 0.7
Mode: 0
LetterboxInBreaks: 0
WidescreenStoryboard: 0

[Editor]
DistanceSpacing: 1
BeatDivisor: 4
GridSize: 32
TimelineZoom: 1.1

[Metadata]
Title:REANIMATE
TitleUnicode:暗夜苏醒
Artist:Warak
ArtistUnicode:Warak
Creator:iyasine
Version:Beginner
Source:Rhythm Master
Tags:N_a_s_y_a nasya Azer Mythol xsrsbsns 节奏大师 Symphonic Drumstep
BeatmapID:462168
BeatmapSetID:186318

[Difficulty]
HPDrainRate:2
CircleSize:3
OverallDifficulty:2
ApproachRate:3
SliderMultiplier:0.80000000596046
SliderTickRate:1

[Events]
//Background and Video events
0,0,"bg.png",0,0
//Break Periods
2,24704,34099
2,79877,89271
//Storyboard Layer 0 (Background)
//Storyboard Layer 1 (Fail)
//Storyboard Layer 2 (Pass)
//Storyboard Layer 3 (Foreground)
//Storyboard Sound Samples

[TimingPoints]
2436,344.827586206897,4,2,1,70,1,0
2780,-100,4,2,3,70,0,0
13125,-100,4,2,3,60,0,0
13470,-100,4,2,1,70,0,0
24504,-100,4,2,3,70,0,0
35539,-100,4,2,3,70,0,0
37263,-100,4,2,3,60,0,0
38642,-100,4,2,3,70,0,0
40022,-100,4,2,3,60,0,0
41401,-100,4,2,3,70,0,0
43125,-100,4,2,3,60,0,0
45539,-100,4,2,3,70,0,0
46573,-100,4,2,2,80,0,1
46746,-100,4,2,2,80,0,0
47953,-100,4,2,2,80,0,1
48125,-100,4,2,2,80,0,0
49332,-100,4,2,2,80,0,1
49504,-100,4,2,2,80,0,0
52091,-100,4,2,2,80,0,1
52263,-100,4,2,2,80,0,0
53470,-100,4,2,2,80,0,1
53642,-100,4,2,2,80,0,0
54849,-100,4,2,2,80,0,1
55022,-100,4,2,2,80,0,0
57608,-100,4,2,1,80,0,1
63125,-100,4,2,1,80,0,0
63470,-100,4,2,1,80,0,1
67263,-100,4,2,1,70,0,0
67953,-100,4,2,3,60,0,0
68642,-100,4,2,1,70,0,0
77263,-100,4,2,3,70,0,0
90711,-100,4,2,1,70,0,0
99677,-100,4,2,3,70,0,0
101746,-100,4,2,3,60,0,0
103470,-100,4,2,3,40,0,0
104504,-100,4,2,3,60,0,0
106573,-100,4,2,3,40,0,0
107263,-100,4,2,3,60,0,0
111401,-100,4,2,3,40,0,0
113125,-100,4,2,3,60,0,0
117780,-100,4,2,3,50,0,0
118298,-100,4,2,1,80,0,1
123815,-100,4,2,1,80,0,0
124160,-100,4,2,1,80,0,1
128987,-100,4,2,1,80,0,0
129332,-100,4,2,1,80,0,1
134849,-100,4,2,1,80,0,0
135194,-100,4,2,1,80,0,1
138987,-100,4,2,1,80,0,0
139677,-100,4,2,3,70,0,0
140367,-100,4,2,1,80,0,1
140711,-100,4,2,3,70,0,1
141746,-100,4,2,1,80,0,1
142091,-100,4,2,3,70,0,1
143125,-100,4,2,1,80,0,1
143470,-100,4,2,3,70,0,1
143815,-100,4,2,1,80,0,1
144160,-100,4,2,3,70,0,1
145194,-100,4,2,1,80,0,0
145884,-100,4,2,3,40,0,0
146229,-100,4,2,3,30,0,0
147091,-100,4,2,3,25,0,0
148642,-100,4,2,3,22,0,0
150711,-100,4,2,3,30,0,0

[Colours]
Combo1 : 206,206,206
Combo2 : 255,230,140
Combo3 : 226,165,214
Combo4 : 255,166,166
Combo5 : 255,168,125

[HitObjects]
116,354,2436,6,0,B|180:355|212:302|212:302|258:312,1,160.000001192092,6|2,0:0|0:0,0:0:0:0:
414,292,3815,2,0,P|436:223|407:141,1,160.000001192092,2|2,0:0|0:0,0:0:0:0:
248,132,5194,6,0,B|185:140|147:92|147:92|102:107,1,160.000001192092,2|2,0:0|0:0,0:0:0:0:
0,228,6573,2,0,P|12:306|80:339,1,160.000001192092,2|2,0:0|0:0,0:0:0:0:
219,259,7953,6,0,B|259:275|259:275|327:249|327:249|370:265,1,160.000001192092,2|2,0:0|0:0,0:0:0:0:
485,155,9332,2,0,P|484:114|470:78,2,80.000000596046,2|2|2,0:0|0:0|0:0,0:0:0:0:
337,217,10711,6,0,B|289:205|231:256|182:244,2,160.000001192092,2|2|2,0:0|0:0|0:0,0:0:0:0:
416,228,12436,1,2,0:0:0:0:
489,259,12780,2,0,P|493:298|483:339,1,80.000000596046,2|2,0:0|0:0,0:0:0:0:
410,370,13470,6,0,L|248:347,1,160.000001192092,6|8,0:0|0:0,0:0:0:0:
180,310,14504,1,0,0:0:0:0:
105,282,14849,2,0,L|23:295,2,80.000000596046,0|2|8,0:0|0:0|0:0,0:0:0:0:
262,251,16229,6,0,B|274:208|274:208|254:142|254:142|265:97,1,160.000001192092,6|8,0:0|0:0,0:0:0:0:
319,38,17263,1,0,0:0:0:0:
391,72,17608,2,0,P|429:85|472:93,2,80.000000596046,0|2|8,0:0|0:0|0:0,0:0:0:0:
231,82,18987,6,0,L|68:101,1,160.000001192092,6|8,0:0|0:0,0:0:0:0:
17,159,20022,1,0,0:0:0:0:
0,237,20367,2,0,P|-6:276|8:312,2,80.000000596046,0|2|8,0:0|0:0|0:0,0:0:0:0:
106,117,21746,6,0,L|265:99,1,160.000001192092,6|8,0:0|0:0,0:0:0:0:
256,192,23125,12,4,24504,0:0:0:0:
305,342,35539,5,2,0:0:0:0:
350,275,35884,1,2,0:0:0:0:
415,321,36229,2,0,P|452:341|490:344,2,80.000000596046,2|2|2,0:0|0:0|0:0,0:0:0:0:
350,275,37263,1,2,0:0:0:0:
281,234,37608,2,0,L|201:241,1,80.000000596046,2|2,0:0|0:0,0:0:0:0:
124,219,38298,5,2,0:0:0:0:
64,166,38642,1,2,0:0:0:0:
44,89,38987,2,0,L|205:77,1,160.000001192092,2|2,0:0|0:0,0:0:0:0:
275,39,40022,2,0,L|359:44,2,80.000000596046,2|2|2,0:0|0:0|0:0,0:0:0:0:
204,77,41056,5,2,0:0:0:0:
143,128,41401,2,0,P|123:160|121:204,2,80.000000596046,2|2|2,0:0|0:0|0:0,0:0:0:0:
198,186,42436,2,0,B|246:204|246:204|307:186|307:186|352:201,2,160.000001192092,2|2|2,0:0|0:0|0:0,0:0:0:0:
55,112,44504,5,2,0:0:0:0:
6,265,45194,2,0,P|-4:304|0:345,2,80.000000596046,2|2|2,0:0|0:0|0:0,0:0:0:0:
56,113,46573,6,0,L|138:129,1,80.000000596046,6|8,0:0|0:0,0:0:0:0:
201,172,47263,2,0,L|282:158,1,80.000000596046,0|8,0:0|0:0,0:0:0:0:
359,142,47953,1,2,0:0:0:0:
419,89,48298,1,8,0:0:0:0:
470,28,48642,2,0,B|488:80|443:131|464:186,1,160.000001192092,0|6,0:0|0:0,0:0:0:0:
496,258,49677,6,0,P|504:299|489:336,1,80.000000596046,8|0,0:0|0:0,0:0:0:0:
421,375,50367,1,8,0:0:0:0:
348,341,50711,2,0,L|266:351,1,80.000000596046,2|8,0:0|0:0,0:0:0:0:
205,300,51401,2,0,P|198:261|210:223,1,80.000000596046,0|8,0:0|0:0,0:0:0:0:
234,146,52091,6,0,B|182:121|122:142|78:118,1,160.000001192092,6|0,0:0|0:0,0:0:0:0:
5,84,53125,1,8,0:0:0:0:
10,163,53470,2,0,L|20:245,1,80.000000596046,2|8,0:0|0:0,0:0:0:0:
77,297,54160,2,0,B|115:315|115:315|184:293|184:293|226:309,1,160.000001192092,0|6,0:0|0:0,0:0:0:0:
303,333,55194,6,0,P|342:346|380:342,2,80.000000596046,8|0|8,0:0|0:0|0:0,0:0:0:0:
284,256,56229,2,0,P|297:220|291:173,1,80.000000596046,8|8,0:0|0:0,0:0:0:0:
249,112,56918,2,0,P|245:71|259:35,1,80.000000596046,8|8,0:0|0:0,0:0:0:0:
334,6,57608,6,0,P|411:28|454:93,1,160.000001192092,6|0,0:0|0:0,0:0:0:0:
436,169,58642,1,8,0:0:0:0:
373,118,58987,2,0,P|354:154|357:193,1,80.000000596046,2|8,0:0|0:0,0:0:0:0:
322,264,59677,2,0,P|282:261|247:280,1,80.000000596046,0|8,0:0|0:0,0:0:0:0:
195,340,60367,6,0,B|154:353|154:353|82:322|82:322|40:334,2,160.000001192092,6|0|2,0:0|0:0|0:0,0:0:0:0:
270,313,62091,2,0,P|325:258|346:179,1,160.000001192092,8|8,0:0|0:0,0:0:0:0:
328,102,63125,1,2,0:0:0:0:
277,40,63470,6,0,L|115:55,1,160.000001192092,12|8,0:0|0:0,0:0:0:0:
39,64,64504,2,0,P|17:97|11:137,1,80.000000596046,2|8,0:0|0:0,0:0:0:0:
57,202,65194,1,0,0:0:0:0:
11,268,65539,1,8,0:0:0:0:
60,331,65884,6,0,B|98:352|98:352|169:330|169:330|212:348,1,160.000001192092,6|8,0:0|0:0,0:0:0:0:
286,359,66918,1,8,0:0:0:0:
347,307,67263,1,2,0:0:0:0:
268,167,67953,2,0,L|344:189,1,80.000000596046,2|0,0:0|0:0,0:0:0:0:
421,212,68642,5,6,0:0:0:0:
272,280,69332,2,0,L|286:363,2,80.000000596046,8|0|0,0:0|0:0|0:0,0:0:0:0:
196,251,70367,1,2,0:0:0:0:
122,221,70711,2,0,P|107:149|168:97,1,160.000001192092,8|2,0:0|0:0,0:0:0:0:
241,67,71746,6,0,P|281:73|323:76,1,80.000000596046,0|8,0:0|0:0,0:0:0:0:
400,77,72436,1,0,0:0:0:0:
460,25,72780,2,0,P|479:64|476:102,1,80.000000596046,0|2,0:0|0:0,0:0:0:0:
438,173,73470,1,8,0:0:0:0:
371,218,73815,1,0,0:0:0:0:
357,296,74160,6,0,P|354:334|373:371,2,80.000000596046,2|0|8,0:0|0:0|0:0,0:0:0:0:
371,218,75194,1,0,0:0:0:0:
388,139,75539,2,0,P|389:98|370:62,1,80.000000596046,0|2,0:0|0:0,0:0:0:0:
294,40,76229,2,0,L|130:60,1,160.000001192092,8|2,0:0|0:0,0:0:0:0:
256,192,77263,12,4,79677,0:0:0:0:
38,282,90711,5,6,0:0:0:0:
117,271,91056,2,0,P|158:271|193:284,1,80.000000596046,0|8,0:0|0:0,0:0:0:0:
267,317,91746,1,0,0:0:0:0:
340,352,92091,2,0,P|378:367|420:365,1,80.000000596046,0|2,0:0|0:0,0:0:0:0:
475,311,92780,2,0,L|467:223,1,80.000000596046,8|0,0:0|0:0,0:0:0:0:
457,152,93470,5,2,0:0:0:0:
477,74,93815,2,0,P|438:73|403:94,1,80.000000596046,0|8,0:0|0:0,0:0:0:0:
336,137,94504,1,0,0:0:0:0:
257,132,94849,2,0,L|164:121,2,80.000000596046,0|2|8,0:0|0:0|0:0,0:0:0:0:
401,201,96229,5,2,0:0:0:0:
345,257,96573,2,0,P|306:278|270:280,1,80.000000596046,0|8,0:0|0:0,0:0:0:0:
193,259,97263,1,0,0:0:0:0:
119,226,97608,2,0,P|79:214|42:216,2,80.000000596046,0|2|8,0:0|0:0|0:0,0:0:0:0:
250,135,98987,6,0,P|202:83|117:63,1,160.000001192092,6|2,0:0|0:0,0:0:0:0:
27,195,100367,2,0,P|75:247|160:267,1,160.000001192092,2|2,0:0|0:0,0:0:0:0:
318,245,101746,2,0,L|333:331,1,80.000000596046,2|2,0:0|0:0,0:0:0:0:
409,342,102436,6,0,L|491:328,1,80.000000596046,2|2,0:0|0:0,0:0:0:0:
498,249,103125,2,0,L|511:89,2,160.000001192092,2|2|2,0:0|0:0|0:0,0:0:0:0:
377,329,105194,6,0,P|336:320|307:297,1,80.000000596046,2|2,0:0|0:0,0:0:0:0:
243,247,105884,2,0,P|172:212|93:216,2,160.000001192092,2|2|2,0:0|0:0|0:0,0:0:0:0:
365,350,107953,6,0,B|310:343|257:384|209:376,1,160.000001192092,2|2,0:0|0:0,0:0:0:0:
133,349,108987,2,0,P|99:332|59:326,1,80.000000596046,2|2,0:0|0:0,0:0:0:0:
1,176,110022,6,0,P|81:174|157:144,1,160.000001192092,2|2,0:0|0:0,0:0:0:0:
290,60,111401,2,0,P|407:88|271:213,1,400.00000298023,2|0,1:2|0:0,0:0:0:0:
117,175,113815,1,0,0:0:0:0:
83,253,114160,6,0,P|129:313|209:321,1,160.000001192092,2|2,0:0|0:0,0:0:0:0:
282,291,115194,1,2,0:0:0:0:
353,253,115539,6,0,L|510:275,2,160.000001192092,2|2|2,0:0|0:0|0:0,0:0:0:0:
122,321,117953,1,2,0:0:0:0:
67,263,118298,6,0,P|50:186|87:115,1,160.000001192092,6|0,0:0|0:0,0:0:0:0:
154,156,119332,1,8,0:0:0:0:
226,192,119677,2,0,L|305:180,1,80.000000596046,2|8,0:0|0:0,0:0:0:0:
382,204,120367,2,0,P|385:165|367:128,1,80.000000596046,0|8,0:0|0:0,0:0:0:0:
313,70,121056,6,0,B|266:82|207:39|157:54,2,160.000001192092,6|0|2,0:0|0:0|0:0,0:0:0:0:
367,128,122780,2,0,P|393:201|349:268,1,160.000001192092,8|8,0:0|0:0,0:0:0:0:
277,296,123815,1,2,0:0:0:0:
197,289,124160,6,0,P|121:266|41:261,1,160.000001192092,12|8,0:0|0:0,0:0:0:0:
3,191,125194,2,0,P|18:154|21:114,1,80.000000596046,2|8,0:0|0:0,0:0:0:0:
60,44,125884,1,0,0:0:0:0:
138,25,126229,1,8,0:0:0:0:
214,49,126573,6,0,B|251:62|251:62|329:42|329:42|367:52,1,160.000001192092,6|2,0:0|0:0,0:0:0:0:
446,70,127608,1,8,0:0:0:0:
500,129,127953,2,0,P|503:169|489:209,1,80.000000596046,8|8,0:0|0:0,0:0:0:0:
434,263,128642,2,0,L|353:257,1,80.000000596046,8|8,0:0|0:0,0:0:0:0:
281,290,129332,5,6,0:0:0:0:
210,327,129677,2,0,P|133:341|59:302,1,160.000001192092,8|8,0:0|0:0,0:0:0:0:
13,243,130711,2,0,L|23:155,1,80.000000596046,2|8,0:0|0:0,0:0:0:0:
25,83,131401,2,0,B|76:100|134:54|187:65,1,160.000001192092,0|6,0:0|0:0,0:0:0:0:
255,96,132436,6,0,P|291:114|335:115,2,80.000000596046,8|0|8,0:0|0:0|0:0,0:0:0:0:
182,64,133470,2,0,L|160:226,1,160.000001192092,2|0,0:0|0:0,0:0:0:0:
149,301,134504,1,8,0:0:0:0:
204,360,134849,5,2,0:0:0:0:
282,378,135194,2,0,B|332:384|379:330|437:336,1,160.000001192092,12|8,0:0|0:0,0:0:0:0:
504,296,136229,2,0,P|511:256|497:218,1,80.000000596046,2|8,0:0|0:0,0:0:0:0:
456,151,136918,2,0,P|385:121|297:109,1,160.000001192092,0|6,0:0|0:0,0:0:0:0:
231,143,137953,5,8,0:0:0:0:
159,179,138298,2,0,P|124:196|82:198,2,80.000000596046,8|8|6,0:0|0:0|0:0,0:0:0:0:
303,109,139677,1,2,0:0:0:0:
328,267,140367,6,0,L|340:357,1,80.000000596046,2|2,3:2|0:0,0:0:0:0:
411,380,141056,2,0,P|446:365|477:334,1,80.000000596046,2|2,0:0|0:0,0:0:0:0:
506,262,141746,2,0,L|494:172,1,80.000000596046,2|2,3:2|0:0,0:0:0:0:
422,151,142436,2,0,P|423:111|437:73,1,80.000000596046,2|2,0:0|0:0,0:0:0:0:
375,21,143125,6,0,L|295:35,1,80.000000596046,2|2,3:2|0:0,0:0:0:0:
230,80,143815,2,0,P|192:70|147:71,1,80.000000596046,2|2,3:2|0:0,0:0:0:0:
83,111,144504,2,0,P|48:128|4:130,2,80.000000596046,4|4|2,0:0|0:0|3:2,0:0:0:0:
188,231,145884,5,0,0:0:0:0:
257,273,146229,2,0,P|292:296|315:328,2,80.000000596046,2|0|2,0:0|0:0|0:0,0:0:0:0:
188,231,147263,2,0,B|152:239|152:239|72:218|72:218|33:225,2,160.000001192092,2|2|2,0:0|0:0|0:0,0:0:0:0:
254,85,149332,6,0,P|330:86|409:58,1,160.000001192092,2|2,0:0|0:0,0:0:0:0:
485,79,150367,2,0,P|507:114|509:151,1,80.000000596046,2|4,0:0|0:0,0:0:0:0:
