osu file format v14

[General]
AudioFilename: REANIMATE.mp3
AudioLeadIn: 0
PreviewTime: 57263
Countdown: 0
SampleSet: Soft
StackLeniency: 0.7
Mode: 3
LetterboxInBreaks: 0
SpecialStyle: 0
WidescreenStoryboard: 1

[Editor]
DistanceSpacing: 0.6
BeatDivisor: 2
GridSize: 4
TimelineZoom: 1.9

[Metadata]
Title:REANIMATE
TitleUnicode:暗夜苏醒
Artist:Warak
ArtistUnicode:Warak
Creator:Level 51
Version:NM
Source:节奏大师
Tags:Rhythm Master
BeatmapID:647202
BeatmapSetID:221007

[Difficulty]
HPDrainRate:6
CircleSize:7
OverallDifficulty:6.2
ApproachRate:10
SliderMultiplier:1.4
SliderTickRate:1

[Events]
//Background and Video events
0,0,"bg.png",0,0
//Break Periods
//Storyboard Layer 0 (Background)
//Storyboard Layer 1 (Fail)
//Storyboard Layer 2 (Pass)
//Storyboard Layer 3 (Foreground)
//Storyboard Sound Samples

[TimingPoints]
2436,344.827586206897,4,3,0,40,1,0
57608,-100,4,3,0,60,0,1
67263,-100,4,3,0,50,0,0
118298,-100,4,3,0,60,0,1
129246,-100,4,3,0,50,0,0
129332,-100,4,3,0,60,0,1
140280,-100,4,3,0,60,0,0
140367,-100,4,3,0,70,0,1
140453,-100,4,3,0,60,0,0
145884,-133.333333333333,4,2,0,5,0,0

[HitObjects]
329,192,2436,5,0,0:0:0:0:
475,192,2608,1,0,0:0:0:0:
329,192,2780,1,0,0:0:0:0:
109,192,2953,1,0,0:0:0:0:
402,192,3125,1,0,0:0:0:0:
329,192,3470,1,0,0:0:0:0:
109,192,3642,1,0,0:0:0:0:
402,192,3815,1,0,0:0:0:0:
256,192,3987,1,0,0:0:0:0:
109,192,4160,1,0,0:0:0:0:
182,192,5194,1,0,0:0:0:0:
329,192,5367,1,0,0:0:0:0:
36,192,5539,1,0,0:0:0:0:
329,192,5711,1,0,0:0:0:0:
182,192,5884,1,0,0:0:0:0:
36,192,6229,1,0,0:0:0:0:
402,192,6401,1,0,0:0:0:0:
109,192,6573,1,0,0:0:0:0:
329,192,6832,1,0,0:0:0:0:
182,192,6918,1,0,0:0:0:0:
402,192,7263,1,0,0:0:0:0:
109,192,7522,1,0,0:0:0:0:
182,192,7608,1,0,0:0:0:0:
182,192,7953,1,0,0:0:0:0:
402,192,8125,1,0,0:0:0:0:
256,192,8298,1,0,0:0:0:0:
109,192,8470,1,0,0:0:0:0:
329,192,8642,1,0,0:0:0:0:
182,192,8987,1,0,0:0:0:0:
402,192,9160,1,0,0:0:0:0:
475,192,9332,1,0,0:0:0:0:
329,192,9332,1,0,0:0:0:0:
329,192,9677,1,0,0:0:0:0:
182,192,9677,1,0,0:0:0:0:
182,192,10022,1,0,0:0:0:0:
36,192,10022,1,0,0:0:0:0:
109,192,10711,1,0,0:0:0:0:
402,192,10711,1,0,0:0:0:0:
256,192,11056,1,0,0:0:0:0:
182,192,11401,1,0,0:0:0:0:
329,192,11401,1,0,0:0:0:0:
256,192,11746,1,0,0:0:0:0:
36,192,12091,1,0,0:0:0:0:
475,192,12091,1,0,0:0:0:0:
109,192,12436,1,0,0:0:0:0:
402,192,12436,1,0,0:0:0:0:
256,192,12780,128,0,13470:0:0:0:0:
402,192,13470,1,0,0:0:0:0:
109,192,13642,1,0,0:0:0:0:
329,192,13815,1,0,0:0:0:0:
182,192,13987,1,0,0:0:0:0:
256,192,14160,1,0,0:0:0:0:
329,192,14504,1,0,0:0:0:0:
402,192,14677,1,0,0:0:0:0:
182,192,14849,1,0,0:0:0:0:
109,192,15022,1,0,0:0:0:0:
256,192,15194,1,0,0:0:0:0:
402,192,15539,1,0,0:0:0:0:
256,192,15711,1,0,0:0:0:0:
109,192,15884,1,0,0:0:0:0:
402,192,16229,1,0,0:0:0:0:
256,192,16401,1,0,0:0:0:0:
109,192,16573,1,0,0:0:0:0:
256,192,16746,1,0,0:0:0:0:
402,192,16918,1,0,0:0:0:0:
36,192,17263,1,0,0:0:0:0:
475,192,17436,1,0,0:0:0:0:
256,192,17608,1,0,0:0:0:0:
402,192,17867,1,0,0:0:0:0:
109,192,17953,1,0,0:0:0:0:
256,192,18987,1,0,0:0:0:0:
36,192,19160,1,0,0:0:0:0:
256,192,19332,1,0,0:0:0:0:
475,192,19504,1,0,0:0:0:0:
256,192,19677,1,0,0:0:0:0:
182,192,20022,1,0,0:0:0:0:
329,192,20194,1,0,0:0:0:0:
256,192,20367,1,0,0:0:0:0:
182,192,20539,1,0,0:0:0:0:
36,192,20711,1,0,0:0:0:0:
329,192,20884,1,0,0:0:0:0:
475,192,21056,1,0,0:0:0:0:
475,192,21746,1,0,0:0:0:0:
329,192,21918,1,0,0:0:0:0:
256,192,22091,1,0,0:0:0:0:
182,192,22263,1,0,0:0:0:0:
36,192,22436,1,0,0:0:0:0:
182,192,23039,1,0,0:0:0:0:
329,192,23125,1,0,0:0:0:0:
256,192,23815,1,0,0:0:0:0:
109,192,24504,1,0,0:0:0:0:
402,192,24504,1,0,0:0:0:0:
256,192,24849,128,0,25194:0:0:0:0:
402,192,25194,128,0,25539:0:0:0:0:
109,192,25539,128,0,25884:0:0:0:0:
256,192,25884,128,0,26229:0:0:0:0:
182,192,26229,128,0,26573:0:0:0:0:
36,192,26573,128,0,26918:0:0:0:0:
109,192,26918,128,0,27263:0:0:0:0:
256,192,27608,128,0,27953:0:0:0:0:
475,192,27953,128,0,28470:0:0:0:0:
36,192,28470,128,0,28642:0:0:0:0:
256,192,28642,128,0,28987:0:0:0:0:
402,192,28987,128,0,29332:0:0:0:0:
109,192,29332,128,0,29677:0:0:0:0:
182,192,29677,128,0,30022:0:0:0:0:
402,192,30367,128,0,30711:0:0:0:0:
109,192,30711,128,0,31056:0:0:0:0:
475,192,31056,128,0,31401:0:0:0:0:
402,192,31401,128,0,31918:0:0:0:0:
329,192,31918,128,0,32091:0:0:0:0:
256,192,32091,128,0,32780:0:0:0:0:
182,192,33125,128,0,33470:0:0:0:0:
36,192,33470,128,0,33815:0:0:0:0:
109,192,33815,128,0,34160:0:0:0:0:
475,192,34160,128,0,34677:0:0:0:0:
256,192,34677,128,0,34849:0:0:0:0:
329,192,34849,128,0,35539:0:0:0:0:
256,192,35884,128,0,36229:0:0:0:0:
402,192,36229,128,0,36573:0:0:0:0:
109,192,36573,128,0,36918:0:0:0:0:
256,192,36918,128,0,37263:0:0:0:0:
182,192,37263,128,0,37608:0:0:0:0:
256,192,37608,128,0,37953:0:0:0:0:
329,192,37953,128,0,38298:0:0:0:0:
256,192,38642,128,0,38987:0:0:0:0:
475,192,38987,128,0,39504:0:0:0:0:
36,192,39504,128,0,39677:0:0:0:0:
256,192,39677,128,0,40022:0:0:0:0:
402,192,40022,128,0,40367:0:0:0:0:
182,192,40367,128,0,40711:0:0:0:0:
256,192,40711,128,0,41056:0:0:0:0:
182,192,41401,128,0,41746:0:0:0:0:
36,192,41746,128,0,42091:0:0:0:0:
402,192,42091,128,0,42436:0:0:0:0:
329,192,42436,128,0,42953:0:0:0:0:
256,192,42953,128,0,43470:0:0:0:0:
182,192,43470,128,0,43815:0:0:0:0:
36,192,43815,128,0,44504:0:0:0:0:
256,192,44504,128,0,45194:0:0:0:0:
475,192,45194,128,0,45539:0:0:0:0:
182,192,45539,1,0,0:0:0:0:
329,192,45539,1,0,0:0:0:0:
36,192,45884,1,0,0:0:0:0:
475,192,45884,1,0,0:0:0:0:
182,192,46573,1,0,0:0:0:0:
329,192,46573,1,0,0:0:0:0:
109,192,46918,1,0,0:0:0:0:
402,192,47091,1,0,0:0:0:0:
256,192,47263,1,0,0:0:0:0:
109,192,47436,1,0,0:0:0:0:
402,192,47608,1,0,0:0:0:0:
36,192,47780,1,0,0:0:0:0:
475,192,47953,1,0,0:0:0:0:
182,192,48298,1,0,0:0:0:0:
329,192,48298,1,0,0:0:0:0:
256,192,48470,1,0,0:0:0:0:
475,192,48642,1,0,0:0:0:0:
329,192,48815,1,0,0:0:0:0:
36,192,48987,1,0,0:0:0:0:
182,192,49160,1,0,0:0:0:0:
256,192,49332,1,0,0:0:0:0:
182,192,49677,1,0,0:0:0:0:
329,192,49849,1,0,0:0:0:0:
109,192,50022,1,0,0:0:0:0:
402,192,50194,1,0,0:0:0:0:
36,192,50367,1,0,0:0:0:0:
475,192,50539,1,0,0:0:0:0:
402,192,50711,128,0,50884:0:0:0:0:
109,192,50884,128,0,51056:0:0:0:0:
329,192,51056,128,0,51229:0:0:0:0:
182,192,51229,128,0,51401:0:0:0:0:
256,192,51401,128,0,51746:0:0:0:0:
182,192,52091,1,0,0:0:0:0:
329,192,52091,1,0,0:0:0:0:
36,192,52436,1,0,0:0:0:0:
256,192,52608,1,0,0:0:0:0:
475,192,52780,1,0,0:0:0:0:
402,192,52867,1,0,0:0:0:0:
329,192,52953,1,0,0:0:0:0:
182,192,53125,1,0,0:0:0:0:
36,192,53298,1,0,0:0:0:0:
402,192,53470,1,0,0:0:0:0:
109,192,53470,1,0,0:0:0:0:
182,192,53815,1,0,0:0:0:0:
256,192,53987,1,0,0:0:0:0:
329,192,54160,1,0,0:0:0:0:
256,192,54332,1,0,0:0:0:0:
329,192,54504,1,0,0:0:0:0:
256,192,54677,1,0,0:0:0:0:
182,192,54849,1,0,0:0:0:0:
36,192,55194,1,0,0:0:0:0:
475,192,55367,1,0,0:0:0:0:
109,192,55539,1,0,0:0:0:0:
402,192,55711,1,0,0:0:0:0:
182,192,55884,1,0,0:0:0:0:
329,192,56056,1,0,0:0:0:0:
36,192,56229,1,0,0:0:0:0:
475,192,56229,1,0,0:0:0:0:
109,192,56573,1,0,0:0:0:0:
402,192,56573,1,0,0:0:0:0:
182,192,56918,1,0,0:0:0:0:
329,192,56918,1,0,0:0:0:0:
182,192,57263,1,0,0:0:0:0:
329,192,57263,1,0,0:0:0:0:
36,192,57608,1,0,0:0:0:0:
475,192,57608,1,0,0:0:0:0:
256,192,57953,1,0,0:0:0:0:
329,192,58125,1,0,0:0:0:0:
182,192,58298,1,0,0:0:0:0:
182,192,58642,1,0,0:0:0:0:
256,192,58815,1,0,0:0:0:0:
329,192,58987,1,0,0:0:0:0:
182,192,58987,1,0,0:0:0:0:
256,192,59160,1,0,0:0:0:0:
329,192,59332,1,0,0:0:0:0:
402,192,59504,1,0,0:0:0:0:
475,192,59677,1,0,0:0:0:0:
402,192,59849,1,0,0:0:0:0:
329,192,60022,1,0,0:0:0:0:
256,192,60194,1,0,0:0:0:0:
182,192,60367,1,0,0:0:0:0:
329,192,60367,1,0,0:0:0:0:
329,192,60884,1,0,0:0:0:0:
402,192,61056,1,0,0:0:0:0:
256,192,61056,128,0,61573:0:0:0:0:
182,192,61573,1,0,0:0:0:0:
109,192,61746,1,0,0:0:0:0:
36,192,61918,1,0,0:0:0:0:
109,192,62091,1,0,0:0:0:0:
182,192,62263,1,0,0:0:0:0:
256,192,62436,1,0,0:0:0:0:
329,192,62608,1,0,0:0:0:0:
402,192,62780,1,0,0:0:0:0:
475,192,62953,1,0,0:0:0:0:
109,192,63125,1,0,0:0:0:0:
402,192,63125,1,0,0:0:0:0:
329,192,63298,1,0,0:0:0:0:
182,192,63470,1,0,0:0:0:0:
256,192,63815,1,0,0:0:0:0:
182,192,63987,1,0,0:0:0:0:
256,192,64160,1,0,0:0:0:0:
329,192,64332,1,0,0:0:0:0:
109,192,64504,1,0,0:0:0:0:
402,192,64504,1,0,0:0:0:0:
256,192,64677,1,0,0:0:0:0:
182,192,64849,1,0,0:0:0:0:
109,192,65022,1,0,0:0:0:0:
36,192,65194,1,0,0:0:0:0:
109,192,65367,1,0,0:0:0:0:
182,192,65539,1,0,0:0:0:0:
256,192,65711,1,0,0:0:0:0:
109,192,65884,1,0,0:0:0:0:
402,192,65884,1,0,0:0:0:0:
256,192,66229,1,0,0:0:0:0:
182,192,66573,1,0,0:0:0:0:
256,192,66660,1,0,0:0:0:0:
329,192,66746,1,0,0:0:0:0:
256,192,66918,1,0,0:0:0:0:
109,192,67263,128,0,67953:0:0:0:0:
402,192,67953,128,0,68642:0:0:0:0:
182,192,68642,1,0,0:0:0:0:
329,192,68642,1,0,0:0:0:0:
475,192,69332,1,0,0:0:0:0:
329,192,69504,1,0,0:0:0:0:
182,192,69677,1,0,0:0:0:0:
36,192,69849,1,0,0:0:0:0:
256,192,70022,1,0,0:0:0:0:
109,192,70711,128,0,71401:0:0:0:0:
402,192,70711,128,0,71401:0:0:0:0:
256,192,71401,1,0,0:0:0:0:
329,192,71918,1,0,0:0:0:0:
402,192,72091,1,0,0:0:0:0:
182,192,72608,1,0,0:0:0:0:
109,192,72780,1,0,0:0:0:0:
182,192,73470,1,0,0:0:0:0:
329,192,73470,1,0,0:0:0:0:
36,192,74160,1,0,0:0:0:0:
475,192,74160,1,0,0:0:0:0:
402,192,74763,1,0,0:0:0:0:
329,192,74849,1,0,0:0:0:0:
182,192,75453,1,0,0:0:0:0:
109,192,75539,1,0,0:0:0:0:
256,192,76229,128,0,76918:0:0:0:0:
475,192,76918,1,0,0:0:0:0:
475,192,77522,1,0,0:0:0:0:
402,192,77608,1,0,0:0:0:0:
182,192,78211,1,0,0:0:0:0:
36,192,78298,128,0,79677:0:0:0:0:
109,192,78298,1,0,0:0:0:0:
475,192,78987,128,0,79677:0:0:0:0:
256,192,79677,128,0,80022:0:0:0:0:
402,192,80280,1,0,0:0:0:0:
329,192,80367,128,0,80711:0:0:0:0:
182,192,80970,1,0,0:0:0:0:
109,192,81056,128,0,81401:0:0:0:0:
182,192,82436,128,0,82780:0:0:0:0:
109,192,83039,1,0,0:0:0:0:
36,192,83125,128,0,83470:0:0:0:0:
329,192,83729,1,0,0:0:0:0:
182,192,83815,128,0,84160:0:0:0:0:
36,192,84504,1,0,0:0:0:0:
182,192,84677,1,0,0:0:0:0:
256,192,84849,1,0,0:0:0:0:
329,192,85022,1,0,0:0:0:0:
475,192,85194,128,0,85539:0:0:0:0:
329,192,85539,128,0,85884:0:0:0:0:
36,192,85884,128,0,86229:0:0:0:0:
402,192,86229,128,0,86573:0:0:0:0:
329,192,86573,128,0,86918:0:0:0:0:
402,192,87263,1,0,0:0:0:0:
256,192,87436,1,0,0:0:0:0:
109,192,87608,1,0,0:0:0:0:
256,192,87780,1,0,0:0:0:0:
182,192,87953,128,0,88642:0:0:0:0:
36,192,88642,128,0,89332:0:0:0:0:
182,192,89332,128,0,90022:0:0:0:0:
329,192,90022,128,0,90711:0:0:0:0:
475,192,90711,128,0,91401:0:0:0:0:
36,192,90711,1,0,0:0:0:0:
109,192,91401,128,0,92091:0:0:0:0:
402,192,91401,1,0,0:0:0:0:
182,192,92091,1,0,0:0:0:0:
329,192,92091,128,0,92780:0:0:0:0:
256,192,92780,128,0,93470:0:0:0:0:
36,192,93470,128,0,94160:0:0:0:0:
475,192,93470,1,0,0:0:0:0:
402,192,94160,128,0,94849:0:0:0:0:
109,192,94160,1,0,0:0:0:0:
182,192,94849,128,0,95539:0:0:0:0:
329,192,94849,1,0,0:0:0:0:
36,192,95539,1,0,0:0:0:0:
109,192,95711,1,0,0:0:0:0:
256,192,95884,1,0,0:0:0:0:
402,192,96056,1,0,0:0:0:0:
475,192,96229,128,0,96918:0:0:0:0:
402,192,96918,128,0,97608:0:0:0:0:
256,192,96918,1,0,0:0:0:0:
329,192,97608,128,0,98298:0:0:0:0:
182,192,97608,1,0,0:0:0:0:
109,192,98298,1,0,0:0:0:0:
402,192,98298,1,0,0:0:0:0:
182,192,98987,128,0,99677:0:0:0:0:
329,192,98987,128,0,99677:0:0:0:0:
256,192,99677,128,0,100367:0:0:0:0:
475,192,100367,5,0,0:0:0:0:
36,192,100367,1,0,0:0:0:0:
109,192,100711,1,0,0:0:0:0:
402,192,100711,1,0,0:0:0:0:
182,192,101056,1,0,0:0:0:0:
329,192,101056,1,0,0:0:0:0:
109,192,101401,1,0,0:0:0:0:
402,192,101401,1,0,0:0:0:0:
36,192,101746,1,0,0:0:0:0:
475,192,101746,1,0,0:0:0:0:
329,192,101918,1,0,0:0:0:0:
109,192,102091,1,0,0:0:0:0:
402,192,102263,1,0,0:0:0:0:
256,192,102436,1,0,0:0:0:0:
256,192,102780,1,0,0:0:0:0:
402,192,102953,1,0,0:0:0:0:
109,192,103125,1,0,0:0:0:0:
329,192,103298,1,0,0:0:0:0:
182,192,103470,1,0,0:0:0:0:
402,192,103470,128,0,103815:0:0:0:0:
109,192,103815,128,0,104160:0:0:0:0:
256,192,104160,128,0,104504:0:0:0:0:
329,192,104504,1,0,0:0:0:0:
402,192,104677,1,0,0:0:0:0:
182,192,104849,1,0,0:0:0:0:
109,192,105022,1,0,0:0:0:0:
256,192,105194,1,0,0:0:0:0:
256,192,105539,1,0,0:0:0:0:
402,192,105711,1,0,0:0:0:0:
329,192,105884,1,0,0:0:0:0:
109,192,106142,1,0,0:0:0:0:
182,192,106229,1,0,0:0:0:0:
475,192,106229,128,0,106573:0:0:0:0:
36,192,106573,128,0,106918:0:0:0:0:
256,192,106918,128,0,107263:0:0:0:0:
109,192,107263,1,0,0:0:0:0:
402,192,107436,1,0,0:0:0:0:
256,192,107608,1,0,0:0:0:0:
109,192,107780,1,0,0:0:0:0:
402,192,107953,1,0,0:0:0:0:
256,192,108298,1,0,0:0:0:0:
475,192,108470,1,0,0:0:0:0:
36,192,108642,1,0,0:0:0:0:
402,192,108642,128,0,108987:0:0:0:0:
256,192,108987,128,0,109332:0:0:0:0:
109,192,109332,128,0,109677:0:0:0:0:
256,192,109849,1,0,0:0:0:0:
329,192,109936,1,0,0:0:0:0:
402,192,110022,1,0,0:0:0:0:
329,192,110194,1,0,0:0:0:0:
256,192,110367,1,0,0:0:0:0:
182,192,110539,1,0,0:0:0:0:
109,192,110711,1,0,0:0:0:0:
36,192,110711,128,0,111401:0:0:0:0:
256,192,111401,128,0,113125:0:0:0:0:
329,192,113125,128,0,113470:0:0:0:0:
182,192,113470,128,0,113815:0:0:0:0:
475,192,113815,128,0,114160:0:0:0:0:
109,192,114160,128,0,114677:0:0:0:0:
329,192,114677,128,0,114849:0:0:0:0:
182,192,114849,128,0,115194:0:0:0:0:
402,192,115194,128,0,115539:0:0:0:0:
36,192,115539,128,0,116229:0:0:0:0:
182,192,116229,128,0,116918:0:0:0:0:
329,192,116918,1,0,0:0:0:0:
182,192,117263,1,0,0:0:0:0:
256,192,117263,128,0,117608:0:0:0:0:
329,192,117608,1,0,0:0:0:0:
109,192,117953,128,0,118298:0:0:0:0:
402,192,118298,1,0,0:0:0:0:
256,192,118470,1,0,0:0:0:0:
109,192,118642,1,0,0:0:0:0:
256,192,118815,1,0,0:0:0:0:
402,192,118987,1,0,0:0:0:0:
329,192,119160,1,0,0:0:0:0:
109,192,119332,1,0,0:0:0:0:
182,192,119504,1,0,0:0:0:0:
36,192,119677,1,0,0:0:0:0:
475,192,119677,1,0,0:0:0:0:
109,192,119849,1,0,0:0:0:0:
402,192,120022,1,0,0:0:0:0:
182,192,120194,1,0,0:0:0:0:
329,192,120367,1,0,0:0:0:0:
109,192,120539,1,0,0:0:0:0:
402,192,120711,1,0,0:0:0:0:
182,192,120884,1,0,0:0:0:0:
36,192,121056,1,0,0:0:0:0:
475,192,121056,1,0,0:0:0:0:
329,192,121229,1,0,0:0:0:0:
182,192,121401,1,0,0:0:0:0:
256,192,121573,1,0,0:0:0:0:
402,192,121746,1,0,0:0:0:0:
256,192,121918,1,0,0:0:0:0:
109,192,122091,1,0,0:0:0:0:
256,192,122263,1,0,0:0:0:0:
182,192,122436,1,0,0:0:0:0:
329,192,122436,1,0,0:0:0:0:
36,192,122608,1,0,0:0:0:0:
109,192,122780,1,0,0:0:0:0:
182,192,122953,1,0,0:0:0:0:
256,192,123125,1,0,0:0:0:0:
329,192,123298,1,0,0:0:0:0:
402,192,123470,1,0,0:0:0:0:
475,192,123642,1,0,0:0:0:0:
329,192,123815,1,0,0:0:0:0:
182,192,123815,1,0,0:0:0:0:
256,192,123987,1,0,0:0:0:0:
36,192,124160,1,0,0:0:0:0:
475,192,124160,1,0,0:0:0:0:
256,192,124332,1,0,0:0:0:0:
109,192,124504,1,0,0:0:0:0:
256,192,124591,1,0,0:0:0:0:
402,192,124677,1,0,0:0:0:0:
256,192,124849,1,0,0:0:0:0:
109,192,125194,1,0,0:0:0:0:
402,192,125194,1,0,0:0:0:0:
256,192,125367,1,0,0:0:0:0:
182,192,125539,1,0,0:0:0:0:
329,192,125711,1,0,0:0:0:0:
109,192,125884,1,0,0:0:0:0:
402,192,126056,1,0,0:0:0:0:
36,192,126229,1,0,0:0:0:0:
475,192,126401,1,0,0:0:0:0:
109,192,126573,1,0,0:0:0:0:
402,192,126573,1,0,0:0:0:0:
329,192,126746,1,0,0:0:0:0:
182,192,126918,1,0,0:0:0:0:
256,192,127091,1,0,0:0:0:0:
329,192,127263,1,0,0:0:0:0:
256,192,127436,1,0,0:0:0:0:
182,192,127608,1,0,0:0:0:0:
329,192,127780,1,0,0:0:0:0:
475,192,127953,1,0,0:0:0:0:
402,192,127953,1,0,0:0:0:0:
36,192,128298,1,0,0:0:0:0:
109,192,128298,1,0,0:0:0:0:
475,192,128642,1,0,0:0:0:0:
402,192,128642,1,0,0:0:0:0:
36,192,128987,1,0,0:0:0:0:
109,192,128987,1,0,0:0:0:0:
256,192,129332,1,0,0:0:0:0:
182,192,129504,1,0,0:0:0:0:
256,192,129677,1,0,0:0:0:0:
402,192,129849,1,0,0:0:0:0:
256,192,130022,1,0,0:0:0:0:
109,192,130194,1,0,0:0:0:0:
256,192,130367,1,0,0:0:0:0:
475,192,130539,1,0,0:0:0:0:
256,192,130711,1,0,0:0:0:0:
36,192,130884,1,0,0:0:0:0:
256,192,131056,1,0,0:0:0:0:
256,192,131401,128,0,132091:0:0:0:0:
36,192,132091,1,0,0:0:0:0:
475,192,132091,1,0,0:0:0:0:
402,192,132263,1,0,0:0:0:0:
109,192,132436,1,0,0:0:0:0:
329,192,132608,1,0,0:0:0:0:
182,192,132780,1,0,0:0:0:0:
256,192,132953,1,0,0:0:0:0:
329,192,133125,1,0,0:0:0:0:
182,192,133298,1,0,0:0:0:0:
402,192,133470,1,0,0:0:0:0:
109,192,133642,1,0,0:0:0:0:
256,192,133815,1,0,0:0:0:0:
256,192,134160,1,0,0:0:0:0:
36,192,134332,1,0,0:0:0:0:
475,192,134504,1,0,0:0:0:0:
475,192,134849,1,0,0:0:0:0:
329,192,135022,1,0,0:0:0:0:
182,192,135194,1,0,0:0:0:0:
36,192,135367,1,0,0:0:0:0:
475,192,135539,1,0,0:0:0:0:
329,192,135711,1,0,0:0:0:0:
182,192,135884,1,0,0:0:0:0:
36,192,136056,1,0,0:0:0:0:
256,192,136229,1,0,0:0:0:0:
329,192,136401,1,0,0:0:0:0:
402,192,136573,1,0,0:0:0:0:
475,192,136746,1,0,0:0:0:0:
256,192,136918,1,0,0:0:0:0:
182,192,137091,1,0,0:0:0:0:
109,192,137263,1,0,0:0:0:0:
36,192,137436,1,0,0:0:0:0:
256,192,137608,1,0,0:0:0:0:
402,192,137953,1,0,0:0:0:0:
109,192,137953,1,0,0:0:0:0:
109,192,138298,1,0,0:0:0:0:
402,192,138298,1,0,0:0:0:0:
109,192,138642,1,0,0:0:0:0:
402,192,138642,1,0,0:0:0:0:
182,192,138987,128,0,139677:0:0:0:0:
329,192,139677,128,0,140367:0:0:0:0:
36,192,140367,1,0,0:0:0:0:
256,192,140539,1,0,0:0:0:0:
475,192,140711,1,0,0:0:0:0:
256,192,140884,1,0,0:0:0:0:
36,192,141056,1,0,0:0:0:0:
475,192,141746,1,0,0:0:0:0:
256,192,141918,1,0,0:0:0:0:
36,192,142091,1,0,0:0:0:0:
256,192,142263,1,0,0:0:0:0:
475,192,142436,1,0,0:0:0:0:
36,192,143125,1,0,0:0:0:0:
182,192,143298,1,0,0:0:0:0:
329,192,143470,1,0,0:0:0:0:
475,192,143642,1,0,0:0:0:0:
256,192,143815,1,0,0:0:0:0:
475,192,144160,1,0,0:0:0:0:
329,192,144332,1,0,0:0:0:0:
182,192,144504,1,0,0:0:0:0:
36,192,144677,1,0,0:0:0:0:
182,192,144849,1,0,0:0:0:0:
329,192,145022,1,0,0:0:0:0:
256,192,145194,128,0,145884:0:0:0:0:
36,192,145884,1,0,0:0:0:0:
475,192,146229,1,0,0:0:0:0:
109,192,146573,1,0,0:0:0:0:
402,192,146918,1,0,0:0:0:0:
256,192,147263,1,0,0:0:0:0:
182,192,147780,1,0,0:0:0:0:
182,192,147953,1,0,0:0:0:0:
109,192,148298,1,0,0:0:0:0:
36,192,148642,1,0,0:0:0:0:
109,192,149332,1,0,0:0:0:0:
182,192,150022,1,0,0:0:0:0:
402,192,150367,128,0,151401:0:0:0:0:
109,192,150711,128,0,151401:0:0:0:0:
