osu file format v14

[General]
AudioFilename: REANIMATE.mp3
AudioLeadIn: 0
PreviewTime: 57263
Countdown: 0
SampleSet: Soft
StackLeniency: 0.7
Mode: 3
LetterboxInBreaks: 0
SpecialStyle: 0
WidescreenStoryboard: 1

[Editor]
DistanceSpacing: 0.6
BeatDivisor: 4
GridSize: 4
TimelineZoom: 1.6

[Metadata]
Title:REANIMATE
TitleUnicode:暗夜苏醒
Artist:Warak
ArtistUnicode:Warak
Creator:Level 51
Version:IN
Source:节奏大师
Tags:Rhythm Master
BeatmapID:517137
BeatmapSetID:221007

[Difficulty]
HPDrainRate:8
CircleSize:7
OverallDifficulty:8.5
ApproachRate:10
SliderMultiplier:1.4
SliderTickRate:1

[Events]
//Background and Video events
0,0,"bg.png",0,0
//Break Periods
//Storyboard Layer 0 (Background)
//Storyboard Layer 1 (Fail)
//Storyboard Layer 2 (Pass)
//Storyboard Layer 3 (Foreground)
//Storyboard Sound Samples

[TimingPoints]
2436,344.827586206897,4,2,0,5,1,0
57608,-100,4,2,0,5,0,1
67263,-100,4,2,0,5,0,0
118298,-100,4,2,0,5,0,1
129246,-100,4,2,0,5,0,0
129332,-100,4,2,0,5,0,1
140280,-100,4,2,0,5,0,0
140367,-100,4,2,0,5,0,1
140453,-100,4,2,0,5,0,0
145884,-133.333333333333,4,2,0,5,0,0

[HitObjects]
329,192,2436,5,0,0:0:0:0:
182,192,2436,1,0,0:0:0:0:
402,192,2522,1,0,0:0:0:0:
109,192,2522,1,0,0:0:0:0:
256,192,2608,1,0,0:0:0:0:
402,192,2694,1,0,0:0:0:0:
109,192,2694,1,0,0:0:0:0:
182,192,2780,1,0,0:0:0:0:
329,192,2780,1,0,0:0:0:0:
36,192,2953,128,0,3470:0:0:0:0:
475,192,3125,128,0,3470:0:0:0:0:
109,192,3470,1,0,0:0:0:0:
182,192,3470,1,0,0:0:0:0:
402,192,3556,1,0,0:0:0:0:
256,192,3642,1,0,0:0:0:0:
109,192,3729,1,0,0:0:0:0:
475,192,3815,1,0,0:0:0:0:
402,192,3815,1,0,0:0:0:0:
256,192,3987,1,0,0:0:0:0:
329,192,3987,1,0,0:0:0:0:
182,192,4160,128,0,5194:0:0:0:0:
475,192,4504,1,0,0:0:0:0:
402,192,4677,1,0,0:0:0:0:
329,192,4849,128,0,5194:0:0:0:0:
256,192,5194,1,0,0:0:0:0:
402,192,5280,1,0,0:0:0:0:
256,192,5367,1,0,0:0:0:0:
109,192,5453,1,0,0:0:0:0:
256,192,5539,1,0,0:0:0:0:
182,192,5711,1,0,0:0:0:0:
329,192,5711,1,0,0:0:0:0:
109,192,5884,128,0,6229:0:0:0:0:
402,192,5884,128,0,6229:0:0:0:0:
256,192,6229,1,0,0:0:0:0:
475,192,6401,1,0,0:0:0:0:
36,192,6401,1,0,0:0:0:0:
329,192,6573,1,0,0:0:0:0:
182,192,6573,1,0,0:0:0:0:
182,192,6832,128,0,7953:0:0:0:0:
36,192,6918,128,0,7953:0:0:0:0:
256,192,7263,1,0,0:0:0:0:
329,192,7436,128,0,7953:0:0:0:0:
475,192,7522,128,0,7953:0:0:0:0:
256,192,7953,1,0,0:0:0:0:
402,192,8039,1,0,0:0:0:0:
256,192,8125,1,0,0:0:0:0:
109,192,8211,1,0,0:0:0:0:
256,192,8298,1,0,0:0:0:0:
109,192,8470,1,0,0:0:0:0:
402,192,8470,1,0,0:0:0:0:
329,192,8642,128,0,8987:0:0:0:0:
182,192,8642,128,0,8987:0:0:0:0:
36,192,8987,1,0,0:0:0:0:
475,192,8987,1,0,0:0:0:0:
109,192,9160,1,0,0:0:0:0:
402,192,9160,1,0,0:0:0:0:
182,192,9332,1,0,0:0:0:0:
329,192,9332,1,0,0:0:0:0:
475,192,9332,1,0,0:0:0:0:
256,192,9504,1,0,0:0:0:0:
182,192,9591,1,0,0:0:0:0:
329,192,9677,1,0,0:0:0:0:
109,192,9677,1,0,0:0:0:0:
475,192,9677,1,0,0:0:0:0:
182,192,9763,1,0,0:0:0:0:
256,192,9849,1,0,0:0:0:0:
329,192,9936,1,0,0:0:0:0:
475,192,10022,128,0,10539:0:0:0:0:
36,192,10022,1,0,0:0:0:0:
182,192,10022,1,0,0:0:0:0:
402,192,10022,1,0,0:0:0:0:
36,192,10539,1,0,0:0:0:0:
329,192,10539,1,0,0:0:0:0:
109,192,10625,1,0,0:0:0:0:
402,192,10625,1,0,0:0:0:0:
182,192,10711,1,0,0:0:0:0:
475,192,10711,1,0,0:0:0:0:
256,192,10970,1,0,0:0:0:0:
329,192,10970,1,0,0:0:0:0:
402,192,11056,1,0,0:0:0:0:
475,192,11056,1,0,0:0:0:0:
182,192,11315,1,0,0:0:0:0:
256,192,11315,1,0,0:0:0:0:
329,192,11401,1,0,0:0:0:0:
402,192,11401,1,0,0:0:0:0:
475,192,11401,1,0,0:0:0:0:
109,192,11660,1,0,0:0:0:0:
182,192,11660,1,0,0:0:0:0:
256,192,11746,1,0,0:0:0:0:
329,192,11746,1,0,0:0:0:0:
36,192,12004,1,0,0:0:0:0:
109,192,12004,1,0,0:0:0:0:
182,192,12091,1,0,0:0:0:0:
256,192,12091,1,0,0:0:0:0:
402,192,12091,1,0,0:0:0:0:
256,192,12263,1,0,0:0:0:0:
329,192,12349,1,0,0:0:0:0:
182,192,12349,1,0,0:0:0:0:
109,192,12436,128,0,13470:0:0:0:0:
256,192,12436,128,0,13470:0:0:0:0:
402,192,12436,128,0,13470:0:0:0:0:
475,192,12780,1,0,0:0:0:0:
329,192,12867,1,0,0:0:0:0:
182,192,12953,1,0,0:0:0:0:
36,192,13039,1,0,0:0:0:0:
475,192,13125,1,0,0:0:0:0:
329,192,13211,1,0,0:0:0:0:
182,192,13298,1,0,0:0:0:0:
36,192,13384,1,0,0:0:0:0:
182,192,13470,1,0,0:0:0:0:
329,192,13470,1,0,0:0:0:0:
475,192,13556,1,0,0:0:0:0:
256,192,13642,1,0,0:0:0:0:
36,192,13729,1,0,0:0:0:0:
182,192,13815,1,0,0:0:0:0:
329,192,13815,1,0,0:0:0:0:
109,192,13987,1,0,0:0:0:0:
256,192,13987,1,0,0:0:0:0:
329,192,14160,1,0,0:0:0:0:
402,192,14160,1,0,0:0:0:0:
182,192,14160,1,0,0:0:0:0:
109,192,14504,1,0,0:0:0:0:
182,192,14504,1,0,0:0:0:0:
329,192,14591,1,0,0:0:0:0:
402,192,14591,1,0,0:0:0:0:
182,192,14677,1,0,0:0:0:0:
109,192,14677,1,0,0:0:0:0:
329,192,14763,1,0,0:0:0:0:
402,192,14763,1,0,0:0:0:0:
256,192,14849,1,0,0:0:0:0:
182,192,14849,1,0,0:0:0:0:
329,192,15022,1,0,0:0:0:0:
402,192,15022,1,0,0:0:0:0:
182,192,15194,128,0,16229:0:0:0:0:
329,192,15194,1,0,0:0:0:0:
402,192,15194,1,0,0:0:0:0:
475,192,15539,1,0,0:0:0:0:
402,192,15711,1,0,0:0:0:0:
329,192,15884,128,0,16229:0:0:0:0:
402,192,16229,1,0,0:0:0:0:
475,192,16229,1,0,0:0:0:0:
36,192,16315,1,0,0:0:0:0:
109,192,16315,1,0,0:0:0:0:
402,192,16401,1,0,0:0:0:0:
475,192,16401,1,0,0:0:0:0:
36,192,16487,1,0,0:0:0:0:
109,192,16487,1,0,0:0:0:0:
402,192,16573,1,0,0:0:0:0:
475,192,16573,1,0,0:0:0:0:
256,192,16746,1,0,0:0:0:0:
329,192,16746,1,0,0:0:0:0:
109,192,16918,1,0,0:0:0:0:
182,192,16918,1,0,0:0:0:0:
402,192,16918,1,0,0:0:0:0:
36,192,16918,1,0,0:0:0:0:
475,192,16918,128,0,17263:0:0:0:0:
109,192,17263,1,0,0:0:0:0:
329,192,17263,1,0,0:0:0:0:
402,192,17436,1,0,0:0:0:0:
182,192,17436,1,0,0:0:0:0:
329,192,17608,1,0,0:0:0:0:
109,192,17608,1,0,0:0:0:0:
402,192,17780,1,0,0:0:0:0:
475,192,17780,1,0,0:0:0:0:
329,192,17867,1,0,0:0:0:0:
182,192,17953,128,0,18987:0:0:0:0:
256,192,17953,1,0,0:0:0:0:
109,192,17953,1,0,0:0:0:0:
36,192,17953,1,0,0:0:0:0:
475,192,18298,1,0,0:0:0:0:
329,192,18298,1,0,0:0:0:0:
402,192,18556,1,0,0:0:0:0:
329,192,18642,128,0,18987:0:0:0:0:
256,192,18987,1,0,0:0:0:0:
475,192,19073,1,0,0:0:0:0:
256,192,19160,1,0,0:0:0:0:
36,192,19246,1,0,0:0:0:0:
256,192,19332,1,0,0:0:0:0:
402,192,19504,128,0,20022:0:0:0:0:
475,192,19504,1,0,0:0:0:0:
109,192,19677,128,0,20022:0:0:0:0:
36,192,19677,1,0,0:0:0:0:
182,192,20022,1,0,0:0:0:0:
256,192,20022,1,0,0:0:0:0:
329,192,20194,1,0,0:0:0:0:
475,192,20194,1,0,0:0:0:0:
256,192,20367,1,0,0:0:0:0:
402,192,20367,1,0,0:0:0:0:
329,192,20539,1,0,0:0:0:0:
182,192,20539,1,0,0:0:0:0:
475,192,20539,1,0,0:0:0:0:
109,192,20625,1,0,0:0:0:0:
36,192,20711,1,0,0:0:0:0:
256,192,20711,1,0,0:0:0:0:
402,192,20711,1,0,0:0:0:0:
109,192,20798,1,0,0:0:0:0:
182,192,20884,1,0,0:0:0:0:
256,192,20970,1,0,0:0:0:0:
329,192,21056,128,0,21573:0:0:0:0:
402,192,21056,1,0,0:0:0:0:
475,192,21056,1,0,0:0:0:0:
402,192,21573,1,0,0:0:0:0:
475,192,21660,1,0,0:0:0:0:
402,192,21746,1,0,0:0:0:0:
256,192,21746,1,0,0:0:0:0:
182,192,21746,1,0,0:0:0:0:
329,192,21832,1,0,0:0:0:0:
256,192,21918,1,0,0:0:0:0:
182,192,22004,1,0,0:0:0:0:
109,192,22091,1,0,0:0:0:0:
182,192,22177,1,0,0:0:0:0:
109,192,22263,1,0,0:0:0:0:
36,192,22349,1,0,0:0:0:0:
182,192,22436,128,0,23125:0:0:0:0:
109,192,22436,1,0,0:0:0:0:
256,192,23125,128,0,24504:0:0:0:0:
402,192,23125,128,0,24504:0:0:0:0:
109,192,23298,1,0,0:0:0:0:
36,192,23298,1,0,0:0:0:0:
109,192,23470,1,0,0:0:0:0:
36,192,23470,1,0,0:0:0:0:
36,192,23815,1,0,0:0:0:0:
329,192,23815,1,0,0:0:0:0:
475,192,23815,1,0,0:0:0:0:
109,192,23901,1,0,0:0:0:0:
182,192,23987,1,0,0:0:0:0:
329,192,24073,1,0,0:0:0:0:
36,192,24160,1,0,0:0:0:0:
475,192,24160,1,0,0:0:0:0:
109,192,24246,1,0,0:0:0:0:
182,192,24332,1,0,0:0:0:0:
329,192,24418,1,0,0:0:0:0:
475,192,24504,1,0,0:0:0:0:
36,192,24504,1,0,0:0:0:0:
109,192,24504,1,0,0:0:0:0:
182,192,24849,128,0,25194:0:0:0:0:
329,192,25194,128,0,25539:0:0:0:0:
36,192,25539,128,0,25884:0:0:0:0:
182,192,25884,128,0,26229:0:0:0:0:
402,192,26229,1,0,0:0:0:0:
329,192,26315,1,0,0:0:0:0:
256,192,26401,1,0,0:0:0:0:
182,192,26487,1,0,0:0:0:0:
36,192,26573,128,0,26918:0:0:0:0:
109,192,26573,1,0,0:0:0:0:
109,192,26918,1,0,0:0:0:0:
182,192,27004,1,0,0:0:0:0:
256,192,27091,1,0,0:0:0:0:
329,192,27177,1,0,0:0:0:0:
402,192,27263,1,0,0:0:0:0:
256,192,27263,1,0,0:0:0:0:
182,192,27608,128,0,27953:0:0:0:0:
475,192,27953,128,0,28470:0:0:0:0:
182,192,28470,128,0,28642:0:0:0:0:
329,192,28642,128,0,28987:0:0:0:0:
402,192,28987,1,0,0:0:0:0:
329,192,29073,1,0,0:0:0:0:
256,192,29160,1,0,0:0:0:0:
182,192,29246,1,0,0:0:0:0:
109,192,29332,1,0,0:0:0:0:
256,192,29332,128,0,29677:0:0:0:0:
109,192,29677,1,0,0:0:0:0:
182,192,29763,1,0,0:0:0:0:
256,192,29849,1,0,0:0:0:0:
329,192,29936,1,0,0:0:0:0:
402,192,30022,1,0,0:0:0:0:
256,192,30022,1,0,0:0:0:0:
329,192,30194,1,0,0:0:0:0:
475,192,30367,128,0,30711:0:0:0:0:
256,192,30367,1,0,0:0:0:0:
182,192,30539,1,0,0:0:0:0:
256,192,30711,1,0,0:0:0:0:
109,192,30711,1,0,0:0:0:0:
329,192,30711,128,0,31056:0:0:0:0:
182,192,30884,1,0,0:0:0:0:
109,192,31056,1,0,0:0:0:0:
402,192,31056,128,0,31401:0:0:0:0:
36,192,31229,1,0,0:0:0:0:
475,192,31401,1,0,0:0:0:0:
182,192,31401,1,0,0:0:0:0:
329,192,31401,128,0,31746:0:0:0:0:
109,192,31746,1,0,0:0:0:0:
402,192,31746,1,0,0:0:0:0:
256,192,31746,128,0,32091:0:0:0:0:
36,192,32091,1,0,0:0:0:0:
329,192,32091,1,0,0:0:0:0:
182,192,32091,128,0,32780:0:0:0:0:
256,192,32780,1,0,0:0:0:0:
329,192,32780,1,0,0:0:0:0:
329,192,33125,128,0,33470:0:0:0:0:
182,192,33470,1,0,0:0:0:0:
256,192,33470,1,0,0:0:0:0:
109,192,33470,128,0,33815:0:0:0:0:
256,192,33815,128,0,34160:0:0:0:0:
402,192,34160,128,0,34849:0:0:0:0:
329,192,34160,1,0,0:0:0:0:
182,192,34160,1,0,0:0:0:0:
109,192,34504,1,0,0:0:0:0:
256,192,34504,1,0,0:0:0:0:
329,192,34849,128,0,35539:0:0:0:0:
36,192,34849,1,0,0:0:0:0:
182,192,34849,1,0,0:0:0:0:
109,192,35194,1,0,0:0:0:0:
256,192,35194,1,0,0:0:0:0:
182,192,35539,1,0,0:0:0:0:
36,192,35539,1,0,0:0:0:0:
256,192,35884,128,0,36229:0:0:0:0:
475,192,36229,128,0,36573:0:0:0:0:
36,192,36573,128,0,36918:0:0:0:0:
256,192,36918,128,0,37263:0:0:0:0:
475,192,37263,1,0,0:0:0:0:
402,192,37349,1,0,0:0:0:0:
256,192,37436,1,0,0:0:0:0:
109,192,37522,1,0,0:0:0:0:
36,192,37608,1,0,0:0:0:0:
182,192,37608,128,0,37953:0:0:0:0:
36,192,37953,1,0,0:0:0:0:
109,192,38039,1,0,0:0:0:0:
256,192,38125,1,0,0:0:0:0:
402,192,38211,1,0,0:0:0:0:
475,192,38298,1,0,0:0:0:0:
182,192,38298,1,0,0:0:0:0:
256,192,38642,128,0,38987:0:0:0:0:
475,192,38987,128,0,39504:0:0:0:0:
182,192,39504,128,0,39677:0:0:0:0:
329,192,39677,128,0,40022:0:0:0:0:
256,192,40022,1,0,0:0:0:0:
182,192,40108,1,0,0:0:0:0:
109,192,40194,1,0,0:0:0:0:
36,192,40280,1,0,0:0:0:0:
109,192,40367,1,0,0:0:0:0:
182,192,40367,128,0,40711:0:0:0:0:
109,192,40711,1,0,0:0:0:0:
36,192,40798,1,0,0:0:0:0:
109,192,40884,1,0,0:0:0:0:
182,192,40970,1,0,0:0:0:0:
256,192,41056,1,0,0:0:0:0:
402,192,41056,1,0,0:0:0:0:
329,192,41401,128,0,41746:0:0:0:0:
36,192,41746,128,0,42091:0:0:0:0:
109,192,41746,1,0,0:0:0:0:
182,192,41746,1,0,0:0:0:0:
475,192,42091,128,0,42436:0:0:0:0:
329,192,42436,128,0,43125:0:0:0:0:
182,192,42436,1,0,0:0:0:0:
256,192,42436,1,0,0:0:0:0:
256,192,43125,128,0,43470:0:0:0:0:
109,192,43125,1,0,0:0:0:0:
182,192,43125,1,0,0:0:0:0:
182,192,43470,128,0,43815:0:0:0:0:
36,192,43815,128,0,44504:0:0:0:0:
109,192,43815,1,0,0:0:0:0:
256,192,43815,1,0,0:0:0:0:
109,192,44504,128,0,45194:0:0:0:0:
402,192,44504,128,0,45194:0:0:0:0:
182,192,44504,1,0,0:0:0:0:
329,192,44504,1,0,0:0:0:0:
36,192,45194,128,0,45539:0:0:0:0:
475,192,45194,128,0,45539:0:0:0:0:
256,192,45194,128,0,45884:0:0:0:0:
182,192,45539,1,0,0:0:0:0:
329,192,45539,1,0,0:0:0:0:
36,192,45884,1,0,0:0:0:0:
109,192,45884,1,0,0:0:0:0:
402,192,45884,1,0,0:0:0:0:
475,192,45884,1,0,0:0:0:0:
109,192,46573,1,0,0:0:0:0:
182,192,46573,1,0,0:0:0:0:
329,192,46573,1,0,0:0:0:0:
402,192,46573,1,0,0:0:0:0:
36,192,46573,128,0,46918:0:0:0:0:
475,192,46573,128,0,46918:0:0:0:0:
182,192,46918,1,0,0:0:0:0:
329,192,46918,1,0,0:0:0:0:
109,192,46918,1,0,0:0:0:0:
256,192,47091,1,0,0:0:0:0:
402,192,47091,1,0,0:0:0:0:
329,192,47263,1,0,0:0:0:0:
182,192,47263,1,0,0:0:0:0:
256,192,47436,1,0,0:0:0:0:
109,192,47436,1,0,0:0:0:0:
182,192,47608,1,0,0:0:0:0:
329,192,47608,1,0,0:0:0:0:
36,192,47608,1,0,0:0:0:0:
256,192,47780,1,0,0:0:0:0:
402,192,47780,1,0,0:0:0:0:
329,192,47953,1,0,0:0:0:0:
475,192,47953,1,0,0:0:0:0:
182,192,47953,1,0,0:0:0:0:
256,192,48125,1,0,0:0:0:0:
36,192,48298,1,0,0:0:0:0:
109,192,48298,1,0,0:0:0:0:
256,192,48470,128,0,49332:0:0:0:0:
182,192,48470,1,0,0:0:0:0:
329,192,48470,1,0,0:0:0:0:
109,192,48642,1,0,0:0:0:0:
402,192,48642,1,0,0:0:0:0:
182,192,48815,1,0,0:0:0:0:
329,192,48815,1,0,0:0:0:0:
36,192,48987,1,0,0:0:0:0:
475,192,48987,1,0,0:0:0:0:
402,192,49160,1,0,0:0:0:0:
109,192,49160,1,0,0:0:0:0:
182,192,49332,1,0,0:0:0:0:
329,192,49332,1,0,0:0:0:0:
36,192,49504,1,0,0:0:0:0:
475,192,49504,1,0,0:0:0:0:
182,192,49677,128,0,49720:0:0:0:0:
329,192,49677,128,0,49720:0:0:0:0:
256,192,49677,1,0,0:0:0:0:
109,192,49849,128,0,49892:0:0:0:0:
402,192,49849,128,0,49892:0:0:0:0:
36,192,50022,128,0,50065:0:0:0:0:
475,192,50022,128,0,50065:0:0:0:0:
109,192,50194,128,0,50237:0:0:0:0:
402,192,50194,128,0,50237:0:0:0:0:
182,192,50194,1,0,0:0:0:0:
329,192,50194,1,0,0:0:0:0:
256,192,50367,128,0,50410:0:0:0:0:
36,192,50367,1,0,0:0:0:0:
475,192,50367,1,0,0:0:0:0:
182,192,50539,128,0,50582:0:0:0:0:
329,192,50539,128,0,50582:0:0:0:0:
109,192,50539,1,0,0:0:0:0:
402,192,50539,1,0,0:0:0:0:
475,192,50711,128,0,50884:0:0:0:0:
36,192,50884,128,0,51056:0:0:0:0:
402,192,51056,128,0,51229:0:0:0:0:
109,192,51229,128,0,51401:0:0:0:0:
329,192,51401,128,0,52091:0:0:0:0:
182,192,51401,128,0,52091:0:0:0:0:
256,192,51573,1,0,0:0:0:0:
402,192,51660,1,0,0:0:0:0:
109,192,51660,1,0,0:0:0:0:
36,192,51746,1,0,0:0:0:0:
475,192,51746,1,0,0:0:0:0:
109,192,51918,1,0,0:0:0:0:
402,192,51918,1,0,0:0:0:0:
256,192,52091,1,0,0:0:0:0:
475,192,52091,128,0,52436:0:0:0:0:
36,192,52091,128,0,52436:0:0:0:0:
182,192,52263,1,0,0:0:0:0:
329,192,52263,1,0,0:0:0:0:
109,192,52436,1,0,0:0:0:0:
402,192,52436,1,0,0:0:0:0:
182,192,52608,1,0,0:0:0:0:
329,192,52608,1,0,0:0:0:0:
109,192,52780,128,0,52867:0:0:0:0:
402,192,52780,128,0,52867:0:0:0:0:
182,192,52867,128,0,52953:0:0:0:0:
329,192,52867,128,0,52953:0:0:0:0:
109,192,52953,128,0,53039:0:0:0:0:
402,192,52953,128,0,53039:0:0:0:0:
182,192,53125,1,0,0:0:0:0:
329,192,53125,1,0,0:0:0:0:
256,192,53125,1,0,0:0:0:0:
36,192,53298,1,0,0:0:0:0:
475,192,53298,1,0,0:0:0:0:
182,192,53470,1,0,0:0:0:0:
109,192,53470,1,0,0:0:0:0:
329,192,53470,1,0,0:0:0:0:
402,192,53470,1,0,0:0:0:0:
182,192,53815,1,0,0:0:0:0:
329,192,53815,1,0,0:0:0:0:
402,192,53815,1,0,0:0:0:0:
109,192,53815,1,0,0:0:0:0:
256,192,53987,128,0,54849:0:0:0:0:
475,192,53987,1,0,0:0:0:0:
329,192,54160,1,0,0:0:0:0:
182,192,54332,1,0,0:0:0:0:
36,192,54504,1,0,0:0:0:0:
475,192,54504,1,0,0:0:0:0:
329,192,54677,1,0,0:0:0:0:
182,192,54677,1,0,0:0:0:0:
36,192,54849,1,0,0:0:0:0:
402,192,54849,1,0,0:0:0:0:
475,192,54849,1,0,0:0:0:0:
109,192,54849,1,0,0:0:0:0:
182,192,55022,1,0,0:0:0:0:
329,192,55022,1,0,0:0:0:0:
182,192,55194,1,0,0:0:0:0:
36,192,55194,1,0,0:0:0:0:
475,192,55280,1,0,0:0:0:0:
329,192,55280,1,0,0:0:0:0:
182,192,55367,1,0,0:0:0:0:
36,192,55367,1,0,0:0:0:0:
475,192,55453,1,0,0:0:0:0:
329,192,55453,1,0,0:0:0:0:
36,192,55539,1,0,0:0:0:0:
182,192,55539,1,0,0:0:0:0:
109,192,55711,1,0,0:0:0:0:
256,192,55711,1,0,0:0:0:0:
402,192,55711,1,0,0:0:0:0:
182,192,55884,1,0,0:0:0:0:
329,192,55884,1,0,0:0:0:0:
475,192,55884,1,0,0:0:0:0:
256,192,56056,1,0,0:0:0:0:
402,192,56056,1,0,0:0:0:0:
36,192,56056,1,0,0:0:0:0:
475,192,56229,1,0,0:0:0:0:
109,192,56229,1,0,0:0:0:0:
329,192,56229,1,0,0:0:0:0:
256,192,56229,128,0,56401:0:0:0:0:
402,192,56229,128,0,56401:0:0:0:0:
36,192,56401,1,0,0:0:0:0:
475,192,56573,1,0,0:0:0:0:
109,192,56573,1,0,0:0:0:0:
182,192,56573,128,0,56746:0:0:0:0:
329,192,56573,128,0,56746:0:0:0:0:
475,192,56746,1,0,0:0:0:0:
36,192,56746,1,0,0:0:0:0:
402,192,56918,1,0,0:0:0:0:
36,192,56918,1,0,0:0:0:0:
109,192,56918,128,0,57091:0:0:0:0:
256,192,56918,128,0,57091:0:0:0:0:
475,192,57004,1,0,0:0:0:0:
402,192,57091,1,0,0:0:0:0:
475,192,57177,1,0,0:0:0:0:
402,192,57263,1,0,0:0:0:0:
329,192,57263,128,0,57608:0:0:0:0:
182,192,57263,128,0,57608:0:0:0:0:
36,192,57263,1,0,0:0:0:0:
402,192,57608,128,0,57953:0:0:0:0:
182,192,57953,1,0,0:0:0:0:
109,192,57953,1,0,0:0:0:0:
256,192,57953,1,0,0:0:0:0:
256,192,58125,128,0,58298:0:0:0:0:
402,192,58125,1,0,0:0:0:0:
329,192,58298,1,0,0:0:0:0:
109,192,58298,128,0,58642:0:0:0:0:
256,192,58470,1,0,0:0:0:0:
182,192,58642,1,0,0:0:0:0:
329,192,58642,1,0,0:0:0:0:
109,192,58815,1,0,0:0:0:0:
182,192,58987,1,0,0:0:0:0:
256,192,58987,1,0,0:0:0:0:
329,192,58987,1,0,0:0:0:0:
36,192,58987,128,0,60367:0:0:0:0:
109,192,59160,1,0,0:0:0:0:
402,192,59160,1,0,0:0:0:0:
182,192,59332,1,0,0:0:0:0:
475,192,59332,1,0,0:0:0:0:
256,192,59504,1,0,0:0:0:0:
402,192,59504,1,0,0:0:0:0:
109,192,59677,1,0,0:0:0:0:
329,192,59677,1,0,0:0:0:0:
182,192,59849,1,0,0:0:0:0:
402,192,59849,1,0,0:0:0:0:
256,192,60022,1,0,0:0:0:0:
475,192,60022,1,0,0:0:0:0:
109,192,60022,128,0,60367:0:0:0:0:
182,192,60194,128,0,60367:0:0:0:0:
329,192,60194,1,0,0:0:0:0:
402,192,60194,1,0,0:0:0:0:
256,192,60367,1,0,0:0:0:0:
475,192,60367,128,0,60711:0:0:0:0:
329,192,60539,1,0,0:0:0:0:
256,192,60711,1,0,0:0:0:0:
402,192,60711,1,0,0:0:0:0:
109,192,60711,1,0,0:0:0:0:
182,192,60884,1,0,0:0:0:0:
329,192,60884,1,0,0:0:0:0:
256,192,61056,128,0,61746:0:0:0:0:
109,192,61056,1,0,0:0:0:0:
402,192,61056,1,0,0:0:0:0:
182,192,61229,1,0,0:0:0:0:
329,192,61229,1,0,0:0:0:0:
36,192,61401,1,0,0:0:0:0:
109,192,61401,1,0,0:0:0:0:
402,192,61401,1,0,0:0:0:0:
475,192,61401,1,0,0:0:0:0:
109,192,61573,1,0,0:0:0:0:
402,192,61573,1,0,0:0:0:0:
182,192,61746,1,0,0:0:0:0:
329,192,61746,1,0,0:0:0:0:
256,192,61918,1,0,0:0:0:0:
109,192,61918,1,0,0:0:0:0:
475,192,61918,1,0,0:0:0:0:
36,192,62091,1,0,0:0:0:0:
182,192,62091,1,0,0:0:0:0:
402,192,62091,1,0,0:0:0:0:
256,192,62263,1,0,0:0:0:0:
109,192,62263,1,0,0:0:0:0:
475,192,62263,1,0,0:0:0:0:
182,192,62436,1,0,0:0:0:0:
36,192,62436,1,0,0:0:0:0:
402,192,62436,1,0,0:0:0:0:
256,192,62608,1,0,0:0:0:0:
109,192,62608,1,0,0:0:0:0:
475,192,62608,1,0,0:0:0:0:
402,192,62694,1,0,0:0:0:0:
329,192,62780,1,0,0:0:0:0:
182,192,62780,1,0,0:0:0:0:
109,192,62867,1,0,0:0:0:0:
256,192,62953,1,0,0:0:0:0:
402,192,62953,1,0,0:0:0:0:
36,192,62953,1,0,0:0:0:0:
109,192,63125,1,0,0:0:0:0:
329,192,63125,1,0,0:0:0:0:
182,192,63125,128,0,63470:0:0:0:0:
256,192,63298,1,0,0:0:0:0:
329,192,63470,1,0,0:0:0:0:
402,192,63470,1,0,0:0:0:0:
256,192,63642,1,0,0:0:0:0:
182,192,63815,1,0,0:0:0:0:
36,192,63815,1,0,0:0:0:0:
329,192,63901,1,0,0:0:0:0:
475,192,63901,1,0,0:0:0:0:
182,192,63987,1,0,0:0:0:0:
36,192,63987,1,0,0:0:0:0:
329,192,64073,1,0,0:0:0:0:
475,192,64073,1,0,0:0:0:0:
109,192,64160,1,0,0:0:0:0:
402,192,64160,1,0,0:0:0:0:
256,192,64160,1,0,0:0:0:0:
182,192,64332,1,0,0:0:0:0:
329,192,64332,1,0,0:0:0:0:
36,192,64504,1,0,0:0:0:0:
475,192,64504,1,0,0:0:0:0:
256,192,64504,128,0,65884:0:0:0:0:
109,192,64677,1,0,0:0:0:0:
402,192,64677,1,0,0:0:0:0:
475,192,64849,1,0,0:0:0:0:
36,192,64849,1,0,0:0:0:0:
182,192,65022,1,0,0:0:0:0:
329,192,65022,1,0,0:0:0:0:
109,192,65194,1,0,0:0:0:0:
402,192,65194,1,0,0:0:0:0:
36,192,65367,1,0,0:0:0:0:
475,192,65367,1,0,0:0:0:0:
182,192,65367,1,0,0:0:0:0:
329,192,65367,1,0,0:0:0:0:
109,192,65539,1,0,0:0:0:0:
402,192,65539,1,0,0:0:0:0:
182,192,65539,1,0,0:0:0:0:
329,192,65539,1,0,0:0:0:0:
36,192,65711,1,0,0:0:0:0:
475,192,65711,1,0,0:0:0:0:
182,192,65884,1,0,0:0:0:0:
329,192,65884,1,0,0:0:0:0:
402,192,65884,128,0,66229:0:0:0:0:
109,192,65884,128,0,66229:0:0:0:0:
256,192,66056,1,0,0:0:0:0:
182,192,66229,1,0,0:0:0:0:
329,192,66229,1,0,0:0:0:0:
256,192,66401,1,0,0:0:0:0:
475,192,66573,1,0,0:0:0:0:
182,192,66573,1,0,0:0:0:0:
109,192,66660,1,0,0:0:0:0:
402,192,66660,1,0,0:0:0:0:
36,192,66746,1,0,0:0:0:0:
329,192,66746,1,0,0:0:0:0:
109,192,66832,1,0,0:0:0:0:
256,192,66832,1,0,0:0:0:0:
182,192,66918,1,0,0:0:0:0:
475,192,66918,1,0,0:0:0:0:
109,192,67091,1,0,0:0:0:0:
402,192,67091,1,0,0:0:0:0:
182,192,67263,128,0,68642:0:0:0:0:
329,192,67263,128,0,68642:0:0:0:0:
256,192,67953,128,0,68642:0:0:0:0:
109,192,68642,128,0,70022:0:0:0:0:
402,192,68642,128,0,70022:0:0:0:0:
475,192,69332,128,0,70022:0:0:0:0:
182,192,69332,1,0,0:0:0:0:
256,192,69332,1,0,0:0:0:0:
329,192,69504,1,0,0:0:0:0:
256,192,69677,1,0,0:0:0:0:
329,192,69849,1,0,0:0:0:0:
256,192,70022,1,0,0:0:0:0:
36,192,70022,128,0,71401:0:0:0:0:
182,192,70194,1,0,0:0:0:0:
256,192,70194,1,0,0:0:0:0:
329,192,70194,1,0,0:0:0:0:
182,192,70367,1,0,0:0:0:0:
256,192,70367,1,0,0:0:0:0:
329,192,70367,1,0,0:0:0:0:
475,192,70711,1,0,0:0:0:0:
402,192,70798,1,0,0:0:0:0:
329,192,70884,1,0,0:0:0:0:
256,192,70970,1,0,0:0:0:0:
475,192,70970,1,0,0:0:0:0:
402,192,71056,1,0,0:0:0:0:
182,192,71056,1,0,0:0:0:0:
329,192,71142,1,0,0:0:0:0:
109,192,71142,1,0,0:0:0:0:
256,192,71229,1,0,0:0:0:0:
182,192,71315,1,0,0:0:0:0:
109,192,71401,1,0,0:0:0:0:
256,192,71401,128,0,72091:0:0:0:0:
329,192,71401,1,0,0:0:0:0:
402,192,71401,1,0,0:0:0:0:
475,192,72091,128,0,72780:0:0:0:0:
109,192,72091,1,0,0:0:0:0:
182,192,72091,1,0,0:0:0:0:
402,192,72177,1,0,0:0:0:0:
109,192,72263,1,0,0:0:0:0:
402,192,72349,1,0,0:0:0:0:
109,192,72436,1,0,0:0:0:0:
402,192,72522,1,0,0:0:0:0:
109,192,72608,1,0,0:0:0:0:
402,192,72694,1,0,0:0:0:0:
109,192,72780,1,0,0:0:0:0:
329,192,72780,128,0,73470:0:0:0:0:
182,192,72780,128,0,73470:0:0:0:0:
256,192,72953,1,0,0:0:0:0:
36,192,72953,1,0,0:0:0:0:
475,192,72953,1,0,0:0:0:0:
256,192,73125,1,0,0:0:0:0:
36,192,73125,1,0,0:0:0:0:
475,192,73125,1,0,0:0:0:0:
256,192,73470,128,0,74160:0:0:0:0:
182,192,73642,1,0,0:0:0:0:
329,192,73642,1,0,0:0:0:0:
182,192,73815,1,0,0:0:0:0:
329,192,73815,1,0,0:0:0:0:
475,192,74160,128,0,74849:0:0:0:0:
109,192,74160,1,0,0:0:0:0:
402,192,74160,1,0,0:0:0:0:
329,192,74504,1,0,0:0:0:0:
36,192,74504,1,0,0:0:0:0:
256,192,74677,1,0,0:0:0:0:
182,192,74849,1,0,0:0:0:0:
109,192,74849,1,0,0:0:0:0:
329,192,74849,1,0,0:0:0:0:
36,192,74849,128,0,75539:0:0:0:0:
256,192,75022,1,0,0:0:0:0:
402,192,75022,1,0,0:0:0:0:
182,192,75194,1,0,0:0:0:0:
329,192,75194,1,0,0:0:0:0:
256,192,75367,1,0,0:0:0:0:
402,192,75367,1,0,0:0:0:0:
475,192,75539,1,0,0:0:0:0:
329,192,75539,1,0,0:0:0:0:
402,192,75711,1,0,0:0:0:0:
109,192,75711,1,0,0:0:0:0:
256,192,75711,1,0,0:0:0:0:
109,192,75884,1,0,0:0:0:0:
402,192,75884,1,0,0:0:0:0:
256,192,75884,1,0,0:0:0:0:
256,192,76229,128,0,76573:0:0:0:0:
109,192,76229,1,0,0:0:0:0:
329,192,76229,1,0,0:0:0:0:
182,192,76229,1,0,0:0:0:0:
402,192,76229,1,0,0:0:0:0:
475,192,76573,128,0,76918:0:0:0:0:
402,192,76573,1,0,0:0:0:0:
329,192,76573,1,0,0:0:0:0:
36,192,76918,128,0,79677:0:0:0:0:
402,192,76918,128,0,77436:0:0:0:0:
109,192,76918,1,0,0:0:0:0:
256,192,76918,1,0,0:0:0:0:
329,192,76918,1,0,0:0:0:0:
329,192,77436,128,0,77608:0:0:0:0:
256,192,77608,128,0,78125:0:0:0:0:
182,192,78125,128,0,78298:0:0:0:0:
109,192,78298,128,0,78987:0:0:0:0:
329,192,78298,1,0,0:0:0:0:
256,192,78384,1,0,0:0:0:0:
182,192,78470,1,0,0:0:0:0:
329,192,78470,1,0,0:0:0:0:
402,192,78642,1,0,0:0:0:0:
256,192,78642,1,0,0:0:0:0:
329,192,78815,1,0,0:0:0:0:
475,192,78815,1,0,0:0:0:0:
256,192,78987,128,0,79677:0:0:0:0:
402,192,78987,1,0,0:0:0:0:
182,192,78987,1,0,0:0:0:0:
182,192,79160,1,0,0:0:0:0:
475,192,79160,1,0,0:0:0:0:
329,192,79332,1,0,0:0:0:0:
475,192,79332,1,0,0:0:0:0:
402,192,79504,1,0,0:0:0:0:
475,192,79504,1,0,0:0:0:0:
109,192,79677,1,0,0:0:0:0:
182,192,79677,1,0,0:0:0:0:
329,192,79677,128,0,80194:0:0:0:0:
402,192,80194,128,0,80367:0:0:0:0:
329,192,80367,128,0,80884:0:0:0:0:
109,192,80367,1,0,0:0:0:0:
182,192,80367,1,0,0:0:0:0:
256,192,80367,1,0,0:0:0:0:
256,192,80884,128,0,81056:0:0:0:0:
402,192,81056,1,0,0:0:0:0:
475,192,81056,1,0,0:0:0:0:
182,192,81056,128,0,81401:0:0:0:0:
329,192,81229,1,0,0:0:0:0:
256,192,81229,1,0,0:0:0:0:
109,192,81401,1,0,0:0:0:0:
36,192,81401,1,0,0:0:0:0:
402,192,81746,1,0,0:0:0:0:
475,192,81746,1,0,0:0:0:0:
36,192,81746,1,0,0:0:0:0:
109,192,81861,1,0,0:0:0:0:
182,192,81976,1,0,0:0:0:0:
329,192,82091,1,0,0:0:0:0:
182,192,82206,1,0,0:0:0:0:
329,192,82321,1,0,0:0:0:0:
256,192,82436,128,0,82953:0:0:0:0:
402,192,82436,1,0,0:0:0:0:
475,192,82436,1,0,0:0:0:0:
182,192,82953,128,0,83125:0:0:0:0:
109,192,83125,128,0,83642:0:0:0:0:
329,192,83125,1,0,0:0:0:0:
256,192,83125,1,0,0:0:0:0:
402,192,83125,1,0,0:0:0:0:
182,192,83642,128,0,83815:0:0:0:0:
36,192,83815,128,0,85194:0:0:0:0:
329,192,83815,1,0,0:0:0:0:
256,192,83930,1,0,0:0:0:0:
182,192,84045,1,0,0:0:0:0:
109,192,84160,1,0,0:0:0:0:
402,192,84160,1,0,0:0:0:0:
475,192,84160,1,0,0:0:0:0:
182,192,84275,1,0,0:0:0:0:
256,192,84390,1,0,0:0:0:0:
182,192,84504,1,0,0:0:0:0:
109,192,84504,1,0,0:0:0:0:
329,192,84504,1,0,0:0:0:0:
182,192,84677,1,0,0:0:0:0:
256,192,84677,1,0,0:0:0:0:
256,192,84849,1,0,0:0:0:0:
329,192,84849,1,0,0:0:0:0:
329,192,85022,1,0,0:0:0:0:
402,192,85022,1,0,0:0:0:0:
475,192,85194,128,0,85539:0:0:0:0:
402,192,85194,1,0,0:0:0:0:
256,192,85539,128,0,85884:0:0:0:0:
36,192,85884,128,0,86229:0:0:0:0:
475,192,86229,128,0,86573:0:0:0:0:
182,192,86573,128,0,86918:0:0:0:0:
329,192,86573,1,0,0:0:0:0:
402,192,86688,1,0,0:0:0:0:
475,192,86803,1,0,0:0:0:0:
402,192,86918,1,0,0:0:0:0:
329,192,87033,1,0,0:0:0:0:
256,192,87148,1,0,0:0:0:0:
36,192,87263,1,0,0:0:0:0:
182,192,87263,1,0,0:0:0:0:
402,192,87263,128,0,87436:0:0:0:0:
109,192,87263,1,0,0:0:0:0:
329,192,87436,128,0,87608:0:0:0:0:
256,192,87608,128,0,87780:0:0:0:0:
329,192,87780,128,0,87953:0:0:0:0:
182,192,87953,128,0,88642:0:0:0:0:
475,192,87953,1,0,0:0:0:0:
36,192,87953,1,0,0:0:0:0:
109,192,87953,1,0,0:0:0:0:
402,192,88068,1,0,0:0:0:0:
329,192,88183,1,0,0:0:0:0:
256,192,88298,1,0,0:0:0:0:
109,192,88413,1,0,0:0:0:0:
256,192,88527,1,0,0:0:0:0:
36,192,88642,128,0,89332:0:0:0:0:
329,192,88642,1,0,0:0:0:0:
402,192,88642,1,0,0:0:0:0:
475,192,88642,1,0,0:0:0:0:
256,192,88757,1,0,0:0:0:0:
329,192,88872,1,0,0:0:0:0:
402,192,88987,1,0,0:0:0:0:
475,192,89102,1,0,0:0:0:0:
402,192,89217,1,0,0:0:0:0:
109,192,89332,128,0,90022:0:0:0:0:
329,192,89332,1,0,0:0:0:0:
256,192,89332,1,0,0:0:0:0:
402,192,89447,1,0,0:0:0:0:
475,192,89562,1,0,0:0:0:0:
182,192,89677,1,0,0:0:0:0:
329,192,89677,1,0,0:0:0:0:
402,192,89677,1,0,0:0:0:0:
256,192,89792,1,0,0:0:0:0:
329,192,89907,1,0,0:0:0:0:
256,192,90022,128,0,90711:0:0:0:0:
182,192,90022,1,0,0:0:0:0:
36,192,90022,1,0,0:0:0:0:
402,192,90022,1,0,0:0:0:0:
329,192,90137,1,0,0:0:0:0:
182,192,90252,1,0,0:0:0:0:
109,192,90367,1,0,0:0:0:0:
182,192,90481,1,0,0:0:0:0:
329,192,90596,1,0,0:0:0:0:
36,192,90711,1,0,0:0:0:0:
402,192,90711,1,0,0:0:0:0:
182,192,90711,1,0,0:0:0:0:
329,192,90826,1,0,0:0:0:0:
475,192,90826,1,0,0:0:0:0:
36,192,90941,1,0,0:0:0:0:
182,192,90941,1,0,0:0:0:0:
329,192,91056,1,0,0:0:0:0:
402,192,91056,1,0,0:0:0:0:
256,192,91056,128,0,91401:0:0:0:0:
36,192,91401,1,0,0:0:0:0:
329,192,91401,1,0,0:0:0:0:
182,192,91516,1,0,0:0:0:0:
475,192,91516,1,0,0:0:0:0:
109,192,91631,1,0,0:0:0:0:
402,192,91631,1,0,0:0:0:0:
182,192,91746,1,0,0:0:0:0:
475,192,91746,1,0,0:0:0:0:
109,192,91861,1,0,0:0:0:0:
402,192,91861,1,0,0:0:0:0:
182,192,91976,1,0,0:0:0:0:
475,192,91976,1,0,0:0:0:0:
256,192,92091,128,0,93470:0:0:0:0:
36,192,92091,1,0,0:0:0:0:
329,192,92091,1,0,0:0:0:0:
109,192,92263,1,0,0:0:0:0:
402,192,92263,1,0,0:0:0:0:
109,192,92436,1,0,0:0:0:0:
402,192,92436,1,0,0:0:0:0:
36,192,92780,1,0,0:0:0:0:
109,192,92780,1,0,0:0:0:0:
402,192,92780,1,0,0:0:0:0:
475,192,92780,1,0,0:0:0:0:
329,192,92953,1,0,0:0:0:0:
182,192,92953,1,0,0:0:0:0:
182,192,93125,1,0,0:0:0:0:
329,192,93125,1,0,0:0:0:0:
109,192,93470,1,0,0:0:0:0:
402,192,93470,1,0,0:0:0:0:
36,192,93585,1,0,0:0:0:0:
475,192,93585,1,0,0:0:0:0:
109,192,93700,1,0,0:0:0:0:
402,192,93700,1,0,0:0:0:0:
182,192,93815,1,0,0:0:0:0:
329,192,93815,1,0,0:0:0:0:
256,192,93815,128,0,94160:0:0:0:0:
36,192,94160,1,0,0:0:0:0:
109,192,94160,1,0,0:0:0:0:
402,192,94160,1,0,0:0:0:0:
475,192,94160,1,0,0:0:0:0:
182,192,94275,1,0,0:0:0:0:
329,192,94275,1,0,0:0:0:0:
36,192,94390,1,0,0:0:0:0:
475,192,94390,1,0,0:0:0:0:
109,192,94504,1,0,0:0:0:0:
402,192,94504,1,0,0:0:0:0:
36,192,94619,1,0,0:0:0:0:
475,192,94619,1,0,0:0:0:0:
182,192,94734,1,0,0:0:0:0:
329,192,94734,1,0,0:0:0:0:
36,192,94849,1,0,0:0:0:0:
475,192,94849,1,0,0:0:0:0:
256,192,94849,128,0,95539:0:0:0:0:
109,192,95022,1,0,0:0:0:0:
402,192,95022,1,0,0:0:0:0:
182,192,95194,1,0,0:0:0:0:
329,192,95194,1,0,0:0:0:0:
36,192,95539,1,0,0:0:0:0:
475,192,95539,1,0,0:0:0:0:
182,192,95539,1,0,0:0:0:0:
329,192,95539,1,0,0:0:0:0:
109,192,95711,1,0,0:0:0:0:
256,192,95711,1,0,0:0:0:0:
182,192,95884,1,0,0:0:0:0:
329,192,95884,1,0,0:0:0:0:
256,192,96056,1,0,0:0:0:0:
402,192,96056,1,0,0:0:0:0:
475,192,96229,1,0,0:0:0:0:
329,192,96229,1,0,0:0:0:0:
36,192,96344,1,0,0:0:0:0:
182,192,96344,1,0,0:0:0:0:
329,192,96458,1,0,0:0:0:0:
475,192,96458,1,0,0:0:0:0:
36,192,96573,1,0,0:0:0:0:
182,192,96573,1,0,0:0:0:0:
256,192,96573,128,0,96918:0:0:0:0:
182,192,96918,1,0,0:0:0:0:
36,192,96918,1,0,0:0:0:0:
329,192,97033,1,0,0:0:0:0:
475,192,97033,1,0,0:0:0:0:
36,192,97148,1,0,0:0:0:0:
182,192,97148,1,0,0:0:0:0:
329,192,97263,1,0,0:0:0:0:
475,192,97263,1,0,0:0:0:0:
36,192,97378,1,0,0:0:0:0:
182,192,97378,1,0,0:0:0:0:
329,192,97493,1,0,0:0:0:0:
475,192,97493,1,0,0:0:0:0:
36,192,97608,1,0,0:0:0:0:
182,192,97608,1,0,0:0:0:0:
256,192,97608,128,0,98298:0:0:0:0:
402,192,97780,1,0,0:0:0:0:
109,192,97780,1,0,0:0:0:0:
109,192,97953,1,0,0:0:0:0:
402,192,97953,1,0,0:0:0:0:
36,192,98298,1,0,0:0:0:0:
182,192,98298,1,0,0:0:0:0:
329,192,98298,1,0,0:0:0:0:
475,192,98298,1,0,0:0:0:0:
109,192,98470,1,0,0:0:0:0:
402,192,98470,1,0,0:0:0:0:
109,192,98642,1,0,0:0:0:0:
402,192,98642,1,0,0:0:0:0:
402,192,98987,1,0,0:0:0:0:
329,192,98987,1,0,0:0:0:0:
475,192,98987,1,0,0:0:0:0:
182,192,99102,1,0,0:0:0:0:
109,192,99102,1,0,0:0:0:0:
36,192,99102,1,0,0:0:0:0:
402,192,99217,1,0,0:0:0:0:
329,192,99217,1,0,0:0:0:0:
475,192,99217,1,0,0:0:0:0:
182,192,99332,1,0,0:0:0:0:
109,192,99332,1,0,0:0:0:0:
36,192,99332,1,0,0:0:0:0:
36,192,99677,1,0,0:0:0:0:
329,192,99677,1,0,0:0:0:0:
256,192,99677,128,0,100367:0:0:0:0:
182,192,99792,1,0,0:0:0:0:
475,192,99792,1,0,0:0:0:0:
36,192,99907,1,0,0:0:0:0:
329,192,99907,1,0,0:0:0:0:
402,192,100022,1,0,0:0:0:0:
109,192,100022,1,0,0:0:0:0:
329,192,100137,1,0,0:0:0:0:
36,192,100137,1,0,0:0:0:0:
475,192,100252,1,0,0:0:0:0:
182,192,100252,1,0,0:0:0:0:
36,192,100367,1,0,0:0:0:0:
329,192,100367,1,0,0:0:0:0:
109,192,100367,1,0,0:0:0:0:
402,192,100367,1,0,0:0:0:0:
109,192,100711,1,0,0:0:0:0:
256,192,100711,1,0,0:0:0:0:
402,192,100711,1,0,0:0:0:0:
182,192,101056,1,0,0:0:0:0:
329,192,101056,1,0,0:0:0:0:
256,192,101401,1,0,0:0:0:0:
36,192,101746,1,0,0:0:0:0:
109,192,101746,1,0,0:0:0:0:
402,192,101746,1,0,0:0:0:0:
475,192,101746,1,0,0:0:0:0:
256,192,101746,1,0,0:0:0:0:
329,192,101832,1,0,0:0:0:0:
256,192,101918,1,0,0:0:0:0:
182,192,102004,1,0,0:0:0:0:
256,192,102091,1,0,0:0:0:0:
109,192,102263,1,0,0:0:0:0:
329,192,102436,128,0,102780:0:0:0:0:
402,192,102780,1,0,0:0:0:0:
475,192,102867,1,0,0:0:0:0:
402,192,102953,1,0,0:0:0:0:
329,192,103039,1,0,0:0:0:0:
402,192,103125,1,0,0:0:0:0:
182,192,103298,1,0,0:0:0:0:
36,192,103470,128,0,104160:0:0:0:0:
402,192,103470,1,0,0:0:0:0:
475,192,103556,1,0,0:0:0:0:
402,192,103642,1,0,0:0:0:0:
329,192,103729,1,0,0:0:0:0:
402,192,103815,1,0,0:0:0:0:
329,192,103901,1,0,0:0:0:0:
256,192,103987,1,0,0:0:0:0:
182,192,104073,1,0,0:0:0:0:
109,192,104160,1,0,0:0:0:0:
182,192,104246,1,0,0:0:0:0:
256,192,104332,1,0,0:0:0:0:
329,192,104418,1,0,0:0:0:0:
402,192,104504,1,0,0:0:0:0:
182,192,104504,1,0,0:0:0:0:
256,192,104591,1,0,0:0:0:0:
182,192,104677,1,0,0:0:0:0:
109,192,104763,1,0,0:0:0:0:
182,192,104849,1,0,0:0:0:0:
256,192,105022,1,0,0:0:0:0:
329,192,105194,128,0,105539:0:0:0:0:
182,192,105539,1,0,0:0:0:0:
475,192,105711,1,0,0:0:0:0:
329,192,105884,1,0,0:0:0:0:
256,192,106142,1,0,0:0:0:0:
182,192,106229,128,0,107263:0:0:0:0:
475,192,106229,1,0,0:0:0:0:
402,192,106315,1,0,0:0:0:0:
329,192,106401,1,0,0:0:0:0:
256,192,106487,1,0,0:0:0:0:
402,192,106573,1,0,0:0:0:0:
329,192,106660,1,0,0:0:0:0:
256,192,106746,1,0,0:0:0:0:
109,192,106832,1,0,0:0:0:0:
36,192,106918,1,0,0:0:0:0:
109,192,107004,1,0,0:0:0:0:
256,192,107091,1,0,0:0:0:0:
329,192,107177,1,0,0:0:0:0:
402,192,107263,1,0,0:0:0:0:
256,192,107263,1,0,0:0:0:0:
329,192,107349,1,0,0:0:0:0:
256,192,107436,1,0,0:0:0:0:
182,192,107522,1,0,0:0:0:0:
256,192,107608,1,0,0:0:0:0:
402,192,107780,1,0,0:0:0:0:
329,192,107953,128,0,108298:0:0:0:0:
36,192,108298,1,0,0:0:0:0:
402,192,108470,1,0,0:0:0:0:
256,192,108642,1,0,0:0:0:0:
182,192,108815,1,0,0:0:0:0:
109,192,108901,1,0,0:0:0:0:
36,192,108987,1,0,0:0:0:0:
109,192,109073,1,0,0:0:0:0:
182,192,109160,1,0,0:0:0:0:
256,192,109246,1,0,0:0:0:0:
329,192,109332,1,0,0:0:0:0:
402,192,109332,128,0,109849:0:0:0:0:
256,192,109849,1,0,0:0:0:0:
475,192,109936,1,0,0:0:0:0:
329,192,110022,128,0,110367:0:0:0:0:
256,192,110367,1,0,0:0:0:0:
182,192,110453,1,0,0:0:0:0:
109,192,110539,1,0,0:0:0:0:
36,192,110625,1,0,0:0:0:0:
109,192,110711,1,0,0:0:0:0:
182,192,110711,128,0,111401:0:0:0:0:
256,192,111401,128,0,116918:0:0:0:0:
109,192,111401,1,0,0:0:0:0:
329,192,111401,1,0,0:0:0:0:
402,192,111401,1,0,0:0:0:0:
475,192,113125,128,0,113470:0:0:0:0:
36,192,113125,128,0,114677:0:0:0:0:
329,192,113470,128,0,113815:0:0:0:0:
475,192,113815,128,0,114160:0:0:0:0:
402,192,114160,128,0,116918:0:0:0:0:
109,192,114677,128,0,114849:0:0:0:0:
182,192,114849,128,0,115194:0:0:0:0:
109,192,115194,128,0,115539:0:0:0:0:
36,192,115539,128,0,116918:0:0:0:0:
109,192,116229,128,0,116918:0:0:0:0:
475,192,116229,128,0,116918:0:0:0:0:
475,192,117091,1,0,0:0:0:0:
402,192,117177,1,0,0:0:0:0:
329,192,117263,1,0,0:0:0:0:
36,192,117349,1,0,0:0:0:0:
256,192,117349,1,0,0:0:0:0:
109,192,117436,1,0,0:0:0:0:
182,192,117522,1,0,0:0:0:0:
256,192,117608,1,0,0:0:0:0:
182,192,117953,128,0,118298:0:0:0:0:
329,192,117953,128,0,118298:0:0:0:0:
109,192,118298,1,0,0:0:0:0:
402,192,118298,1,0,0:0:0:0:
36,192,118298,1,0,0:0:0:0:
475,192,118298,1,0,0:0:0:0:
256,192,118470,1,0,0:0:0:0:
329,192,118642,1,0,0:0:0:0:
109,192,118642,1,0,0:0:0:0:
182,192,118642,1,0,0:0:0:0:
256,192,118815,1,0,0:0:0:0:
329,192,118987,1,0,0:0:0:0:
402,192,118987,1,0,0:0:0:0:
36,192,118987,1,0,0:0:0:0:
109,192,119073,1,0,0:0:0:0:
182,192,119160,1,0,0:0:0:0:
475,192,119160,1,0,0:0:0:0:
256,192,119246,1,0,0:0:0:0:
36,192,119332,1,0,0:0:0:0:
109,192,119332,1,0,0:0:0:0:
329,192,119332,1,0,0:0:0:0:
402,192,119504,1,0,0:0:0:0:
109,192,119504,1,0,0:0:0:0:
256,192,119504,128,0,119677:0:0:0:0:
36,192,119677,128,0,121056:0:0:0:0:
475,192,119677,128,0,121056:0:0:0:0:
182,192,119849,1,0,0:0:0:0:
329,192,119849,1,0,0:0:0:0:
256,192,120022,1,0,0:0:0:0:
402,192,120022,1,0,0:0:0:0:
109,192,120022,1,0,0:0:0:0:
182,192,120194,1,0,0:0:0:0:
329,192,120194,1,0,0:0:0:0:
256,192,120367,1,0,0:0:0:0:
182,192,120539,1,0,0:0:0:0:
329,192,120539,1,0,0:0:0:0:
109,192,120539,1,0,0:0:0:0:
402,192,120539,1,0,0:0:0:0:
256,192,120711,1,0,0:0:0:0:
182,192,120711,1,0,0:0:0:0:
329,192,120711,1,0,0:0:0:0:
109,192,120884,1,0,0:0:0:0:
402,192,120884,1,0,0:0:0:0:
182,192,121056,128,0,121401:0:0:0:0:
329,192,121056,128,0,121401:0:0:0:0:
256,192,121229,1,0,0:0:0:0:
402,192,121401,1,0,0:0:0:0:
109,192,121401,1,0,0:0:0:0:
256,192,121573,1,0,0:0:0:0:
182,192,121746,1,0,0:0:0:0:
329,192,121746,1,0,0:0:0:0:
256,192,121746,128,0,122436:0:0:0:0:
109,192,121918,1,0,0:0:0:0:
36,192,122091,1,0,0:0:0:0:
475,192,122091,1,0,0:0:0:0:
182,192,122091,1,0,0:0:0:0:
329,192,122091,1,0,0:0:0:0:
402,192,122263,1,0,0:0:0:0:
182,192,122436,1,0,0:0:0:0:
329,192,122436,1,0,0:0:0:0:
109,192,122436,128,0,122608:0:0:0:0:
36,192,122608,128,0,122780:0:0:0:0:
402,192,122608,1,0,0:0:0:0:
109,192,122780,128,0,122953:0:0:0:0:
475,192,122780,1,0,0:0:0:0:
256,192,122780,1,0,0:0:0:0:
182,192,122953,128,0,123125:0:0:0:0:
329,192,122953,1,0,0:0:0:0:
256,192,123125,128,0,123298:0:0:0:0:
402,192,123125,1,0,0:0:0:0:
329,192,123298,128,0,123470:0:0:0:0:
475,192,123298,1,0,0:0:0:0:
182,192,123384,1,0,0:0:0:0:
402,192,123470,128,0,123642:0:0:0:0:
109,192,123470,1,0,0:0:0:0:
36,192,123470,1,0,0:0:0:0:
475,192,123642,128,0,123815:0:0:0:0:
182,192,123642,1,0,0:0:0:0:
256,192,123815,1,0,0:0:0:0:
329,192,123815,1,0,0:0:0:0:
36,192,123815,1,0,0:0:0:0:
109,192,123987,1,0,0:0:0:0:
475,192,124160,1,0,0:0:0:0:
329,192,124160,1,0,0:0:0:0:
182,192,124160,1,0,0:0:0:0:
256,192,124332,1,0,0:0:0:0:
329,192,124504,1,0,0:0:0:0:
182,192,124504,1,0,0:0:0:0:
402,192,124591,1,0,0:0:0:0:
109,192,124591,1,0,0:0:0:0:
182,192,124677,1,0,0:0:0:0:
329,192,124677,1,0,0:0:0:0:
402,192,124763,1,0,0:0:0:0:
109,192,124763,1,0,0:0:0:0:
182,192,124849,1,0,0:0:0:0:
256,192,124849,1,0,0:0:0:0:
329,192,124849,1,0,0:0:0:0:
36,192,125022,1,0,0:0:0:0:
475,192,125022,1,0,0:0:0:0:
182,192,125194,1,0,0:0:0:0:
329,192,125194,1,0,0:0:0:0:
256,192,125194,128,0,126573:0:0:0:0:
36,192,125367,1,0,0:0:0:0:
475,192,125367,1,0,0:0:0:0:
109,192,125539,1,0,0:0:0:0:
402,192,125539,1,0,0:0:0:0:
36,192,125711,1,0,0:0:0:0:
475,192,125711,1,0,0:0:0:0:
329,192,125884,128,0,126056:0:0:0:0:
182,192,125884,128,0,126056:0:0:0:0:
109,192,125884,1,0,0:0:0:0:
402,192,125884,1,0,0:0:0:0:
36,192,126056,1,0,0:0:0:0:
475,192,126056,1,0,0:0:0:0:
36,192,126229,128,0,126401:0:0:0:0:
475,192,126229,128,0,126401:0:0:0:0:
109,192,126229,1,0,0:0:0:0:
402,192,126229,1,0,0:0:0:0:
182,192,126401,1,0,0:0:0:0:
329,192,126401,1,0,0:0:0:0:
109,192,126573,1,0,0:0:0:0:
402,192,126573,1,0,0:0:0:0:
36,192,126746,1,0,0:0:0:0:
475,192,126746,1,0,0:0:0:0:
182,192,126918,1,0,0:0:0:0:
256,192,126918,1,0,0:0:0:0:
329,192,126918,1,0,0:0:0:0:
402,192,127091,1,0,0:0:0:0:
475,192,127091,1,0,0:0:0:0:
36,192,127177,1,0,0:0:0:0:
109,192,127177,1,0,0:0:0:0:
402,192,127263,1,0,0:0:0:0:
475,192,127263,1,0,0:0:0:0:
36,192,127349,1,0,0:0:0:0:
109,192,127349,1,0,0:0:0:0:
402,192,127436,1,0,0:0:0:0:
475,192,127436,1,0,0:0:0:0:
36,192,127522,1,0,0:0:0:0:
109,192,127522,1,0,0:0:0:0:
182,192,127608,1,0,0:0:0:0:
256,192,127608,1,0,0:0:0:0:
329,192,127608,1,0,0:0:0:0:
109,192,127780,1,0,0:0:0:0:
36,192,127780,1,0,0:0:0:0:
182,192,127953,1,0,0:0:0:0:
256,192,127953,1,0,0:0:0:0:
329,192,127953,1,0,0:0:0:0:
36,192,128125,1,0,0:0:0:0:
109,192,128125,1,0,0:0:0:0:
329,192,128298,1,0,0:0:0:0:
402,192,128298,1,0,0:0:0:0:
256,192,128298,1,0,0:0:0:0:
36,192,128470,1,0,0:0:0:0:
109,192,128470,1,0,0:0:0:0:
329,192,128642,1,0,0:0:0:0:
402,192,128642,1,0,0:0:0:0:
475,192,128642,1,0,0:0:0:0:
109,192,128642,1,0,0:0:0:0:
182,192,128729,1,0,0:0:0:0:
256,192,128729,1,0,0:0:0:0:
36,192,128815,1,0,0:0:0:0:
109,192,128815,1,0,0:0:0:0:
329,192,128815,1,0,0:0:0:0:
182,192,128901,1,0,0:0:0:0:
256,192,128901,1,0,0:0:0:0:
329,192,128987,1,0,0:0:0:0:
402,192,128987,1,0,0:0:0:0:
475,192,128987,1,0,0:0:0:0:
109,192,128987,1,0,0:0:0:0:
182,192,129073,1,0,0:0:0:0:
256,192,129160,1,0,0:0:0:0:
329,192,129246,1,0,0:0:0:0:
402,192,129332,1,0,0:0:0:0:
256,192,129332,1,0,0:0:0:0:
36,192,129332,1,0,0:0:0:0:
182,192,129504,1,0,0:0:0:0:
329,192,129677,1,0,0:0:0:0:
475,192,129677,1,0,0:0:0:0:
109,192,129677,1,0,0:0:0:0:
182,192,129849,1,0,0:0:0:0:
109,192,130022,1,0,0:0:0:0:
256,192,130022,1,0,0:0:0:0:
182,192,130194,1,0,0:0:0:0:
36,192,130367,1,0,0:0:0:0:
475,192,130367,1,0,0:0:0:0:
256,192,130367,1,0,0:0:0:0:
402,192,130539,1,0,0:0:0:0:
109,192,130711,1,0,0:0:0:0:
329,192,130711,1,0,0:0:0:0:
256,192,130884,1,0,0:0:0:0:
182,192,131056,1,0,0:0:0:0:
329,192,131056,1,0,0:0:0:0:
402,192,131056,1,0,0:0:0:0:
109,192,131229,1,0,0:0:0:0:
475,192,131401,1,0,0:0:0:0:
182,192,131401,1,0,0:0:0:0:
256,192,131401,1,0,0:0:0:0:
402,192,131487,1,0,0:0:0:0:
329,192,131573,1,0,0:0:0:0:
109,192,131573,1,0,0:0:0:0:
256,192,131660,1,0,0:0:0:0:
182,192,131746,1,0,0:0:0:0:
329,192,131746,1,0,0:0:0:0:
402,192,131746,1,0,0:0:0:0:
109,192,131832,1,0,0:0:0:0:
36,192,131918,128,0,132091:0:0:0:0:
256,192,131918,1,0,0:0:0:0:
182,192,132091,1,0,0:0:0:0:
329,192,132091,1,0,0:0:0:0:
402,192,132091,1,0,0:0:0:0:
256,192,132263,1,0,0:0:0:0:
109,192,132436,1,0,0:0:0:0:
36,192,132436,1,0,0:0:0:0:
475,192,132436,1,0,0:0:0:0:
182,192,132608,1,0,0:0:0:0:
329,192,132780,1,0,0:0:0:0:
182,192,132867,1,0,0:0:0:0:
329,192,132953,1,0,0:0:0:0:
182,192,133039,1,0,0:0:0:0:
329,192,133125,1,0,0:0:0:0:
402,192,133125,1,0,0:0:0:0:
109,192,133125,1,0,0:0:0:0:
182,192,133211,1,0,0:0:0:0:
329,192,133298,1,0,0:0:0:0:
182,192,133384,1,0,0:0:0:0:
329,192,133470,1,0,0:0:0:0:
36,192,133470,1,0,0:0:0:0:
109,192,133470,1,0,0:0:0:0:
182,192,133642,1,0,0:0:0:0:
402,192,133815,1,0,0:0:0:0:
475,192,133815,1,0,0:0:0:0:
256,192,133815,1,0,0:0:0:0:
329,192,133987,1,0,0:0:0:0:
109,192,134160,1,0,0:0:0:0:
36,192,134160,1,0,0:0:0:0:
256,192,134332,1,0,0:0:0:0:
182,192,134332,1,0,0:0:0:0:
329,192,134418,1,0,0:0:0:0:
402,192,134504,1,0,0:0:0:0:
475,192,134504,1,0,0:0:0:0:
109,192,134504,1,0,0:0:0:0:
256,192,134677,1,0,0:0:0:0:
36,192,134849,1,0,0:0:0:0:
329,192,134849,1,0,0:0:0:0:
182,192,135022,1,0,0:0:0:0:
109,192,135194,1,0,0:0:0:0:
402,192,135194,1,0,0:0:0:0:
329,192,135194,1,0,0:0:0:0:
256,192,135367,1,0,0:0:0:0:
36,192,135539,1,0,0:0:0:0:
475,192,135539,1,0,0:0:0:0:
182,192,135711,1,0,0:0:0:0:
109,192,135884,1,0,0:0:0:0:
256,192,135884,1,0,0:0:0:0:
329,192,135884,1,0,0:0:0:0:
182,192,136056,1,0,0:0:0:0:
36,192,136229,1,0,0:0:0:0:
109,192,136229,1,0,0:0:0:0:
182,192,136401,1,0,0:0:0:0:
256,192,136573,1,0,0:0:0:0:
329,192,136573,1,0,0:0:0:0:
402,192,136573,1,0,0:0:0:0:
109,192,136746,1,0,0:0:0:0:
36,192,136918,1,0,0:0:0:0:
329,192,136918,1,0,0:0:0:0:
182,192,137091,1,0,0:0:0:0:
329,192,137263,1,0,0:0:0:0:
402,192,137263,1,0,0:0:0:0:
475,192,137263,1,0,0:0:0:0:
256,192,137436,1,0,0:0:0:0:
109,192,137608,1,0,0:0:0:0:
182,192,137608,1,0,0:0:0:0:
36,192,137780,1,0,0:0:0:0:
402,192,137953,1,0,0:0:0:0:
475,192,137953,1,0,0:0:0:0:
256,192,137953,1,0,0:0:0:0:
182,192,138125,1,0,0:0:0:0:
109,192,138298,1,0,0:0:0:0:
402,192,138298,1,0,0:0:0:0:
256,192,138298,1,0,0:0:0:0:
182,192,138384,1,0,0:0:0:0:
475,192,138384,1,0,0:0:0:0:
109,192,138470,1,0,0:0:0:0:
402,192,138470,1,0,0:0:0:0:
36,192,138556,1,0,0:0:0:0:
329,192,138556,1,0,0:0:0:0:
109,192,138642,1,0,0:0:0:0:
402,192,138642,1,0,0:0:0:0:
256,192,138642,1,0,0:0:0:0:
329,192,138815,1,0,0:0:0:0:
475,192,138815,1,0,0:0:0:0:
182,192,138815,1,0,0:0:0:0:
36,192,138987,128,0,140367:0:0:0:0:
109,192,138987,128,0,139160:0:0:0:0:
256,192,138987,128,0,139160:0:0:0:0:
329,192,139160,128,0,139332:0:0:0:0:
182,192,139160,128,0,139332:0:0:0:0:
256,192,139332,128,0,139504:0:0:0:0:
402,192,139332,128,0,139504:0:0:0:0:
109,192,139504,128,0,139677:0:0:0:0:
329,192,139504,128,0,139677:0:0:0:0:
475,192,139677,128,0,140367:0:0:0:0:
182,192,139677,128,0,139849:0:0:0:0:
256,192,139677,128,0,139849:0:0:0:0:
329,192,139849,128,0,140022:0:0:0:0:
402,192,139849,128,0,140022:0:0:0:0:
182,192,140022,128,0,140194:0:0:0:0:
256,192,140022,128,0,140194:0:0:0:0:
109,192,140194,128,0,140367:0:0:0:0:
402,192,140194,128,0,140367:0:0:0:0:
256,192,140367,1,0,0:0:0:0:
329,192,140453,1,0,0:0:0:0:
256,192,140539,1,0,0:0:0:0:
182,192,140625,1,0,0:0:0:0:
256,192,140711,1,0,0:0:0:0:
109,192,140884,1,0,0:0:0:0:
402,192,141056,128,0,141401:0:0:0:0:
256,192,141401,1,0,0:0:0:0:
329,192,141487,1,0,0:0:0:0:
256,192,141573,1,0,0:0:0:0:
182,192,141660,1,0,0:0:0:0:
402,192,141746,1,0,0:0:0:0:
109,192,141746,1,0,0:0:0:0:
182,192,141832,1,0,0:0:0:0:
475,192,141832,1,0,0:0:0:0:
109,192,141918,1,0,0:0:0:0:
402,192,141918,1,0,0:0:0:0:
36,192,142004,1,0,0:0:0:0:
329,192,142004,1,0,0:0:0:0:
109,192,142091,1,0,0:0:0:0:
402,192,142091,1,0,0:0:0:0:
36,192,142263,1,0,0:0:0:0:
329,192,142263,1,0,0:0:0:0:
182,192,142436,128,0,142780:0:0:0:0:
475,192,142436,128,0,142780:0:0:0:0:
109,192,142780,1,0,0:0:0:0:
402,192,142780,1,0,0:0:0:0:
475,192,142867,1,0,0:0:0:0:
182,192,142867,1,0,0:0:0:0:
402,192,142953,1,0,0:0:0:0:
109,192,142953,1,0,0:0:0:0:
329,192,143039,1,0,0:0:0:0:
36,192,143039,1,0,0:0:0:0:
109,192,143125,1,0,0:0:0:0:
402,192,143125,1,0,0:0:0:0:
256,192,143125,1,0,0:0:0:0:
475,192,143211,1,0,0:0:0:0:
182,192,143211,1,0,0:0:0:0:
402,192,143298,1,0,0:0:0:0:
109,192,143298,1,0,0:0:0:0:
329,192,143384,1,0,0:0:0:0:
36,192,143384,1,0,0:0:0:0:
402,192,143470,1,0,0:0:0:0:
109,192,143470,1,0,0:0:0:0:
36,192,143642,1,0,0:0:0:0:
475,192,143642,1,0,0:0:0:0:
182,192,143815,128,0,144160:0:0:0:0:
329,192,143815,128,0,144160:0:0:0:0:
109,192,143815,1,0,0:0:0:0:
256,192,143815,1,0,0:0:0:0:
402,192,143815,1,0,0:0:0:0:
402,192,144160,1,0,0:0:0:0:
256,192,144160,1,0,0:0:0:0:
109,192,144160,1,0,0:0:0:0:
36,192,144246,1,0,0:0:0:0:
475,192,144246,1,0,0:0:0:0:
109,192,144332,1,0,0:0:0:0:
402,192,144332,1,0,0:0:0:0:
182,192,144418,1,0,0:0:0:0:
329,192,144418,1,0,0:0:0:0:
256,192,144504,1,0,0:0:0:0:
36,192,144504,1,0,0:0:0:0:
475,192,144504,1,0,0:0:0:0:
182,192,144591,1,0,0:0:0:0:
329,192,144591,1,0,0:0:0:0:
109,192,144677,1,0,0:0:0:0:
402,192,144677,1,0,0:0:0:0:
36,192,144763,1,0,0:0:0:0:
475,192,144763,1,0,0:0:0:0:
109,192,144849,1,0,0:0:0:0:
402,192,144849,1,0,0:0:0:0:
256,192,144849,1,0,0:0:0:0:
182,192,144936,1,0,0:0:0:0:
329,192,144936,1,0,0:0:0:0:
256,192,145022,1,0,0:0:0:0:
182,192,145108,1,0,0:0:0:0:
329,192,145108,1,0,0:0:0:0:
109,192,145194,1,0,0:0:0:0:
402,192,145194,1,0,0:0:0:0:
36,192,145194,1,0,0:0:0:0:
475,192,145194,1,0,0:0:0:0:
256,192,145194,1,0,0:0:0:0:
36,192,145884,1,0,0:0:0:0:
475,192,146229,1,0,0:0:0:0:
109,192,146573,1,0,0:0:0:0:
402,192,146918,1,0,0:0:0:0:
329,192,147263,1,0,0:0:0:0:
182,192,147780,1,0,0:0:0:0:
182,192,147953,1,0,0:0:0:0:
109,192,148298,1,0,0:0:0:0:
36,192,148642,1,0,0:0:0:0:
109,192,149332,1,0,0:0:0:0:
256,192,150022,1,0,0:0:0:0:
475,192,150367,128,0,151401:0:0:0:0:
402,192,150367,128,0,151401:0:0:0:0:
36,192,150711,128,0,151401:0:0:0:0:
109,192,150711,128,0,151401:0:0:0:0:
