osu file format v14

[General]
AudioFilename: audio.mp3
AudioLeadIn: 0
PreviewTime: 54610
Countdown: 0
SampleSet: Soft
StackLeniency: 0.7
Mode: 3
LetterboxInBreaks: 0
SpecialStyle: 0
WidescreenStoryboard: 0

[Editor]
Bookmarks: 34753,53039,91039,101039,108753,126182,163610,174182,181039,200182
DistanceSpacing: 1
BeatDivisor: 12
GridSize: 16
TimelineZoom: 2.600005

[Metadata]
Title:Youdian tian
TitleUnicode:有點甜
Artist:Wangsulong&BY2
ArtistUnicode:汪蘇瀧&BY2
Creator:PP_Aika
Version:lvl.26
Source:
Tags:taiwan chinese
BeatmapID:1100248
BeatmapSetID:517849

[Difficulty]
HPDrainRate:7
CircleSize:7
OverallDifficulty:6
ApproachRate:5
SliderMultiplier:1.4
SliderTickRate:1

[Events]
//Background and Video events
0,0,"1.jpg",0,0
//Break Periods
//Storyboard Layer 0 (Background)
//Storyboard Layer 1 (Fail)
//Storyboard Layer 2 (Pass)
//Storyboard Layer 3 (Foreground)
//Storyboard Sound Samples

[TimingPoints]
468,571.428571428571,4,2,0,5,1,0
34753,-200,4,2,0,5,0,0
34896,-100,4,2,0,5,0,0
35039,-200,4,2,0,5,0,0
35182,-100,4,2,0,5,0,0
35325,-200,4,2,0,5,0,0
35467,-100,4,2,0,5,0,0
35610,-200,4,2,0,5,0,0
35753,-100,4,2,0,5,0,0
53039,-50,4,2,0,5,0,0
53134,-100,4,2,0,5,0,0
53467,-50,4,2,0,5,0,0
53563,-100,4,2,0,5,0,0
53896,-50,4,2,0,5,0,0
54396,-100,4,2,0,5,0,0
55325,-100,4,2,0,5,0,1
89610,-100,4,2,0,5,0,0
91896,-50,4,2,0,5,0,0
91991,-100,4,2,0,5,0,0
92325,-50,4,2,0,5,0,0
92420,-100,4,2,0,5,0,0
92753,-50,4,2,0,5,0,0
93825,-100,4,2,0,5,0,0
94182,-50,4,2,0,5,0,0
94277,-100,4,2,0,5,0,0
94610,-50,4,2,0,5,0,0
94706,-100,4,2,0,5,0,0
95039,-50,4,2,0,5,0,0
95253,-100,4,2,0,5,0,0
101039,-50,4,2,0,5,0,0
101134,-100,4,2,0,5,0,0
101467,-50,4,2,0,5,0,0
101563,-100,4,2,0,5,0,0
101896,-100,4,2,0,5,0,0
103325,-50,4,2,0,5,0,0
103420,-100,4,2,0,5,0,0
103753,-50,4,2,0,5,0,0
103848,-100,4,2,0,5,0,0
104182,-100,4,2,0,5,0,0
108753,-50,4,2,0,5,0,0
109253,-100,4,2,0,5,0,0
109610,-100,4,2,0,5,0,0
126182,-50,4,2,0,5,0,0
126277,-100,4,2,0,5,0,0
126610,-50,4,2,0,5,0,0
126706,-100,4,2,0,5,0,0
127039,-50,4,2,0,5,0,0
127539,-100,4,2,0,5,0,0
128468,-100,4,2,0,5,0,1
162753,-100,4,2,0,5,0,0
163610,-133.333333333333,4,2,0,5,0,0
174182,-50,4,2,0,5,0,0
174325,-133.333333333333,4,2,0,5,0,0
174610,-50,4,2,0,5,0,0
174753,-133.333333333333,4,2,0,5,0,0
175039,-50,4,2,0,5,0,0
175110,-133.333333333333,4,2,0,5,0,0
175325,-100,4,2,0,5,0,0
175610,-66.6666666666667,4,2,0,5,0,0
175896,-133.333333333333,4,2,0,5,0,0
176467,-66.6666666666667,4,2,0,5,0,0
176753,-133.333333333333,4,2,0,5,0,0
177610,-100,4,2,0,5,0,0
181039,-50,4,2,0,5,0,0
181134,-100,4,2,0,5,0,0
181467,-50,4,2,0,5,0,0
181563,-100,4,2,0,5,0,0
181896,-100,4,2,0,5,0,0
183325,-100,4,2,0,5,0,1
199325,-100,4,2,0,5,0,0
200182,-133.333333333333,4,2,0,5,0,0
206182,-100,4,2,0,5,0,0

[HitObjects]
402,192,468,5,0,0:0:0:0:
329,192,563,1,0,0:0:0:0:
256,192,610,1,0,0:0:0:0:
109,192,753,1,0,0:0:0:0:
182,192,1039,1,0,0:0:0:0:
402,192,1039,128,0,1610:0:0:0:0:
36,192,1610,1,0,0:0:0:0:
256,192,1610,1,0,0:0:0:0:
109,192,1896,1,0,0:0:0:0:
475,192,1896,1,0,0:0:0:0:
329,192,2182,1,0,0:0:0:0:
182,192,2467,1,0,0:0:0:0:
109,192,2753,1,0,0:0:0:0:
402,192,2753,1,0,0:0:0:0:
256,192,3039,1,0,0:0:0:0:
36,192,3325,1,0,0:0:0:0:
329,192,3325,128,0,3896:0:0:0:0:
109,192,3896,1,0,0:0:0:0:
475,192,3896,1,0,0:0:0:0:
256,192,4182,1,0,0:0:0:0:
36,192,4467,128,0,5039:0:0:0:0:
182,192,4944,1,0,0:0:0:0:
402,192,5039,1,0,0:0:0:0:
329,192,5075,1,0,0:0:0:0:
109,192,5325,1,0,0:0:0:0:
475,192,5610,1,0,0:0:0:0:
182,192,5610,128,0,6182:0:0:0:0:
36,192,6182,1,0,0:0:0:0:
402,192,6182,1,0,0:0:0:0:
256,192,6467,1,0,0:0:0:0:
109,192,6753,1,0,0:0:0:0:
329,192,7039,1,0,0:0:0:0:
36,192,7325,1,0,0:0:0:0:
182,192,7325,1,0,0:0:0:0:
402,192,7610,1,0,0:0:0:0:
256,192,7896,1,0,0:0:0:0:
109,192,7896,1,0,0:0:0:0:
329,192,8467,1,0,0:0:0:0:
182,192,8467,1,0,0:0:0:0:
475,192,8467,128,0,9039:0:0:0:0:
36,192,8753,1,0,0:0:0:0:
256,192,8753,1,0,0:0:0:0:
109,192,8896,1,0,0:0:0:0:
182,192,9039,1,0,0:0:0:0:
402,192,9039,1,0,0:0:0:0:
329,192,9182,1,0,0:0:0:0:
256,192,9325,1,0,0:0:0:0:
109,192,9325,128,0,9610:0:0:0:0:
329,192,9610,1,0,0:0:0:0:
36,192,9610,1,0,0:0:0:0:
475,192,9610,1,0,0:0:0:0:
402,192,9896,128,0,10182:0:0:0:0:
36,192,10182,128,0,10467:0:0:0:0:
256,192,10182,1,0,0:0:0:0:
329,192,10467,128,0,11039:0:0:0:0:
182,192,10467,1,0,0:0:0:0:
475,192,10467,1,0,0:0:0:0:
109,192,10753,1,0,0:0:0:0:
182,192,11039,128,0,11610:0:0:0:0:
329,192,11325,1,0,0:0:0:0:
402,192,11610,128,0,12182:0:0:0:0:
256,192,11610,1,0,0:0:0:0:
36,192,11610,1,0,0:0:0:0:
182,192,11896,1,0,0:0:0:0:
36,192,12182,128,0,12467:0:0:0:0:
475,192,12467,128,0,12753:0:0:0:0:
182,192,12467,1,0,0:0:0:0:
256,192,12753,128,0,13896:0:0:0:0:
36,192,12753,1,0,0:0:0:0:
402,192,12753,1,0,0:0:0:0:
109,192,13039,1,0,0:0:0:0:
182,192,13325,1,0,0:0:0:0:
475,192,13325,1,0,0:0:0:0:
109,192,13610,1,0,0:0:0:0:
402,192,13610,1,0,0:0:0:0:
36,192,13896,1,0,0:0:0:0:
329,192,13896,1,0,0:0:0:0:
402,192,14039,1,0,0:0:0:0:
109,192,14182,128,0,14467:0:0:0:0:
182,192,14182,1,0,0:0:0:0:
475,192,14182,1,0,0:0:0:0:
256,192,14182,1,0,0:0:0:0:
329,192,14467,128,0,14753:0:0:0:0:
182,192,14753,128,0,15039:0:0:0:0:
256,192,14753,1,0,0:0:0:0:
36,192,15039,128,0,15610:0:0:0:0:
402,192,15039,1,0,0:0:0:0:
475,192,15039,1,0,0:0:0:0:
182,192,15325,1,0,0:0:0:0:
329,192,15610,128,0,16182:0:0:0:0:
475,192,15610,1,0,0:0:0:0:
256,192,15610,1,0,0:0:0:0:
36,192,15896,1,0,0:0:0:0:
182,192,16182,128,0,18182:0:0:0:0:
109,192,16182,1,0,0:0:0:0:
475,192,16182,1,0,0:0:0:0:
329,192,16467,1,0,0:0:0:0:
36,192,16753,1,0,0:0:0:0:
402,192,17039,1,0,0:0:0:0:
109,192,17325,1,0,0:0:0:0:
329,192,17610,1,0,0:0:0:0:
329,192,17896,1,0,0:0:0:0:
36,192,18182,1,0,0:0:0:0:
402,192,18182,128,0,18753:0:0:0:0:
36,192,18753,1,0,0:0:0:0:
182,192,18753,1,0,0:0:0:0:
329,192,19039,1,0,0:0:0:0:
475,192,19039,1,0,0:0:0:0:
109,192,19325,1,0,0:0:0:0:
256,192,19610,1,0,0:0:0:0:
402,192,19610,1,0,0:0:0:0:
109,192,19896,1,0,0:0:0:0:
256,192,20182,1,0,0:0:0:0:
475,192,20182,1,0,0:0:0:0:
402,192,20467,1,0,0:0:0:0:
109,192,20467,1,0,0:0:0:0:
329,192,20753,1,0,0:0:0:0:
36,192,20753,1,0,0:0:0:0:
475,192,21039,1,0,0:0:0:0:
182,192,21039,1,0,0:0:0:0:
109,192,21325,1,0,0:0:0:0:
329,192,21325,1,0,0:0:0:0:
475,192,21610,1,0,0:0:0:0:
36,192,21896,1,0,0:0:0:0:
256,192,21896,1,0,0:0:0:0:
402,192,22182,1,0,0:0:0:0:
182,192,22467,1,0,0:0:0:0:
36,192,22467,1,0,0:0:0:0:
329,192,22753,1,0,0:0:0:0:
109,192,22753,1,0,0:0:0:0:
256,192,23039,1,0,0:0:0:0:
475,192,23039,1,0,0:0:0:0:
182,192,23182,1,0,0:0:0:0:
109,192,23325,1,0,0:0:0:0:
36,192,23325,1,0,0:0:0:0:
402,192,23610,1,0,0:0:0:0:
329,192,23610,1,0,0:0:0:0:
182,192,23896,1,0,0:0:0:0:
109,192,23896,1,0,0:0:0:0:
475,192,24182,1,0,0:0:0:0:
402,192,24182,1,0,0:0:0:0:
256,192,24467,1,0,0:0:0:0:
182,192,24467,1,0,0:0:0:0:
329,192,24753,1,0,0:0:0:0:
402,192,24753,1,0,0:0:0:0:
109,192,25039,1,0,0:0:0:0:
182,192,25039,1,0,0:0:0:0:
256,192,25325,1,0,0:0:0:0:
329,192,25325,1,0,0:0:0:0:
182,192,25610,1,0,0:0:0:0:
36,192,25610,1,0,0:0:0:0:
109,192,25896,1,0,0:0:0:0:
329,192,25896,1,0,0:0:0:0:
256,192,26182,1,0,0:0:0:0:
475,192,26182,1,0,0:0:0:0:
109,192,26467,1,0,0:0:0:0:
329,192,26467,1,0,0:0:0:0:
402,192,26610,1,0,0:0:0:0:
36,192,26753,1,0,0:0:0:0:
256,192,26753,1,0,0:0:0:0:
402,192,26896,1,0,0:0:0:0:
475,192,27039,1,0,0:0:0:0:
182,192,27039,1,0,0:0:0:0:
36,192,27325,1,0,0:0:0:0:
256,192,27325,1,0,0:0:0:0:
402,192,27610,1,0,0:0:0:0:
109,192,27610,1,0,0:0:0:0:
475,192,27896,1,0,0:0:0:0:
256,192,27896,1,0,0:0:0:0:
109,192,28182,1,0,0:0:0:0:
402,192,28467,1,0,0:0:0:0:
182,192,28467,1,0,0:0:0:0:
36,192,28753,1,0,0:0:0:0:
329,192,28753,1,0,0:0:0:0:
475,192,29039,1,0,0:0:0:0:
109,192,29325,1,0,0:0:0:0:
256,192,29325,1,0,0:0:0:0:
329,192,29610,1,0,0:0:0:0:
475,192,29610,1,0,0:0:0:0:
182,192,29896,1,0,0:0:0:0:
402,192,30182,1,0,0:0:0:0:
256,192,30182,1,0,0:0:0:0:
36,192,30467,1,0,0:0:0:0:
182,192,30467,1,0,0:0:0:0:
475,192,30753,1,0,0:0:0:0:
256,192,30753,1,0,0:0:0:0:
182,192,31039,1,0,0:0:0:0:
402,192,31039,1,0,0:0:0:0:
36,192,31325,1,0,0:0:0:0:
256,192,31610,1,0,0:0:0:0:
475,192,31610,1,0,0:0:0:0:
109,192,31896,1,0,0:0:0:0:
329,192,31896,1,0,0:0:0:0:
402,192,32039,1,0,0:0:0:0:
475,192,32182,1,0,0:0:0:0:
182,192,32182,1,0,0:0:0:0:
329,192,32467,1,0,0:0:0:0:
36,192,32467,1,0,0:0:0:0:
402,192,32753,1,0,0:0:0:0:
182,192,32753,1,0,0:0:0:0:
109,192,33039,1,0,0:0:0:0:
475,192,33039,1,0,0:0:0:0:
329,192,33325,1,0,0:0:0:0:
36,192,33325,1,0,0:0:0:0:
256,192,33610,1,0,0:0:0:0:
475,192,33610,1,0,0:0:0:0:
182,192,33896,1,0,0:0:0:0:
402,192,33896,1,0,0:0:0:0:
329,192,34182,1,0,0:0:0:0:
109,192,34182,1,0,0:0:0:0:
256,192,34467,1,0,0:0:0:0:
36,192,34467,1,0,0:0:0:0:
329,192,34753,1,0,0:0:0:0:
475,192,34753,1,0,0:0:0:0:
402,192,35039,1,0,0:0:0:0:
256,192,35039,1,0,0:0:0:0:
329,192,35325,1,0,0:0:0:0:
182,192,35325,1,0,0:0:0:0:
256,192,35610,1,0,0:0:0:0:
109,192,35610,1,0,0:0:0:0:
402,192,35896,1,0,0:0:0:0:
36,192,36182,1,0,0:0:0:0:
182,192,36182,1,0,0:0:0:0:
256,192,36325,1,0,0:0:0:0:
329,192,36467,1,0,0:0:0:0:
475,192,36467,1,0,0:0:0:0:
256,192,36753,1,0,0:0:0:0:
109,192,36753,1,0,0:0:0:0:
329,192,36896,1,0,0:0:0:0:
182,192,37039,128,0,37896:0:0:0:0:
402,192,37039,1,0,0:0:0:0:
475,192,37039,1,0,0:0:0:0:
36,192,37325,1,0,0:0:0:0:
402,192,37610,1,0,0:0:0:0:
475,192,37896,128,0,38753:0:0:0:0:
256,192,37896,1,0,0:0:0:0:
36,192,37896,1,0,0:0:0:0:
109,192,38182,1,0,0:0:0:0:
256,192,38467,1,0,0:0:0:0:
329,192,38753,1,0,0:0:0:0:
109,192,38753,1,0,0:0:0:0:
182,192,39039,1,0,0:0:0:0:
36,192,39325,128,0,40182:0:0:0:0:
475,192,39325,1,0,0:0:0:0:
256,192,39325,1,0,0:0:0:0:
329,192,39610,1,0,0:0:0:0:
402,192,39896,1,0,0:0:0:0:
182,192,39896,1,0,0:0:0:0:
475,192,40182,128,0,41039:0:0:0:0:
256,192,40182,1,0,0:0:0:0:
329,192,40467,1,0,0:0:0:0:
109,192,40467,1,0,0:0:0:0:
182,192,40610,1,0,0:0:0:0:
256,192,40753,1,0,0:0:0:0:
402,192,41039,1,0,0:0:0:0:
182,192,41039,1,0,0:0:0:0:
109,192,41182,1,0,0:0:0:0:
329,192,41325,1,0,0:0:0:0:
36,192,41325,1,0,0:0:0:0:
402,192,41610,128,0,42182:0:0:0:0:
182,192,41610,1,0,0:0:0:0:
475,192,41610,1,0,0:0:0:0:
109,192,41896,128,0,42467:0:0:0:0:
329,192,42182,128,0,42753:0:0:0:0:
256,192,42182,1,0,0:0:0:0:
36,192,42467,128,0,43039:0:0:0:0:
475,192,42753,128,0,43325:0:0:0:0:
402,192,42753,1,0,0:0:0:0:
182,192,43039,128,0,43610:0:0:0:0:
109,192,43039,1,0,0:0:0:0:
329,192,43325,128,0,43896:0:0:0:0:
402,192,43325,1,0,0:0:0:0:
109,192,43610,128,0,44467:0:0:0:0:
256,192,43896,1,0,0:0:0:0:
475,192,43896,1,0,0:0:0:0:
402,192,44182,1,0,0:0:0:0:
182,192,44182,1,0,0:0:0:0:
329,192,44467,1,0,0:0:0:0:
36,192,44467,1,0,0:0:0:0:
109,192,44753,1,0,0:0:0:0:
402,192,44753,1,0,0:0:0:0:
182,192,45039,1,0,0:0:0:0:
475,192,45039,1,0,0:0:0:0:
109,192,45182,1,0,0:0:0:0:
402,192,45182,1,0,0:0:0:0:
36,192,45325,1,0,0:0:0:0:
329,192,45325,1,0,0:0:0:0:
402,192,45610,1,0,0:0:0:0:
182,192,45610,1,0,0:0:0:0:
329,192,45896,1,0,0:0:0:0:
109,192,45896,128,0,46753:0:0:0:0:
256,192,46182,1,0,0:0:0:0:
475,192,46182,1,0,0:0:0:0:
329,192,46467,128,0,47039:0:0:0:0:
36,192,46753,1,0,0:0:0:0:
182,192,46753,1,0,0:0:0:0:
256,192,47039,1,0,0:0:0:0:
475,192,47039,1,0,0:0:0:0:
109,192,47325,1,0,0:0:0:0:
256,192,47610,1,0,0:0:0:0:
475,192,47610,1,0,0:0:0:0:
182,192,47896,1,0,0:0:0:0:
36,192,47896,1,0,0:0:0:0:
256,192,48182,1,0,0:0:0:0:
329,192,48467,1,0,0:0:0:0:
109,192,48467,128,0,48753:0:0:0:0:
182,192,48753,128,0,49039:0:0:0:0:
402,192,48753,1,0,0:0:0:0:
256,192,49039,128,0,49325:0:0:0:0:
475,192,49039,1,0,0:0:0:0:
36,192,49039,1,0,0:0:0:0:
329,192,49325,128,0,49610:0:0:0:0:
109,192,49325,1,0,0:0:0:0:
182,192,49610,1,0,0:0:0:0:
256,192,49896,1,0,0:0:0:0:
475,192,49896,1,0,0:0:0:0:
402,192,50182,1,0,0:0:0:0:
109,192,50182,1,0,0:0:0:0:
182,192,50467,1,0,0:0:0:0:
36,192,50467,1,0,0:0:0:0:
329,192,50753,1,0,0:0:0:0:
475,192,50753,1,0,0:0:0:0:
256,192,51039,1,0,0:0:0:0:
109,192,51039,1,0,0:0:0:0:
402,192,51325,1,0,0:0:0:0:
329,192,51325,1,0,0:0:0:0:
109,192,51610,1,0,0:0:0:0:
36,192,51610,1,0,0:0:0:0:
256,192,51896,1,0,0:0:0:0:
475,192,51896,1,0,0:0:0:0:
182,192,52039,1,0,0:0:0:0:
109,192,52182,1,0,0:0:0:0:
402,192,52182,1,0,0:0:0:0:
329,192,52325,1,0,0:0:0:0:
256,192,52467,1,0,0:0:0:0:
36,192,52467,1,0,0:0:0:0:
109,192,52610,1,0,0:0:0:0:
182,192,52753,1,0,0:0:0:0:
402,192,52753,1,0,0:0:0:0:
329,192,52896,1,0,0:0:0:0:
256,192,53039,1,0,0:0:0:0:
36,192,53039,1,0,0:0:0:0:
475,192,53039,1,0,0:0:0:0:
475,192,53467,1,0,0:0:0:0:
256,192,53467,1,0,0:0:0:0:
36,192,53467,1,0,0:0:0:0:
256,192,53896,128,0,54753:0:0:0:0:
475,192,53896,128,0,54753:0:0:0:0:
36,192,53896,128,0,54753:0:0:0:0:
109,192,54753,1,0,0:0:0:0:
402,192,54753,1,0,0:0:0:0:
256,192,55325,128,0,55896:0:0:0:0:
475,192,55325,128,0,55896:0:0:0:0:
182,192,55610,128,0,56182:0:0:0:0:
402,192,55610,128,0,56182:0:0:0:0:
109,192,55896,128,0,56467:0:0:0:0:
329,192,55896,128,0,56467:0:0:0:0:
36,192,56182,128,0,56753:0:0:0:0:
256,192,56182,128,0,56753:0:0:0:0:
475,192,56182,1,0,0:0:0:0:
182,192,56467,128,0,57039:0:0:0:0:
402,192,56467,1,0,0:0:0:0:
109,192,56753,128,0,57325:0:0:0:0:
329,192,56753,1,0,0:0:0:0:
36,192,57039,128,0,57610:0:0:0:0:
256,192,57039,1,0,0:0:0:0:
475,192,57039,1,0,0:0:0:0:
182,192,57325,1,0,0:0:0:0:
402,192,57325,1,0,0:0:0:0:
329,192,57467,1,0,0:0:0:0:
475,192,57610,128,0,57896:0:0:0:0:
109,192,57610,1,0,0:0:0:0:
256,192,57610,1,0,0:0:0:0:
402,192,57896,128,0,58182:0:0:0:0:
182,192,57896,1,0,0:0:0:0:
329,192,58182,128,0,58467:0:0:0:0:
109,192,58182,1,0,0:0:0:0:
256,192,58467,128,0,58753:0:0:0:0:
36,192,58467,1,0,0:0:0:0:
402,192,58753,1,0,0:0:0:0:
182,192,58753,128,0,59039:0:0:0:0:
36,192,59039,1,0,0:0:0:0:
256,192,59039,1,0,0:0:0:0:
475,192,59325,1,0,0:0:0:0:
109,192,59325,1,0,0:0:0:0:
329,192,59325,1,0,0:0:0:0:
402,192,59610,1,0,0:0:0:0:
182,192,59610,1,0,0:0:0:0:
256,192,59896,128,0,60467:0:0:0:0:
36,192,59896,128,0,60467:0:0:0:0:
109,192,60182,128,0,60753:0:0:0:0:
329,192,60182,128,0,60753:0:0:0:0:
182,192,60467,128,0,61039:0:0:0:0:
402,192,60467,128,0,61039:0:0:0:0:
36,192,60753,1,0,0:0:0:0:
256,192,60753,128,0,61325:0:0:0:0:
475,192,60753,128,0,61325:0:0:0:0:
109,192,61039,1,0,0:0:0:0:
329,192,61039,128,0,61610:0:0:0:0:
182,192,61325,1,0,0:0:0:0:
402,192,61325,128,0,61896:0:0:0:0:
256,192,61610,1,0,0:0:0:0:
36,192,61610,1,0,0:0:0:0:
475,192,61610,128,0,62182:0:0:0:0:
329,192,61896,1,0,0:0:0:0:
109,192,61896,1,0,0:0:0:0:
182,192,62182,1,0,0:0:0:0:
402,192,62182,1,0,0:0:0:0:
256,192,62467,1,0,0:0:0:0:
475,192,62467,1,0,0:0:0:0:
329,192,62753,1,0,0:0:0:0:
109,192,62753,1,0,0:0:0:0:
402,192,63039,1,0,0:0:0:0:
182,192,63039,1,0,0:0:0:0:
36,192,63039,1,0,0:0:0:0:
256,192,63325,1,0,0:0:0:0:
182,192,63610,1,0,0:0:0:0:
475,192,63610,1,0,0:0:0:0:
402,192,63753,1,0,0:0:0:0:
329,192,63896,1,0,0:0:0:0:
36,192,63896,1,0,0:0:0:0:
109,192,64039,1,0,0:0:0:0:
182,192,64182,1,0,0:0:0:0:
402,192,64182,1,0,0:0:0:0:
329,192,64325,1,0,0:0:0:0:
256,192,64467,1,0,0:0:0:0:
475,192,64467,1,0,0:0:0:0:
109,192,64467,128,0,65039:0:0:0:0:
402,192,64753,128,0,65325:0:0:0:0:
182,192,65039,1,0,0:0:0:0:
36,192,65039,1,0,0:0:0:0:
475,192,65325,1,0,0:0:0:0:
256,192,65325,1,0,0:0:0:0:
109,192,65325,128,0,65896:0:0:0:0:
329,192,65610,128,0,66182:0:0:0:0:
182,192,65896,1,0,0:0:0:0:
36,192,65896,1,0,0:0:0:0:
256,192,66182,1,0,0:0:0:0:
475,192,66182,1,0,0:0:0:0:
182,192,66467,1,0,0:0:0:0:
402,192,66467,1,0,0:0:0:0:
329,192,66753,128,0,67325:0:0:0:0:
109,192,66753,1,0,0:0:0:0:
36,192,67039,128,0,67610:0:0:0:0:
256,192,67325,1,0,0:0:0:0:
475,192,67325,1,0,0:0:0:0:
182,192,67610,1,0,0:0:0:0:
402,192,67610,128,0,68182:0:0:0:0:
109,192,67896,128,0,68467:0:0:0:0:
256,192,67896,1,0,0:0:0:0:
329,192,68182,1,0,0:0:0:0:
475,192,68182,1,0,0:0:0:0:
256,192,68325,1,0,0:0:0:0:
182,192,68467,1,0,0:0:0:0:
36,192,68467,1,0,0:0:0:0:
256,192,68753,1,0,0:0:0:0:
475,192,68753,1,0,0:0:0:0:
402,192,68896,1,0,0:0:0:0:
182,192,68896,1,0,0:0:0:0:
109,192,69039,128,0,69325:0:0:0:0:
329,192,69039,128,0,69325:0:0:0:0:
182,192,69325,128,0,69610:0:0:0:0:
475,192,69325,128,0,69610:0:0:0:0:
256,192,69610,128,0,69896:0:0:0:0:
36,192,69610,128,0,69896:0:0:0:0:
109,192,69896,128,0,70182:0:0:0:0:
402,192,69896,128,0,70182:0:0:0:0:
475,192,70182,128,0,70467:0:0:0:0:
256,192,70182,128,0,70467:0:0:0:0:
109,192,70467,128,0,70753:0:0:0:0:
329,192,70467,128,0,70753:0:0:0:0:
36,192,70753,128,0,71039:0:0:0:0:
402,192,70753,128,0,71039:0:0:0:0:
182,192,71039,128,0,71325:0:0:0:0:
475,192,71039,128,0,71325:0:0:0:0:
329,192,71325,1,0,0:0:0:0:
36,192,71325,1,0,0:0:0:0:
256,192,71467,1,0,0:0:0:0:
182,192,71610,1,0,0:0:0:0:
402,192,71753,1,0,0:0:0:0:
109,192,71753,1,0,0:0:0:0:
475,192,71753,1,0,0:0:0:0:
329,192,71896,1,0,0:0:0:0:
256,192,72039,1,0,0:0:0:0:
36,192,72182,1,0,0:0:0:0:
329,192,72182,1,0,0:0:0:0:
109,192,72182,1,0,0:0:0:0:
182,192,72325,1,0,0:0:0:0:
256,192,72467,1,0,0:0:0:0:
329,192,72610,1,0,0:0:0:0:
109,192,72753,1,0,0:0:0:0:
402,192,72753,1,0,0:0:0:0:
182,192,72896,1,0,0:0:0:0:
256,192,73039,1,0,0:0:0:0:
475,192,73039,1,0,0:0:0:0:
402,192,73182,1,0,0:0:0:0:
182,192,73182,1,0,0:0:0:0:
329,192,73325,1,0,0:0:0:0:
36,192,73325,1,0,0:0:0:0:
109,192,73325,1,0,0:0:0:0:
402,192,73467,1,0,0:0:0:0:
256,192,73610,128,0,74182:0:0:0:0:
475,192,73610,128,0,74182:0:0:0:0:
109,192,73610,1,0,0:0:0:0:
182,192,73896,128,0,74467:0:0:0:0:
402,192,73896,128,0,74467:0:0:0:0:
109,192,74182,128,0,74753:0:0:0:0:
329,192,74182,128,0,74753:0:0:0:0:
36,192,74467,128,0,75039:0:0:0:0:
256,192,74467,128,0,75039:0:0:0:0:
475,192,74467,1,0,0:0:0:0:
182,192,74753,128,0,75325:0:0:0:0:
402,192,74753,1,0,0:0:0:0:
109,192,75039,128,0,75610:0:0:0:0:
329,192,75039,1,0,0:0:0:0:
36,192,75325,128,0,75896:0:0:0:0:
256,192,75325,1,0,0:0:0:0:
475,192,75325,1,0,0:0:0:0:
182,192,75610,1,0,0:0:0:0:
402,192,75610,1,0,0:0:0:0:
329,192,75753,1,0,0:0:0:0:
475,192,75896,128,0,76182:0:0:0:0:
109,192,75896,1,0,0:0:0:0:
256,192,75896,1,0,0:0:0:0:
402,192,76182,128,0,76467:0:0:0:0:
182,192,76182,1,0,0:0:0:0:
329,192,76467,128,0,76753:0:0:0:0:
109,192,76467,1,0,0:0:0:0:
256,192,76753,128,0,77039:0:0:0:0:
36,192,76753,1,0,0:0:0:0:
402,192,77039,1,0,0:0:0:0:
182,192,77039,128,0,77325:0:0:0:0:
36,192,77325,1,0,0:0:0:0:
256,192,77325,1,0,0:0:0:0:
475,192,77610,1,0,0:0:0:0:
109,192,77610,1,0,0:0:0:0:
329,192,77610,1,0,0:0:0:0:
402,192,77896,1,0,0:0:0:0:
182,192,77896,1,0,0:0:0:0:
256,192,78182,128,0,78753:0:0:0:0:
36,192,78182,128,0,78753:0:0:0:0:
109,192,78467,128,0,79039:0:0:0:0:
329,192,78467,128,0,79039:0:0:0:0:
182,192,78753,128,0,79325:0:0:0:0:
402,192,78753,128,0,79325:0:0:0:0:
36,192,79039,1,0,0:0:0:0:
256,192,79039,128,0,79610:0:0:0:0:
475,192,79039,128,0,79610:0:0:0:0:
109,192,79325,1,0,0:0:0:0:
329,192,79325,128,0,79896:0:0:0:0:
182,192,79610,1,0,0:0:0:0:
402,192,79610,128,0,80182:0:0:0:0:
256,192,79896,1,0,0:0:0:0:
36,192,79896,1,0,0:0:0:0:
475,192,79896,128,0,80467:0:0:0:0:
329,192,80182,1,0,0:0:0:0:
109,192,80182,1,0,0:0:0:0:
182,192,80467,1,0,0:0:0:0:
402,192,80467,1,0,0:0:0:0:
256,192,80753,1,0,0:0:0:0:
475,192,80753,1,0,0:0:0:0:
329,192,81039,1,0,0:0:0:0:
109,192,81039,1,0,0:0:0:0:
402,192,81325,1,0,0:0:0:0:
182,192,81325,1,0,0:0:0:0:
36,192,81325,1,0,0:0:0:0:
256,192,81610,1,0,0:0:0:0:
182,192,81896,1,0,0:0:0:0:
475,192,81896,1,0,0:0:0:0:
402,192,82039,1,0,0:0:0:0:
329,192,82182,1,0,0:0:0:0:
36,192,82182,1,0,0:0:0:0:
109,192,82325,1,0,0:0:0:0:
182,192,82467,1,0,0:0:0:0:
402,192,82467,1,0,0:0:0:0:
329,192,82610,1,0,0:0:0:0:
256,192,82753,1,0,0:0:0:0:
475,192,82753,1,0,0:0:0:0:
109,192,82753,128,0,83325:0:0:0:0:
402,192,83039,128,0,83610:0:0:0:0:
182,192,83325,1,0,0:0:0:0:
36,192,83325,1,0,0:0:0:0:
475,192,83610,1,0,0:0:0:0:
256,192,83610,1,0,0:0:0:0:
109,192,83610,128,0,84182:0:0:0:0:
329,192,83896,128,0,84467:0:0:0:0:
182,192,84182,1,0,0:0:0:0:
36,192,84182,1,0,0:0:0:0:
256,192,84467,1,0,0:0:0:0:
475,192,84467,1,0,0:0:0:0:
182,192,84753,1,0,0:0:0:0:
402,192,84753,1,0,0:0:0:0:
329,192,85039,128,0,85610:0:0:0:0:
109,192,85039,1,0,0:0:0:0:
36,192,85325,128,0,85896:0:0:0:0:
256,192,85610,1,0,0:0:0:0:
475,192,85610,1,0,0:0:0:0:
182,192,85896,1,0,0:0:0:0:
402,192,85896,128,0,86467:0:0:0:0:
109,192,86182,128,0,86753:0:0:0:0:
256,192,86182,1,0,0:0:0:0:
329,192,86467,1,0,0:0:0:0:
475,192,86467,1,0,0:0:0:0:
256,192,86610,1,0,0:0:0:0:
182,192,86753,1,0,0:0:0:0:
36,192,86753,1,0,0:0:0:0:
256,192,87039,1,0,0:0:0:0:
475,192,87039,1,0,0:0:0:0:
402,192,87182,1,0,0:0:0:0:
182,192,87182,1,0,0:0:0:0:
109,192,87325,128,0,87610:0:0:0:0:
329,192,87325,128,0,87610:0:0:0:0:
182,192,87610,128,0,87896:0:0:0:0:
475,192,87610,128,0,87896:0:0:0:0:
256,192,87896,128,0,88182:0:0:0:0:
36,192,87896,128,0,88182:0:0:0:0:
109,192,88182,128,0,88467:0:0:0:0:
402,192,88182,128,0,88467:0:0:0:0:
475,192,88467,128,0,88753:0:0:0:0:
256,192,88467,128,0,88753:0:0:0:0:
36,192,88753,128,0,89039:0:0:0:0:
329,192,88753,128,0,89039:0:0:0:0:
109,192,89039,128,0,89325:0:0:0:0:
402,192,89039,128,0,89325:0:0:0:0:
182,192,89325,128,0,89610:0:0:0:0:
475,192,89325,128,0,89610:0:0:0:0:
36,192,89610,1,0,0:0:0:0:
402,192,89610,1,0,0:0:0:0:
256,192,89610,1,0,0:0:0:0:
329,192,89896,1,0,0:0:0:0:
109,192,90039,1,0,0:0:0:0:
256,192,90182,1,0,0:0:0:0:
182,192,90467,1,0,0:0:0:0:
402,192,90467,1,0,0:0:0:0:
36,192,90467,1,0,0:0:0:0:
329,192,91039,1,0,0:0:0:0:
182,192,91325,1,0,0:0:0:0:
109,192,91325,1,0,0:0:0:0:
329,192,91467,1,0,0:0:0:0:
109,192,91896,1,0,0:0:0:0:
402,192,91896,1,0,0:0:0:0:
329,192,91896,1,0,0:0:0:0:
36,192,91896,1,0,0:0:0:0:
402,192,92325,1,0,0:0:0:0:
329,192,92325,1,0,0:0:0:0:
109,192,92325,1,0,0:0:0:0:
36,192,92325,1,0,0:0:0:0:
402,192,92753,1,0,0:0:0:0:
329,192,92753,1,0,0:0:0:0:
109,192,92753,1,0,0:0:0:0:
36,192,92753,1,0,0:0:0:0:
475,192,94182,1,0,0:0:0:0:
402,192,94182,1,0,0:0:0:0:
109,192,94182,1,0,0:0:0:0:
182,192,94182,1,0,0:0:0:0:
182,192,94610,1,0,0:0:0:0:
109,192,94610,1,0,0:0:0:0:
475,192,94610,1,0,0:0:0:0:
402,192,94610,1,0,0:0:0:0:
475,192,95039,1,0,0:0:0:0:
402,192,95039,1,0,0:0:0:0:
109,192,95039,1,0,0:0:0:0:
182,192,95039,1,0,0:0:0:0:
256,192,95610,128,0,95896:0:0:0:0:
109,192,95896,128,0,96182:0:0:0:0:
329,192,96182,128,0,97325:0:0:0:0:
36,192,96467,1,0,0:0:0:0:
256,192,96467,1,0,0:0:0:0:
475,192,96467,1,0,0:0:0:0:
475,192,96896,1,0,0:0:0:0:
256,192,96896,1,0,0:0:0:0:
36,192,96896,1,0,0:0:0:0:
256,192,97325,1,0,0:0:0:0:
475,192,97325,1,0,0:0:0:0:
36,192,97325,128,0,97896:0:0:0:0:
256,192,97896,128,0,98467:0:0:0:0:
475,192,98467,128,0,99325:0:0:0:0:
36,192,98753,1,0,0:0:0:0:
109,192,98753,1,0,0:0:0:0:
182,192,99039,128,0,99610:0:0:0:0:
256,192,99325,1,0,0:0:0:0:
402,192,99610,128,0,99896:0:0:0:0:
109,192,99610,1,0,0:0:0:0:
329,192,99610,1,0,0:0:0:0:
36,192,99896,128,0,100182:0:0:0:0:
256,192,99896,1,0,0:0:0:0:
475,192,99896,1,0,0:0:0:0:
182,192,100182,128,0,100467:0:0:0:0:
402,192,100182,1,0,0:0:0:0:
329,192,100467,128,0,100753:0:0:0:0:
36,192,100467,1,0,0:0:0:0:
109,192,100610,1,0,0:0:0:0:
475,192,100753,128,0,101039:0:0:0:0:
182,192,100753,1,0,0:0:0:0:
256,192,100896,1,0,0:0:0:0:
329,192,101039,1,0,0:0:0:0:
402,192,101039,1,0,0:0:0:0:
109,192,101039,1,0,0:0:0:0:
36,192,101039,1,0,0:0:0:0:
402,192,101467,1,0,0:0:0:0:
329,192,101467,1,0,0:0:0:0:
109,192,101467,1,0,0:0:0:0:
36,192,101467,1,0,0:0:0:0:
109,192,101896,1,0,0:0:0:0:
36,192,101896,1,0,0:0:0:0:
329,192,101896,1,0,0:0:0:0:
402,192,101896,1,0,0:0:0:0:
475,192,102182,1,0,0:0:0:0:
329,192,102467,1,0,0:0:0:0:
36,192,102467,128,0,103325:0:0:0:0:
475,192,102753,1,0,0:0:0:0:
182,192,102753,1,0,0:0:0:0:
402,192,102896,1,0,0:0:0:0:
329,192,103039,1,0,0:0:0:0:
256,192,103182,1,0,0:0:0:0:
182,192,103325,1,0,0:0:0:0:
475,192,103325,1,0,0:0:0:0:
402,192,103325,1,0,0:0:0:0:
109,192,103325,1,0,0:0:0:0:
182,192,103753,1,0,0:0:0:0:
109,192,103753,1,0,0:0:0:0:
402,192,103753,1,0,0:0:0:0:
475,192,103753,1,0,0:0:0:0:
475,192,104182,1,0,0:0:0:0:
402,192,104182,1,0,0:0:0:0:
182,192,104182,1,0,0:0:0:0:
109,192,104182,1,0,0:0:0:0:
36,192,104467,1,0,0:0:0:0:
182,192,104753,1,0,0:0:0:0:
329,192,105039,1,0,0:0:0:0:
475,192,105039,1,0,0:0:0:0:
36,192,105039,1,0,0:0:0:0:
109,192,105182,1,0,0:0:0:0:
182,192,105325,1,0,0:0:0:0:
256,192,105467,1,0,0:0:0:0:
329,192,105610,1,0,0:0:0:0:
475,192,105610,1,0,0:0:0:0:
36,192,105610,1,0,0:0:0:0:
109,192,105753,1,0,0:0:0:0:
182,192,105896,1,0,0:0:0:0:
402,192,105896,1,0,0:0:0:0:
329,192,106039,1,0,0:0:0:0:
256,192,106182,1,0,0:0:0:0:
475,192,106182,1,0,0:0:0:0:
36,192,106182,1,0,0:0:0:0:
329,192,106325,1,0,0:0:0:0:
402,192,106467,1,0,0:0:0:0:
109,192,106467,1,0,0:0:0:0:
182,192,106610,1,0,0:0:0:0:
256,192,106753,1,0,0:0:0:0:
475,192,106753,1,0,0:0:0:0:
402,192,106896,1,0,0:0:0:0:
329,192,107039,1,0,0:0:0:0:
36,192,107039,1,0,0:0:0:0:
109,192,107182,1,0,0:0:0:0:
182,192,107325,1,0,0:0:0:0:
475,192,107325,1,0,0:0:0:0:
402,192,107325,1,0,0:0:0:0:
329,192,107467,1,0,0:0:0:0:
256,192,107610,1,0,0:0:0:0:
182,192,107753,1,0,0:0:0:0:
109,192,107896,1,0,0:0:0:0:
36,192,107896,1,0,0:0:0:0:
402,192,107896,1,0,0:0:0:0:
329,192,108182,1,0,0:0:0:0:
109,192,108325,1,0,0:0:0:0:
36,192,108325,1,0,0:0:0:0:
329,192,108467,1,0,0:0:0:0:
475,192,108753,128,0,109610:0:0:0:0:
36,192,108753,128,0,109610:0:0:0:0:
256,192,108753,128,0,109610:0:0:0:0:
109,192,109610,1,0,0:0:0:0:
402,192,109610,1,0,0:0:0:0:
182,192,110182,128,0,111039:0:0:0:0:
475,192,110182,1,0,0:0:0:0:
329,192,110182,1,0,0:0:0:0:
36,192,110467,1,0,0:0:0:0:
329,192,110753,1,0,0:0:0:0:
475,192,111039,128,0,111896:0:0:0:0:
256,192,111039,1,0,0:0:0:0:
36,192,111039,1,0,0:0:0:0:
109,192,111325,1,0,0:0:0:0:
256,192,111610,1,0,0:0:0:0:
182,192,111753,1,0,0:0:0:0:
109,192,111896,1,0,0:0:0:0:
329,192,111896,1,0,0:0:0:0:
256,192,112182,1,0,0:0:0:0:
36,192,112467,128,0,113325:0:0:0:0:
182,192,112467,1,0,0:0:0:0:
402,192,112467,1,0,0:0:0:0:
329,192,112753,1,0,0:0:0:0:
256,192,113039,1,0,0:0:0:0:
109,192,113039,1,0,0:0:0:0:
475,192,113325,128,0,114182:0:0:0:0:
329,192,113325,1,0,0:0:0:0:
109,192,113610,1,0,0:0:0:0:
182,192,113896,1,0,0:0:0:0:
256,192,114182,1,0,0:0:0:0:
36,192,114182,1,0,0:0:0:0:
329,192,114467,1,0,0:0:0:0:
256,192,114610,1,0,0:0:0:0:
475,192,114753,1,0,0:0:0:0:
182,192,114753,1,0,0:0:0:0:
402,192,114753,128,0,115325:0:0:0:0:
109,192,115039,128,0,115610:0:0:0:0:
329,192,115325,128,0,115896:0:0:0:0:
256,192,115325,1,0,0:0:0:0:
36,192,115610,128,0,116182:0:0:0:0:
475,192,115896,128,0,116467:0:0:0:0:
402,192,115896,1,0,0:0:0:0:
182,192,116182,128,0,116753:0:0:0:0:
109,192,116182,1,0,0:0:0:0:
329,192,116467,128,0,117039:0:0:0:0:
402,192,116467,1,0,0:0:0:0:
109,192,116753,128,0,117610:0:0:0:0:
256,192,117039,1,0,0:0:0:0:
475,192,117039,1,0,0:0:0:0:
402,192,117325,1,0,0:0:0:0:
182,192,117325,1,0,0:0:0:0:
329,192,117610,1,0,0:0:0:0:
36,192,117610,1,0,0:0:0:0:
109,192,117896,1,0,0:0:0:0:
402,192,117896,1,0,0:0:0:0:
182,192,118182,1,0,0:0:0:0:
475,192,118182,1,0,0:0:0:0:
402,192,118325,1,0,0:0:0:0:
109,192,118467,1,0,0:0:0:0:
329,192,118467,1,0,0:0:0:0:
256,192,118610,1,0,0:0:0:0:
36,192,118753,1,0,0:0:0:0:
182,192,118753,1,0,0:0:0:0:
402,192,118753,1,0,0:0:0:0:
329,192,119039,1,0,0:0:0:0:
109,192,119039,1,0,0:0:0:0:
475,192,119325,1,0,0:0:0:0:
182,192,119325,1,0,0:0:0:0:
402,192,119325,1,0,0:0:0:0:
475,192,119610,1,0,0:0:0:0:
109,192,119610,1,0,0:0:0:0:
329,192,119610,1,0,0:0:0:0:
36,192,119896,1,0,0:0:0:0:
256,192,119896,1,0,0:0:0:0:
182,192,120182,128,0,120467:0:0:0:0:
475,192,120182,128,0,120467:0:0:0:0:
329,192,120182,128,0,120467:0:0:0:0:
109,192,120753,128,0,121325:0:0:0:0:
256,192,120753,128,0,121325:0:0:0:0:
402,192,120753,128,0,121325:0:0:0:0:
36,192,121325,128,0,122467:0:0:0:0:
329,192,121325,128,0,121896:0:0:0:0:
182,192,121325,128,0,122182:0:0:0:0:
402,192,121896,1,0,0:0:0:0:
256,192,122182,1,0,0:0:0:0:
109,192,122467,128,0,123039:0:0:0:0:
329,192,122467,128,0,123039:0:0:0:0:
475,192,122467,128,0,123039:0:0:0:0:
36,192,123039,1,0,0:0:0:0:
256,192,123039,1,0,0:0:0:0:
109,192,123325,1,0,0:0:0:0:
329,192,123325,1,0,0:0:0:0:
475,192,123420,1,0,0:0:0:0:
402,192,123515,1,0,0:0:0:0:
256,192,123610,1,0,0:0:0:0:
36,192,123610,1,0,0:0:0:0:
402,192,123896,1,0,0:0:0:0:
329,192,123896,128,0,124467:0:0:0:0:
109,192,124182,1,0,0:0:0:0:
36,192,124182,128,0,124753:0:0:0:0:
475,192,124467,1,0,0:0:0:0:
402,192,124467,128,0,125039:0:0:0:0:
182,192,124753,1,0,0:0:0:0:
109,192,124753,128,0,125325:0:0:0:0:
475,192,125039,1,0,0:0:0:0:
329,192,125039,1,0,0:0:0:0:
256,192,125182,1,0,0:0:0:0:
182,192,125325,1,0,0:0:0:0:
402,192,125325,1,0,0:0:0:0:
329,192,125467,1,0,0:0:0:0:
256,192,125610,1,0,0:0:0:0:
36,192,125610,1,0,0:0:0:0:
109,192,125753,1,0,0:0:0:0:
182,192,125896,1,0,0:0:0:0:
402,192,125896,1,0,0:0:0:0:
329,192,126039,1,0,0:0:0:0:
256,192,126182,1,0,0:0:0:0:
36,192,126182,1,0,0:0:0:0:
475,192,126182,1,0,0:0:0:0:
475,192,126610,1,0,0:0:0:0:
256,192,126610,1,0,0:0:0:0:
36,192,126610,1,0,0:0:0:0:
256,192,127039,128,0,127896:0:0:0:0:
475,192,127039,128,0,127896:0:0:0:0:
36,192,127039,128,0,127896:0:0:0:0:
109,192,127896,5,0,0:0:0:0:
402,192,127896,1,0,0:0:0:0:
256,192,128467,128,0,129039:0:0:0:0:
475,192,128467,128,0,129039:0:0:0:0:
182,192,128753,128,0,129325:0:0:0:0:
402,192,128753,128,0,129325:0:0:0:0:
109,192,129039,128,0,129610:0:0:0:0:
329,192,129039,128,0,129610:0:0:0:0:
36,192,129325,128,0,129896:0:0:0:0:
256,192,129325,128,0,129896:0:0:0:0:
475,192,129325,1,0,0:0:0:0:
182,192,129610,128,0,130182:0:0:0:0:
402,192,129610,1,0,0:0:0:0:
109,192,129896,128,0,130467:0:0:0:0:
329,192,129896,1,0,0:0:0:0:
36,192,130182,128,0,130753:0:0:0:0:
256,192,130182,1,0,0:0:0:0:
475,192,130182,1,0,0:0:0:0:
182,192,130467,1,0,0:0:0:0:
402,192,130467,1,0,0:0:0:0:
329,192,130610,1,0,0:0:0:0:
475,192,130753,128,0,131039:0:0:0:0:
109,192,130753,1,0,0:0:0:0:
256,192,130753,1,0,0:0:0:0:
402,192,131039,128,0,131325:0:0:0:0:
182,192,131039,1,0,0:0:0:0:
329,192,131325,128,0,131610:0:0:0:0:
109,192,131325,1,0,0:0:0:0:
256,192,131610,128,0,131896:0:0:0:0:
36,192,131610,1,0,0:0:0:0:
402,192,131896,1,0,0:0:0:0:
182,192,131896,128,0,132182:0:0:0:0:
36,192,132182,1,0,0:0:0:0:
256,192,132182,1,0,0:0:0:0:
475,192,132467,1,0,0:0:0:0:
109,192,132467,1,0,0:0:0:0:
329,192,132467,1,0,0:0:0:0:
402,192,132753,1,0,0:0:0:0:
182,192,132753,1,0,0:0:0:0:
256,192,133039,128,0,133610:0:0:0:0:
36,192,133039,128,0,133610:0:0:0:0:
109,192,133325,128,0,133896:0:0:0:0:
329,192,133325,128,0,133896:0:0:0:0:
182,192,133610,128,0,134182:0:0:0:0:
402,192,133610,128,0,134182:0:0:0:0:
36,192,133896,1,0,0:0:0:0:
256,192,133896,128,0,134467:0:0:0:0:
475,192,133896,128,0,134467:0:0:0:0:
109,192,134182,1,0,0:0:0:0:
329,192,134182,128,0,134753:0:0:0:0:
182,192,134467,1,0,0:0:0:0:
402,192,134467,128,0,135039:0:0:0:0:
256,192,134753,1,0,0:0:0:0:
36,192,134753,1,0,0:0:0:0:
475,192,134753,128,0,135325:0:0:0:0:
329,192,135039,1,0,0:0:0:0:
109,192,135039,1,0,0:0:0:0:
182,192,135325,1,0,0:0:0:0:
402,192,135325,1,0,0:0:0:0:
256,192,135610,1,0,0:0:0:0:
475,192,135610,1,0,0:0:0:0:
329,192,135896,1,0,0:0:0:0:
109,192,135896,1,0,0:0:0:0:
402,192,136182,1,0,0:0:0:0:
182,192,136182,1,0,0:0:0:0:
36,192,136182,1,0,0:0:0:0:
256,192,136467,1,0,0:0:0:0:
182,192,136753,1,0,0:0:0:0:
475,192,136753,1,0,0:0:0:0:
402,192,136896,1,0,0:0:0:0:
329,192,137039,1,0,0:0:0:0:
36,192,137039,1,0,0:0:0:0:
109,192,137182,1,0,0:0:0:0:
182,192,137325,1,0,0:0:0:0:
402,192,137325,1,0,0:0:0:0:
329,192,137467,1,0,0:0:0:0:
256,192,137610,1,0,0:0:0:0:
475,192,137610,1,0,0:0:0:0:
109,192,137610,128,0,138182:0:0:0:0:
402,192,137896,128,0,138467:0:0:0:0:
182,192,138182,1,0,0:0:0:0:
36,192,138182,1,0,0:0:0:0:
475,192,138467,1,0,0:0:0:0:
256,192,138467,1,0,0:0:0:0:
109,192,138467,128,0,139039:0:0:0:0:
329,192,138753,128,0,139325:0:0:0:0:
182,192,139039,1,0,0:0:0:0:
36,192,139039,1,0,0:0:0:0:
256,192,139325,1,0,0:0:0:0:
475,192,139325,1,0,0:0:0:0:
182,192,139610,1,0,0:0:0:0:
402,192,139610,1,0,0:0:0:0:
329,192,139896,128,0,140467:0:0:0:0:
109,192,139896,1,0,0:0:0:0:
36,192,140182,128,0,140753:0:0:0:0:
256,192,140467,1,0,0:0:0:0:
475,192,140467,1,0,0:0:0:0:
182,192,140753,1,0,0:0:0:0:
402,192,140753,128,0,141325:0:0:0:0:
109,192,141039,128,0,141610:0:0:0:0:
256,192,141039,1,0,0:0:0:0:
329,192,141325,1,0,0:0:0:0:
475,192,141325,1,0,0:0:0:0:
256,192,141467,1,0,0:0:0:0:
182,192,141610,1,0,0:0:0:0:
36,192,141610,1,0,0:0:0:0:
256,192,141896,1,0,0:0:0:0:
475,192,141896,1,0,0:0:0:0:
402,192,142039,1,0,0:0:0:0:
182,192,142039,1,0,0:0:0:0:
109,192,142182,128,0,142753:0:0:0:0:
329,192,142182,128,0,142753:0:0:0:0:
182,192,142467,128,0,143039:0:0:0:0:
402,192,142467,128,0,143039:0:0:0:0:
256,192,142753,128,0,143325:0:0:0:0:
475,192,142753,128,0,143325:0:0:0:0:
36,192,142753,128,0,144182:0:0:0:0:
109,192,143039,128,0,143896:0:0:0:0:
329,192,143039,128,0,143610:0:0:0:0:
182,192,143325,128,0,143610:0:0:0:0:
402,192,143325,128,0,143896:0:0:0:0:
256,192,143610,128,0,144182:0:0:0:0:
475,192,143610,128,0,144182:0:0:0:0:
182,192,143896,128,0,144467:0:0:0:0:
329,192,143896,128,0,144467:0:0:0:0:
109,192,144182,128,0,144467:0:0:0:0:
402,192,144182,128,0,144467:0:0:0:0:
36,192,144467,1,0,0:0:0:0:
475,192,144467,1,0,0:0:0:0:
256,192,144467,1,0,0:0:0:0:
402,192,144610,1,0,0:0:0:0:
329,192,144753,1,0,0:0:0:0:
475,192,144896,1,0,0:0:0:0:
256,192,144896,1,0,0:0:0:0:
36,192,144896,1,0,0:0:0:0:
109,192,145039,1,0,0:0:0:0:
182,192,145182,1,0,0:0:0:0:
256,192,145325,1,0,0:0:0:0:
402,192,145325,1,0,0:0:0:0:
475,192,145325,1,0,0:0:0:0:
109,192,145467,1,0,0:0:0:0:
182,192,145610,1,0,0:0:0:0:
256,192,145753,1,0,0:0:0:0:
36,192,145896,1,0,0:0:0:0:
329,192,145896,1,0,0:0:0:0:
109,192,146039,1,0,0:0:0:0:
182,192,146182,1,0,0:0:0:0:
402,192,146182,1,0,0:0:0:0:
329,192,146325,1,0,0:0:0:0:
109,192,146325,1,0,0:0:0:0:
256,192,146467,1,0,0:0:0:0:
36,192,146467,1,0,0:0:0:0:
475,192,146467,1,0,0:0:0:0:
182,192,146610,1,0,0:0:0:0:
256,192,146753,128,0,147325:0:0:0:0:
475,192,146753,128,0,147325:0:0:0:0:
109,192,146753,1,0,0:0:0:0:
182,192,147039,128,0,147610:0:0:0:0:
402,192,147039,128,0,147610:0:0:0:0:
109,192,147325,128,0,147896:0:0:0:0:
329,192,147325,128,0,147896:0:0:0:0:
36,192,147610,128,0,148182:0:0:0:0:
256,192,147610,128,0,148182:0:0:0:0:
475,192,147610,1,0,0:0:0:0:
182,192,147896,128,0,148467:0:0:0:0:
402,192,147896,1,0,0:0:0:0:
109,192,148182,128,0,148753:0:0:0:0:
329,192,148182,1,0,0:0:0:0:
36,192,148467,128,0,149039:0:0:0:0:
256,192,148467,1,0,0:0:0:0:
475,192,148467,1,0,0:0:0:0:
182,192,148753,1,0,0:0:0:0:
402,192,148753,1,0,0:0:0:0:
329,192,148896,1,0,0:0:0:0:
475,192,149039,128,0,149325:0:0:0:0:
109,192,149039,1,0,0:0:0:0:
256,192,149039,1,0,0:0:0:0:
402,192,149325,128,0,149610:0:0:0:0:
182,192,149325,1,0,0:0:0:0:
329,192,149610,128,0,149896:0:0:0:0:
109,192,149610,1,0,0:0:0:0:
256,192,149896,128,0,150182:0:0:0:0:
36,192,149896,1,0,0:0:0:0:
402,192,150182,1,0,0:0:0:0:
182,192,150182,128,0,150467:0:0:0:0:
36,192,150467,1,0,0:0:0:0:
256,192,150467,1,0,0:0:0:0:
475,192,150753,1,0,0:0:0:0:
109,192,150753,1,0,0:0:0:0:
329,192,150753,1,0,0:0:0:0:
402,192,151039,1,0,0:0:0:0:
182,192,151039,1,0,0:0:0:0:
256,192,151325,128,0,151896:0:0:0:0:
36,192,151325,128,0,151896:0:0:0:0:
109,192,151610,128,0,152182:0:0:0:0:
329,192,151610,128,0,152182:0:0:0:0:
182,192,151896,128,0,152467:0:0:0:0:
402,192,151896,128,0,152467:0:0:0:0:
36,192,152182,1,0,0:0:0:0:
256,192,152182,128,0,152753:0:0:0:0:
475,192,152182,128,0,152753:0:0:0:0:
109,192,152467,1,0,0:0:0:0:
329,192,152467,128,0,153039:0:0:0:0:
182,192,152753,1,0,0:0:0:0:
402,192,152753,128,0,153325:0:0:0:0:
256,192,153039,1,0,0:0:0:0:
36,192,153039,1,0,0:0:0:0:
475,192,153039,128,0,153610:0:0:0:0:
329,192,153325,1,0,0:0:0:0:
109,192,153325,1,0,0:0:0:0:
182,192,153610,1,0,0:0:0:0:
402,192,153610,1,0,0:0:0:0:
256,192,153896,1,0,0:0:0:0:
475,192,153896,1,0,0:0:0:0:
329,192,154182,1,0,0:0:0:0:
109,192,154182,1,0,0:0:0:0:
402,192,154467,1,0,0:0:0:0:
182,192,154467,1,0,0:0:0:0:
36,192,154467,1,0,0:0:0:0:
256,192,154753,1,0,0:0:0:0:
182,192,155039,1,0,0:0:0:0:
475,192,155039,1,0,0:0:0:0:
402,192,155182,1,0,0:0:0:0:
329,192,155325,1,0,0:0:0:0:
36,192,155325,1,0,0:0:0:0:
109,192,155467,1,0,0:0:0:0:
182,192,155610,1,0,0:0:0:0:
402,192,155610,1,0,0:0:0:0:
329,192,155753,1,0,0:0:0:0:
256,192,155896,1,0,0:0:0:0:
475,192,155896,1,0,0:0:0:0:
109,192,155896,128,0,156467:0:0:0:0:
402,192,156182,128,0,156753:0:0:0:0:
182,192,156467,1,0,0:0:0:0:
36,192,156467,1,0,0:0:0:0:
475,192,156753,1,0,0:0:0:0:
256,192,156753,1,0,0:0:0:0:
109,192,156753,128,0,157325:0:0:0:0:
329,192,157039,128,0,157610:0:0:0:0:
182,192,157325,1,0,0:0:0:0:
36,192,157325,1,0,0:0:0:0:
256,192,157610,1,0,0:0:0:0:
475,192,157610,1,0,0:0:0:0:
182,192,157896,1,0,0:0:0:0:
402,192,157896,1,0,0:0:0:0:
329,192,158182,128,0,158753:0:0:0:0:
109,192,158182,1,0,0:0:0:0:
36,192,158467,128,0,159039:0:0:0:0:
256,192,158753,1,0,0:0:0:0:
475,192,158753,1,0,0:0:0:0:
182,192,159039,1,0,0:0:0:0:
402,192,159039,128,0,159610:0:0:0:0:
109,192,159325,128,0,159896:0:0:0:0:
256,192,159325,1,0,0:0:0:0:
329,192,159610,1,0,0:0:0:0:
475,192,159610,1,0,0:0:0:0:
256,192,159753,1,0,0:0:0:0:
182,192,159896,1,0,0:0:0:0:
36,192,159896,1,0,0:0:0:0:
329,192,160039,1,0,0:0:0:0:
109,192,160039,1,0,0:0:0:0:
256,192,160182,1,0,0:0:0:0:
475,192,160182,1,0,0:0:0:0:
402,192,160325,1,0,0:0:0:0:
182,192,160325,1,0,0:0:0:0:
109,192,160467,128,0,161039:0:0:0:0:
329,192,160467,128,0,161039:0:0:0:0:
182,192,160753,128,0,161325:0:0:0:0:
402,192,160753,128,0,161325:0:0:0:0:
256,192,161039,128,0,161610:0:0:0:0:
475,192,161039,128,0,161610:0:0:0:0:
36,192,161039,128,0,162467:0:0:0:0:
109,192,161325,128,0,162182:0:0:0:0:
329,192,161325,128,0,161896:0:0:0:0:
182,192,161610,128,0,161896:0:0:0:0:
402,192,161610,128,0,162182:0:0:0:0:
256,192,161896,128,0,162467:0:0:0:0:
475,192,161896,128,0,162467:0:0:0:0:
182,192,162182,128,0,162753:0:0:0:0:
329,192,162182,128,0,162753:0:0:0:0:
109,192,162467,128,0,162753:0:0:0:0:
402,192,162467,128,0,162753:0:0:0:0:
36,192,162753,1,0,0:0:0:0:
475,192,162753,1,0,0:0:0:0:
256,192,162753,1,0,0:0:0:0:
329,192,163039,1,0,0:0:0:0:
109,192,163182,1,0,0:0:0:0:
256,192,163325,1,0,0:0:0:0:
402,192,163610,128,0,165039:0:0:0:0:
182,192,163610,128,0,165039:0:0:0:0:
36,192,163610,128,0,165039:0:0:0:0:
475,192,165039,1,0,0:0:0:0:
329,192,165325,1,0,0:0:0:0:
182,192,165610,1,0,0:0:0:0:
36,192,165896,1,0,0:0:0:0:
329,192,166467,1,0,0:0:0:0:
36,192,167325,1,0,0:0:0:0:
109,192,167610,1,0,0:0:0:0:
182,192,167896,1,0,0:0:0:0:
256,192,168182,1,0,0:0:0:0:
329,192,168325,1,0,0:0:0:0:
402,192,168467,1,0,0:0:0:0:
475,192,168753,1,0,0:0:0:0:
329,192,169039,1,0,0:0:0:0:
182,192,169325,1,0,0:0:0:0:
36,192,169610,1,0,0:0:0:0:
402,192,169610,1,0,0:0:0:0:
329,192,169896,1,0,0:0:0:0:
256,192,170182,1,0,0:0:0:0:
182,192,170467,1,0,0:0:0:0:
109,192,171039,1,0,0:0:0:0:
402,192,171039,1,0,0:0:0:0:
329,192,171325,1,0,0:0:0:0:
256,192,171610,1,0,0:0:0:0:
182,192,171896,1,0,0:0:0:0:
36,192,171896,1,0,0:0:0:0:
402,192,172467,1,0,0:0:0:0:
182,192,172610,1,0,0:0:0:0:
329,192,172753,1,0,0:0:0:0:
36,192,172896,1,0,0:0:0:0:
256,192,173039,1,0,0:0:0:0:
109,192,173182,1,0,0:0:0:0:
329,192,173325,1,0,0:0:0:0:
475,192,173325,1,0,0:0:0:0:
182,192,173467,1,0,0:0:0:0:
475,192,173610,1,0,0:0:0:0:
329,192,173610,1,0,0:0:0:0:
36,192,173610,1,0,0:0:0:0:
402,192,173753,1,0,0:0:0:0:
256,192,173753,1,0,0:0:0:0:
109,192,173896,1,0,0:0:0:0:
182,192,174039,1,0,0:0:0:0:
256,192,174182,1,0,0:0:0:0:
475,192,174182,1,0,0:0:0:0:
402,192,174182,1,0,0:0:0:0:
402,192,174610,1,0,0:0:0:0:
475,192,174610,1,0,0:0:0:0:
475,192,175039,1,0,0:0:0:0:
402,192,175039,1,0,0:0:0:0:
36,192,175325,1,0,0:0:0:0:
256,192,175325,1,0,0:0:0:0:
182,192,175325,1,0,0:0:0:0:
475,192,175610,1,0,0:0:0:0:
402,192,175610,1,0,0:0:0:0:
475,192,176182,1,0,0:0:0:0:
402,192,176182,1,0,0:0:0:0:
109,192,176467,1,0,0:0:0:0:
36,192,176467,1,0,0:0:0:0:
329,192,176467,1,0,0:0:0:0:
475,192,177039,1,0,0:0:0:0:
402,192,177039,1,0,0:0:0:0:
256,192,177039,1,0,0:0:0:0:
109,192,177325,1,0,0:0:0:0:
36,192,177325,1,0,0:0:0:0:
402,192,177610,1,0,0:0:0:0:
329,192,177753,1,0,0:0:0:0:
36,192,177896,1,0,0:0:0:0:
256,192,177896,1,0,0:0:0:0:
109,192,178039,1,0,0:0:0:0:
182,192,178182,1,0,0:0:0:0:
402,192,178182,1,0,0:0:0:0:
329,192,178325,1,0,0:0:0:0:
256,192,178467,1,0,0:0:0:0:
475,192,178467,1,0,0:0:0:0:
402,192,178610,1,0,0:0:0:0:
182,192,178610,1,0,0:0:0:0:
109,192,178753,128,0,179039:0:0:0:0:
329,192,178753,128,0,179039:0:0:0:0:
182,192,179039,128,0,179325:0:0:0:0:
475,192,179039,128,0,179325:0:0:0:0:
256,192,179325,128,0,179610:0:0:0:0:
36,192,179325,128,0,179610:0:0:0:0:
109,192,179610,128,0,179896:0:0:0:0:
402,192,179610,128,0,179896:0:0:0:0:
475,192,179896,128,0,180182:0:0:0:0:
256,192,179896,128,0,180182:0:0:0:0:
36,192,180182,128,0,180467:0:0:0:0:
329,192,180182,128,0,180467:0:0:0:0:
109,192,180467,128,0,180753:0:0:0:0:
402,192,180467,128,0,180753:0:0:0:0:
182,192,180753,128,0,181039:0:0:0:0:
475,192,180753,128,0,181039:0:0:0:0:
36,192,181039,1,0,0:0:0:0:
402,192,181039,1,0,0:0:0:0:
256,192,181039,1,0,0:0:0:0:
402,192,181467,1,0,0:0:0:0:
256,192,181467,1,0,0:0:0:0:
36,192,181467,1,0,0:0:0:0:
36,192,181896,128,0,183325:0:0:0:0:
256,192,181896,128,0,183039:0:0:0:0:
402,192,181896,128,0,182753:0:0:0:0:
475,192,182182,128,0,182753:0:0:0:0:
329,192,182467,128,0,183039:0:0:0:0:
109,192,182753,128,0,183325:0:0:0:0:
256,192,183325,128,0,183896:0:0:0:0:
475,192,183325,128,0,183896:0:0:0:0:
182,192,183610,128,0,184182:0:0:0:0:
402,192,183610,128,0,184182:0:0:0:0:
109,192,183896,128,0,184467:0:0:0:0:
329,192,183896,128,0,184467:0:0:0:0:
36,192,184182,128,0,184753:0:0:0:0:
256,192,184182,128,0,184753:0:0:0:0:
475,192,184182,1,0,0:0:0:0:
182,192,184467,128,0,185039:0:0:0:0:
402,192,184467,1,0,0:0:0:0:
109,192,184753,128,0,185325:0:0:0:0:
329,192,184753,1,0,0:0:0:0:
36,192,185039,128,0,185610:0:0:0:0:
256,192,185039,1,0,0:0:0:0:
475,192,185039,1,0,0:0:0:0:
182,192,185325,1,0,0:0:0:0:
402,192,185325,1,0,0:0:0:0:
329,192,185467,1,0,0:0:0:0:
475,192,185610,128,0,185896:0:0:0:0:
109,192,185610,1,0,0:0:0:0:
256,192,185610,1,0,0:0:0:0:
402,192,185896,128,0,186182:0:0:0:0:
182,192,185896,1,0,0:0:0:0:
329,192,186182,128,0,186467:0:0:0:0:
109,192,186182,1,0,0:0:0:0:
256,192,186467,128,0,186753:0:0:0:0:
36,192,186467,1,0,0:0:0:0:
402,192,186753,1,0,0:0:0:0:
182,192,186753,128,0,187039:0:0:0:0:
36,192,187039,1,0,0:0:0:0:
256,192,187039,1,0,0:0:0:0:
475,192,187325,1,0,0:0:0:0:
109,192,187325,1,0,0:0:0:0:
329,192,187325,1,0,0:0:0:0:
402,192,187610,1,0,0:0:0:0:
182,192,187610,1,0,0:0:0:0:
256,192,187896,128,0,188467:0:0:0:0:
36,192,187896,128,0,188467:0:0:0:0:
109,192,188182,128,0,188753:0:0:0:0:
329,192,188182,128,0,188753:0:0:0:0:
182,192,188467,128,0,189039:0:0:0:0:
402,192,188467,128,0,189039:0:0:0:0:
36,192,188753,1,0,0:0:0:0:
256,192,188753,128,0,189325:0:0:0:0:
475,192,188753,128,0,189325:0:0:0:0:
109,192,189039,1,0,0:0:0:0:
329,192,189039,128,0,189610:0:0:0:0:
182,192,189325,1,0,0:0:0:0:
402,192,189325,128,0,189896:0:0:0:0:
256,192,189610,1,0,0:0:0:0:
36,192,189610,1,0,0:0:0:0:
475,192,189610,128,0,190182:0:0:0:0:
329,192,189896,1,0,0:0:0:0:
109,192,189896,1,0,0:0:0:0:
182,192,190182,1,0,0:0:0:0:
402,192,190182,1,0,0:0:0:0:
256,192,190467,1,0,0:0:0:0:
475,192,190467,1,0,0:0:0:0:
329,192,190753,1,0,0:0:0:0:
109,192,190753,1,0,0:0:0:0:
402,192,191039,1,0,0:0:0:0:
182,192,191039,1,0,0:0:0:0:
36,192,191039,1,0,0:0:0:0:
256,192,191325,1,0,0:0:0:0:
182,192,191610,1,0,0:0:0:0:
475,192,191610,1,0,0:0:0:0:
402,192,191753,1,0,0:0:0:0:
329,192,191896,1,0,0:0:0:0:
36,192,191896,1,0,0:0:0:0:
109,192,192039,1,0,0:0:0:0:
182,192,192182,1,0,0:0:0:0:
402,192,192182,1,0,0:0:0:0:
329,192,192325,1,0,0:0:0:0:
256,192,192467,1,0,0:0:0:0:
475,192,192467,1,0,0:0:0:0:
109,192,192467,128,0,193039:0:0:0:0:
402,192,192753,128,0,193325:0:0:0:0:
182,192,193039,1,0,0:0:0:0:
36,192,193039,1,0,0:0:0:0:
475,192,193325,1,0,0:0:0:0:
256,192,193325,1,0,0:0:0:0:
109,192,193325,128,0,193896:0:0:0:0:
329,192,193610,128,0,194182:0:0:0:0:
182,192,193896,1,0,0:0:0:0:
36,192,193896,1,0,0:0:0:0:
256,192,194182,1,0,0:0:0:0:
475,192,194182,1,0,0:0:0:0:
182,192,194467,1,0,0:0:0:0:
402,192,194467,1,0,0:0:0:0:
329,192,194753,128,0,195325:0:0:0:0:
109,192,194753,1,0,0:0:0:0:
36,192,195039,128,0,195610:0:0:0:0:
256,192,195325,1,0,0:0:0:0:
475,192,195325,1,0,0:0:0:0:
182,192,195610,1,0,0:0:0:0:
402,192,195610,128,0,196182:0:0:0:0:
109,192,195896,128,0,196467:0:0:0:0:
256,192,195896,1,0,0:0:0:0:
329,192,196182,1,0,0:0:0:0:
475,192,196182,1,0,0:0:0:0:
256,192,196325,1,0,0:0:0:0:
182,192,196467,1,0,0:0:0:0:
36,192,196467,1,0,0:0:0:0:
256,192,196753,1,0,0:0:0:0:
475,192,196753,1,0,0:0:0:0:
402,192,196896,1,0,0:0:0:0:
182,192,196896,1,0,0:0:0:0:
329,192,197039,128,0,197610:0:0:0:0:
109,192,197039,128,0,197610:0:0:0:0:
402,192,197325,128,0,197896:0:0:0:0:
182,192,197325,128,0,197896:0:0:0:0:
36,192,197610,128,0,199039:0:0:0:0:
475,192,197610,128,0,198182:0:0:0:0:
256,192,197610,128,0,198182:0:0:0:0:
329,192,197896,128,0,198467:0:0:0:0:
109,192,197896,128,0,198753:0:0:0:0:
402,192,198182,128,0,198753:0:0:0:0:
182,192,198182,128,0,198467:0:0:0:0:
475,192,198467,128,0,199039:0:0:0:0:
256,192,198467,128,0,199039:0:0:0:0:
329,192,198753,128,0,199325:0:0:0:0:
182,192,198753,128,0,199325:0:0:0:0:
402,192,199039,128,0,199325:0:0:0:0:
109,192,199039,128,0,199325:0:0:0:0:
475,192,199325,1,0,0:0:0:0:
36,192,199325,1,0,0:0:0:0:
256,192,199325,1,0,0:0:0:0:
256,192,199610,1,0,0:0:0:0:
109,192,199753,1,0,0:0:0:0:
329,192,199896,1,0,0:0:0:0:
182,192,200182,128,0,201610:0:0:0:0:
36,192,200182,128,0,201610:0:0:0:0:
475,192,200182,128,0,201610:0:0:0:0:
329,192,205325,1,0,0:0:0:0:
329,192,205467,1,0,0:0:0:0:
109,192,205610,1,0,0:0:0:0:
182,192,205896,1,0,0:0:0:0:
475,192,206182,128,0,206753:0:0:0:0:
402,192,206182,1,0,0:0:0:0:
329,192,206467,128,0,207039:0:0:0:0:
256,192,206467,1,0,0:0:0:0:
182,192,206753,128,0,207325:0:0:0:0:
109,192,206753,1,0,0:0:0:0:
36,192,207039,128,0,207610:0:0:0:0:
475,192,207039,1,0,0:0:0:0:
329,192,207325,1,0,0:0:0:0:
182,192,207610,1,0,0:0:0:0:
36,192,207896,1,0,0:0:0:0:
475,192,207896,1,0,0:0:0:0:
256,192,208182,1,0,0:0:0:0:
402,192,208325,1,0,0:0:0:0:
109,192,208467,1,0,0:0:0:0:
36,192,208467,128,0,209039:0:0:0:0:
182,192,208753,128,0,209325:0:0:0:0:
256,192,208753,1,0,0:0:0:0:
329,192,209039,128,0,209610:0:0:0:0:
402,192,209039,1,0,0:0:0:0:
475,192,209325,128,0,209896:0:0:0:0:
36,192,209325,1,0,0:0:0:0:
182,192,209610,1,0,0:0:0:0:
329,192,209896,1,0,0:0:0:0:
475,192,210182,1,0,0:0:0:0:
36,192,210182,1,0,0:0:0:0:
329,192,210467,1,0,0:0:0:0:
109,192,210610,1,0,0:0:0:0:
256,192,210753,1,0,0:0:0:0:
402,192,210753,128,0,211325:0:0:0:0:
36,192,211039,128,0,211610:0:0:0:0:
109,192,211039,1,0,0:0:0:0:
182,192,211325,128,0,211896:0:0:0:0:
256,192,211325,1,0,0:0:0:0:
329,192,211610,128,0,212182:0:0:0:0:
402,192,211610,1,0,0:0:0:0:
36,192,211896,1,0,0:0:0:0:
182,192,212182,1,0,0:0:0:0:
329,192,212467,1,0,0:0:0:0:
475,192,212467,1,0,0:0:0:0:
182,192,212753,1,0,0:0:0:0:
402,192,212896,1,0,0:0:0:0:
256,192,213039,1,0,0:0:0:0:
36,192,213039,128,0,215182:0:0:0:0:
475,192,213325,128,0,214896:0:0:0:0:
329,192,213610,128,0,214991:0:0:0:0:
182,192,213896,128,0,215087:0:0:0:0:
475,192,215039,128,0,218753:0:0:0:0:
402,192,215087,128,0,218801:0:0:0:0:
329,192,215134,128,0,218848:0:0:0:0:
256,192,215182,128,0,218896:0:0:0:0:
182,192,215229,128,0,218944:0:0:0:0:
109,192,215277,128,0,218991:0:0:0:0:
36,192,215325,128,0,219039:0:0:0:0:
475,192,218896,1,0,0:0:0:0:
402,192,218944,1,0,0:0:0:0:
329,192,218991,1,0,0:0:0:0:
256,192,219039,1,0,0:0:0:0:
182,192,219087,1,0,0:0:0:0:
109,192,219134,1,0,0:0:0:0:
36,192,219182,1,0,0:0:0:0:
329,192,219277,1,0,0:0:0:0:
