osu file format v10

[General]
AudioFilename: ses.mp3
AudioLeadIn: 1500
PreviewTime: 17867
Countdown: 0
SampleSet: Soft
StackLeniency: 1
Mode: 0
LetterboxInBreaks: 1
EpilepsyWarning: 1

[Editor]
DistanceSpacing: 0.8
BeatDivisor: 4
GridSize: 8

[Metadata]
Title:Shanghai Experimental School (Instrumental)
TitleUnicode:
Artist:Wang Zheng
ArtistUnicode:
Creator:ax_pokl
Version:Hard
Source:
Tags:SES Shanghai Experimental School zwc7086 yuan0312
BeatmapID:89467
BeatmapSetID:26561

[Difficulty]
HPDrainRate:6
CircleSize:4
OverallDifficulty:5
ApproachRate:7
SliderMultiplier:2
SliderTickRate:2

[Events]
//Background and Video events
0,0,"c07.jpg"
//Break Periods
2,13677,16967
2,93471,95420
//Storyboard Layer 0 (Background)
//Storyboard Layer 1 (Fail)
//Storyboard Layer 2 (Pass)
//Storyboard Layer 3 (Foreground)
//Storyboard Sound Samples
//Background Colour Transformations
3,100,163,162,255

[TimingPoints]
1770,731.707317073171,4,2,1,70,1,0
3233,-100,4,2,1,70,0,1
9087,-100,4,2,1,50,0,0
13477,-100,4,2,1,70,0,0
17867,541.76072234763,4,2,1,70,1,0
20033,-100,4,2,1,70,0,1
20034,-100,4,2,1,70,0,0
43871,588.004704037632,4,2,1,70,1,1
46223,541.76072234763,4,1,1,70,1,0
63559,-100,4,1,1,70,0,1
70060,634.249471458774,4,1,1,50,1,1
72596,680.426400544341,4,1,1,50,1,0
72596,-200,4,2,1,50,0,0
83482,-133.333333333333,4,2,1,70,0,1
86204,-100,4,2,1,70,0,1
91647,541.516245487365,4,2,1,50,1,0
93813,417.972831765935,3,2,1,70,1,0
96319,-100,3,2,1,70,0,1
96320,-100,3,2,1,70,0,0
126414,-100,3,1,1,70,0,1
145223,-100,3,2,1,50,0,0

[HitObjects]
256,192,1770,1,0,0:0:0
256,192,3233,1,0,0:0:0
256,288,4330,5,0,0:0:0
256,288,4696,2,0,B|304:312|352:288,2,100,0|0|2,0:0|0:0|0:0,0:0:0
256,96,6160,6,0,B|210:66|162:98,2,100,0|0|2,0:0|0:0|0:0,0:0:0
256,288,7257,6,8,B|304:311|352:287,1,100,0|0,0:0|0:0,0:0:0
256,192,9087,12,4,13477,0:0:0
96,120,17867,54,0,B|144:144|192:120,1,100
280,144,18408,2,0,B|328:120|376:144,1,100,8|0,0:0|0:0,0:0:0
432,224,18950,2,0,B|384:248|336:224,1,100
248,248,19492,2,0,B|200:224|152:248,1,100,10|0,0:0|0:0,0:0:0
64,280,20034,6,0,B|16:184|64:88,1,200,2|8,0:0|0:0,0:0:0
152,120,20846,1,2,0:0:0
136,208,21117,2,0,B|184:232|232:208,1,100,2|2,0:0|0:0,0:0:0
248,120,21659,2,0,B|296:96|344:120,1,100,10|0,0:0|0:0,0:0:0
424,72,22201,6,0,B|448:120|424:168,1,100,2|2,0:0|0:0,0:0:0
344,208,22742,2,0,B|296:184|248:208,1,100,10|0,0:0|0:0,0:0:0
160,176,23284,2,0,B|136:128|160:80,1,100,2|0,0:0|0:0,0:0:0
160,176,23826,2,0,B|184:224|160:272,1,100,8|0,0:0|0:0,0:0:0
256,280,24368,6,0,B|304:304|352:280,2,100,2|2|8,0:0|0:0|0:0,0:0:0
176,320,25180,1,2,0:0:0
88,296,25451,2,0,B|64:248|88:200,1,100,2|0,0:0|0:0,0:0:0
176,216,25993,2,0,B|200:168|176:120,1,100,10|0,0:0|0:0,0:0:0
88,128,26535,6,0,B|64:80|88:32,1,100,2|0,0:0|0:0,0:0:0
160,88,27076,2,0,B|208:112|256:88,1,100,8|0,0:0|0:0,0:0:0
336,144,27618,2,0,B|360:192|336:240,1,100,2|0,0:0|0:0,0:0:0
256,184,28160,2,0,B|208:208|160:184,1,100,8|0,0:0|0:0,0:0:0
104,112,28702,6,0,B|64:184|104:256,1,150,2|2,0:0|0:0,0:0:0
144,280,29243,2,0,B|192:304|240:280,1,100,10|2,0:0|0:0,0:0:0
192,200,29785,2,0,B|288:152|384:200,1,200,2|8,0:0|0:0,0:0:0
384,200,30598,1,2,0:0:0
464,248,30869,6,0,B|488:200|464:152,1,100,2|0,0:0|0:0,0:0:0
384,104,31411,1,8,0:0:0
296,56,31681,1,0,0:0:0
208,96,31952,2,8,B|184:144|207:192,1,100,2|0,0:0|0:0,0:0:0
296,152,32494,1,8,0:0:0
208,192,32765,1,0,0:0:0
136,256,33036,6,0,B|208:296|278:256,1,150,2|2,0:0|0:0,0:0:0
280,256,33578,1,10,0:0:0
208,192,33848,1,2,0:0:0
136,136,34119,1,2,0:0:0
136,136,34661,1,8,0:0:0
320,72,35203,6,8,B|272:48|224:72,1,100,2|2,0:0|0:0,0:0:0
224,168,35745,2,8,B|272:192|320:168,1,100,10|0,0:0|0:0,0:0:0
408,128,36286,1,2,0:0:0
408,128,36828,1,8,0:0:0
136,176,37370,5,2,0:0:0
136,176,37641,2,0,B|136:240|176:263,1,100,2|8,0:0|0:0,0:0:0
256,216,38183,1,2,0:0:0
337,263,38453,2,0,B|376:240|376:176,3,100,2|0|10|0,0:0|0:0|0:0|0:0,0:0:0
424,96,39537,6,8,B|376:72|328:96,1,100,2|2,0:0|0:0,0:0:0
240,96,40079,2,8,B|192:120|144:96,1,100,10|0,0:0|0:0,0:0:0
56,96,40620,1,2,0:0:0
136,264,41162,2,8,B|184:288|232:264,1,100,10|2,0:0|0:0,0:0:0
184,184,41704,6,0,B|321:62|321:190|449:62,1,300,2|10,0:0|0:0,0:0:0
448,152,42787,2,0,B|400:184|416:240,1,100,10|0,0:0|0:0,0:0:0
328,208,43329,2,0,B|336:272|296:296,1,100,10|2,0:0|0:0,0:0:0
208,296,43871,6,0,B|216:232|176:208,1,100,2|0,0:0|0:0,0:0:0
88,248,44459,2,0,B|48:216|56:152,1,100,8|0,0:0|0:0,0:0:0
112,80,45047,1,6,0:0:0
112,80,45635,1,8,0:0:0
408,272,46223,6,0,B|457:176|409:80,1,200,8|8,0:0|0:0,0:0:0
328,128,47035,1,2,0:0:0
248,176,47306,1,2,0:0:0
168,224,47577,1,2,0:0:0
88,272,47848,1,10,0:0:0
288,288,48390,6,0,B|336:312|384:288,2,100,2|2|10,0:0|0:0|0:0,0:0:0
336,200,49202,1,2,0:0:0
384,112,49473,1,2,0:0:0
288,112,49744,1,0,0:0:0
240,200,50015,1,8,0:0:0
192,112,50286,1,0,0:0:0
144,200,50557,5,2,0:0:0
48,160,50827,2,0,B|32:288|176:320,1,200,10|10,0:0|0:0,0:0:0
264,312,51640,2,0,B|328:312|328:248,1,100,2|0,0:0|0:0,0:0:0
328,136,52182,2,0,B|328:72|264:72,1,100,10|0,0:0|0:0,0:0:0
184,192,52724,6,0,B|136:216|88:192,1,100,2|0,0:0|0:0,0:0:0
256,232,53265,2,0,B|280:280|256:328,1,100,8|0,0:0|0:0,0:0:0
256,144,53807,2,0,B|232:88|256:48,1,100,2|0,0:0|0:0,0:0:0
328,192,54349,2,0,B|376:216|424:192,1,100,8|0,0:0|0:0,0:0:0
376,104,54891,6,0,B|472:104|472:200,1,150,2|2,0:0|0:0,0:0:0
472,248,55432,1,10,0:0:0
376,304,55703,1,2,0:0:0
280,248,55974,1,2,0:0:0
376,200,56245,1,0,0:0:0
280,144,56516,1,8,0:0:0
192,192,56787,1,2,0:0:0
112,240,57058,6,0,B|88:192|112:144,1,100,2|0,0:0|0:0,0:0:0
208,80,57599,2,0,B|256:56|304:80,1,100,8|0,0:0|0:0,0:0:0
400,144,58141,2,0,B|424:192|400:240,1,100,2|0,0:0|0:0,0:0:0
304,304,58683,2,0,B|256:328|208:304,1,100,8|0,0:0|0:0,0:0:0
152,160,59225,6,0,B|112:232|152:304,1,150,2|2,0:0|0:0,0:0:0
208,304,59767,2,0,B|256:336|304:304,1,100,10|2,0:0|0:0,0:0:0
256,192,60308,2,0,B|336:144|384:240|448:192,1,200,2|8,0:0|0:0,0:0:0
216,64,61392,6,0,B|264:32|312:64,1,100,2|2,0:0|0:0,0:0:0
304,192,61934,2,0,B|256:224|208:192,1,100,10|0,0:0|0:0,0:0:0
96,168,62475,1,2,0:0:0
192,272,62746,1,0,0:0:0
328,272,63017,1,8,0:0:0
408,168,63288,1,0,0:0:0
256,72,63559,5,2,0:0:0
256,192,63830,1,0,0:0:0
256,192,63965,1,0,0:0:0
256,192,64101,2,0,B|208:216|160:192,1,100,8|2,0:0|0:0,0:0:0
256,312,64642,21,2,0:0:0
256,192,64913,1,0,0:0:0
256,192,65049,1,0,0:0:0
256,192,65184,2,0,B|304:168|352:192,1,100,10|0,0:0|0:0,0:0:0
200,240,65726,5,2,0:0:0
256,64,65997,1,2,0:0:0
312,240,66267,1,10,0:0:0
160,136,66539,1,0,0:0:0
352,136,66810,1,2,0:0:0
64,80,67893,6,0,B|136:40|208:80,1,150,2|0,0:0|0:0,0:0:0
256,96,68435,2,0,B|304:128|352:96,1,100,8|2,0:0|0:0,0:0:0
432,48,68976,6,0,B|472:120|432:192,1,150,2|0,0:0|0:0,0:0:0
456,232,69518,2,0,B|424:280|456:328,1,100,10|2,0:0|0:0,0:0:0
376,288,70060,6,0,B|304:328|232:288,1,150,2|0,0:0|0:0,0:0:0
192,256,70694,2,0,B|144:224|96:256,1,100,8|0,0:0|0:0,0:0:0
256,192,71328,5,6,0:0:0
160,96,72596,6,0,B|196:80|232:96,1,75,2|0,0:0|0:0,0:0:0
256,112,73276,2,0,B|292:128|328:112,1,75,2|0,0:0|0:0,0:0:0
352,128,73956,6,0,B|400:200|352:272,1,150,2|2,0:0|0:0,0:0:0
320,288,75317,6,0,B|248:336|176:288,1,150,2|0,0:0|0:0,0:0:0
157,268,76678,6,0,B|112:200|160:128,1,150,2|0,0:0|0:0,0:0:0
192,96,78039,6,0,B|228:80|264:96,1,75,2|0,0:0|0:0,0:0:0
303,119,78719,2,0,B|320:156|304:192,1,75,2|0,0:0|0:0,0:0:0
272,232,79400,6,0,B|340:277|412:229,1,150,2|2,0:0|0:0,0:0:0
384,192,80761,6,0,B|352:144|384:96,1,100,2|0,0:0|0:0,0:0:0
352,64,81781,1,2,0:0:0
312,88,82121,6,0,B|264:64|216:88,1,100,2|0,0:0|0:0,0:0:0
96,160,83482,6,0,B|72:200|96:240,1,74.9999977648259,2|0,0:0|0:0,0:0:0
120,256,83993,1,0,0:0:0
152,240,84163,2,0,B|192:216|232:240,1,74.9999977648259,2|0,0:0|0:0,0:0:0
256,256,84673,1,0,0:0:0
288,272,84843,6,0,B|368:176|288:64,1,224.999993294478,2|2,0:0|0:0,0:0:0
208,112,86204,6,0,B|160:96|160:96|112:112,3,100,2|0|2|0,0:0|0:0|0:0|0:0,0:0:0
160,192,87565,6,0,B|144:240|144:240|160:288,3,100,2|0|2|0,0:0|0:0|0:0|0:0,0:0:0
304,248,88926,5,2,0:0:0
336,240,89266,1,0,0:0:0
368,232,89606,1,2,0:0:0
392,224,89946,1,0,0:0:0
288,56,90287,5,2,0:0:0
120,160,90627,1,2,0:0:0
224,328,90967,1,2,0:0:0
392,224,91307,1,2,0:0:0
256,192,91647,12,10,93271,0:0:0
80,144,96320,38,0,B|128:168|176:144,1,100,2|0,0:0|0:0,0:0:0
160,64,96738,2,0,B|208:40|256:64,1,100,8|0,0:0|0:0,0:0:0
240,144,97156,2,0,B|288:168|336:144,1,100,10|0,0:0|0:0,0:0:0
312,64,97574,6,0,B|360:40|408:64,2,100,2|2|10,0:0|0:0|0:0,0:0:0
448,152,98410,1,8,0:0:0
312,240,98828,6,0,B|360:216|408:240,2,100,2|2|10,0:0|0:0|0:0,0:0:0
448,328,99664,1,8,0:0:0
288,320,100082,6,0,B|312:272|288:224,1,100,2|0,0:0|0:0,0:0:0
224,176,100500,2,0,B|200:224|222:275,1,100,8|0,0:0|0:0,0:0:0
144,296,100918,2,0,B|96:320|48:296,1,100,8|0,0:0|0:0,0:0:0
96,232,101336,6,0,B|72:184|96:136,1,100,2|0,0:0|0:0,0:0:0
48,72,101754,2,0,B|96:48|144:72,1,100,10|0,0:0|0:0,0:0:0
200,128,102172,2,0,B|224:176|200:224,1,100,10|0,0:0|0:0,0:0:0
160,296,102590,6,0,B|304:216|448:296,1,300,2|0,0:0|0:0,0:0:0
408,224,103426,2,0,B|432:176|408:128,1,100,10|0,0:0|0:0,0:0:0
448,56,103844,6,0,B|306:135|160:56,1,300,2|0,0:0|0:0,0:0:0
96,104,104680,2,0,B|120:152|96:200,1,100,10|0,0:0|0:0,0:0:0
184,200,105098,6,0,B|160:248|184:296,1,100,2|0,0:0|0:0,0:0:0
256,240,105516,2,0,B|256:136,1,100,8|0,0:0|0:0,0:0:0
328,200,105934,2,0,B|352:152|328:104,1,100,8|0,0:0|0:0,0:0:0
416,200,106352,6,0,B|440:248|416:296,2,100,2|0|10,0:0|0:0|0:0,0:0:0
256,240,107188,2,0,B|209:217|161:241,1,100,10|0,0:0|0:0,0:0:0
256,160,107606,6,0,B|232:112|256:64,2,100,2|0|8,0:0|0:0|0:0,0:0:0
256,328,108442,2,0,B|304:352|352:328,1,100,10|0,0:0|0:0,0:0:0
344,208,108860,6,0,B|392:184|440:208,2,100,2|0|10,0:0|0:0|0:0,0:0:0
168,208,109695,2,0,B|144:160|168:112,1,100,10|0,0:0|0:0,0:0:0
248,152,110113,6,0,B|296:128|344:152,2,100,2|0|8,0:0|0:0|0:0,0:0:0
296,224,110740,2,0,B|320:272|296:320,1,100,0|8,0:0|0:0,0:0:0
248,104,111367,5,2,0:0:0
160,160,111576,1,2,0:0:0
160,256,111785,1,10,0:0:0
160,256,112203,2,0,B|136:208|160:160,1,100,10|0,0:0|0:0,0:0:0
256,160,112621,6,0,B|232:208|256:256,2,100,2|0|10,0:0|0:0|0:0,0:0:0
352,160,113248,2,0,B|376:208|352:256,1,100,0|10,0:0|0:0,0:0:0
176,160,113875,5,2,0:0:0
176,64,114084,1,2,0:0:0
80,64,114293,1,10,0:0:0
80,272,114711,1,8,0:0:0
176,272,114920,1,0,0:0:0
272,272,115129,6,0,B|296:224|272:176,1,100,2|0,0:0|0:0,0:0:0
368,176,115547,2,0,B|392:224|368:272,1,100,8|0,0:0|0:0,0:0:0
464,272,115965,2,0,B|488:224|464:176,1,100,8|0,0:0|0:0,0:0:0
368,176,116383,5,2,0:0:0
208,280,116801,2,0,B|232:232|208:184,2,100,10|0|10,0:0|0:0|0:0,0:0:0
48,184,117637,6,0,B|144:144|88:80|184:48,1,200,2|8,0:0|0:0,0:0:0
376,48,118473,1,10,0:0:0
336,280,118891,6,0,B|384:304|432:280,2,100,2|2|10,0:0|0:0|0:0,0:0:0
176,104,119727,2,0,B|128:80|80:104,2,100,8|0|2,0:0|0:0|0:0,0:0:0
336,280,120563,5,8,0:0:0
336,88,120981,2,0,B|392:96|403:152,2,100,10|2|2,0:0|0:0|0:0,0:0:0
144,88,121817,5,8,0:0:0
144,280,122235,2,0,B|88:276|80:216,2,100,10|0|2,0:0|0:0|0:0,0:0:0
336,280,123071,5,8,0:0:0
336,88,123489,2,0,B|392:96|408:152,1,100,10|2,0:0|0:0,0:0:0
408,200,123907,6,0,B|360:288|296:232|256:320,1,200,2|8,0:0|0:0,0:0:0
168,160,124742,2,0,B|144:208|168:256,1,100,8|0,0:0|0:0,0:0:0
224,256,125160,6,0,B|264:168|328:224|376:136,1,200,2|8,0:0|0:0,0:0:0
424,312,125996,1,10,0:0:0
424,312,126414,5,2,0:0:0
256,192,126832,1,8,0:0:0
88,312,127250,1,10,0:0:0
88,72,127668,5,2,0:0:0
256,192,128086,1,8,0:0:0
424,72,128504,2,0,B|376:96|328:72,2,100,2|2|2,0:0|0:0|0:0,0:0:0
424,280,129340,6,0,B|376:256|328:280,2,100,10|2|10,0:0|0:0|0:0,0:0:0
424,176,129967,2,0,B|376:200|328:176,1,100,0|2,0:0|0:0,0:0:0
232,176,130385,6,0,B|208:224|232:272,1,100,0|8,0:0|0:0,0:0:0
256,144,130803,2,0,B|280:96|256:48,1,100,0|10,0:0|0:0,0:0:0
160,48,131221,1,2,0:0:0
64,48,131430,5,2,0:0:0
64,144,131639,2,0,B|112:168|160:144,1,100,0|8,0:0|0:0,0:0:0
160,240,132057,2,0,B|208:264|256:240,1,100,0|10,0:0|0:0,0:0:0
256,336,132475,5,0,0:0:0
352,336,132684,2,0,B|376:288|352:240,3,100,2|2|10|0,0:0|0:0|0:0|0:0,0:0:0
448,240,133520,2,0,B|472:192|448:144,1,100,10|0,0:0|0:0,0:0:0
352,144,133938,6,0,B|376:96|352:48,2,100,2|2|10,0:0|0:0|0:0,0:0:0
256,144,134565,2,0,B|232:192|256:240,1,100,0|10,0:0|0:0,0:0:0
160,240,134983,2,0,B|112:264|64:240,1,100,0|10,0:0|0:0,0:0:0
448,240,136028,5,10,0:0:0
352,64,136446,6,0,B|400:40|448:64,1,100,2|0,0:0|0:0,0:0:0
304,144,136864,2,0,B|352:168|400:144,1,100,8|0,0:0|0:0,0:0:0
256,64,137282,2,0,B|208:40|160:64,1,100,10|0,0:0|0:0,0:0:0
304,144,137700,6,0,B|328:192|304:240,2,100,2|0|8,0:0|0:0|0:0,0:0:0
416,64,138327,1,0,0:0:0
496,176,138536,1,10,0:0:0
384,256,138745,1,2,0:0:0
208,240,138954,6,0,B|184:192|208:144,2,100,2|0|10,0:0|0:0|0:0,0:0:0
72,296,139581,1,2,0:0:0
24,160,139790,1,10,0:0:0
152,96,139998,1,0,0:0:0
256,192,140207,5,2,0:0:0
208,128,141043,5,10,0:0:0
208,256,141252,1,2,0:0:0
320,192,141461,1,2,0:0:0
256,192,142297,5,10,0:0:0
256,48,142715,5,2,0:0:0
256,192,142924,1,2,0:0:0
256,336,143133,1,10,0:0:0
256,192,143551,5,10,0:0:0
96,192,143969,5,2,0:0:0
256,192,144178,1,2,0:0:0
416,192,144387,1,10,0:0:0
256,192,144805,5,10,0:0:0
256,192,145223,12,4,146582,0:0:0
