osu file format v9

[General]
AudioFilename: ses.mp3
AudioLeadIn: 1500
PreviewTime: 17867
Countdown: 0
SampleSet: Soft
StackLeniency: 1
Mode: 0
LetterboxInBreaks: 1
EpilepsyWarning: 1

[Editor]
DistanceSpacing: 0.8
BeatDivisor: 4
GridSize: 8

[Metadata]
Title:Shanghai Experimental School (Instrumental)
Artist:Wang Zheng
Creator:ax_pokl
Version:Easy
Source:
Tags:SES Shanghai Experimental School zwc7086 yuan0312

[Difficulty]
HPDrainRate:2
CircleSize:3
OverallDifficulty:1
ApproachRate:3
SliderMultiplier:1
SliderTickRate:1

[Events]
//Background and Video events
0,0,"c04.jpg"
//Break Periods
2,13677,18594
2,71528,82042
2,91847,94880
//Storyboard Layer 0 (Background)
//Storyboard Layer 1 (Fail)
//Storyboard Layer 2 (Pass)
//Storyboard Layer 3 (Foreground)
//Storyboard Sound Samples
//Background Colour Transformations
3,100,163,162,255

[TimingPoints]
1770,731.707317073171,4,2,1,70,1,0
9087,-100,4,2,1,50,0,0
17867,541.76072234763,4,2,1,70,1,0
20033,-100,4,2,1,70,0,1
20034,-100,4,2,1,70,0,0
43871,588.004704037632,4,2,1,70,1,1
46223,541.76072234763,4,2,1,70,1,0
63559,-100,4,2,1,70,0,1
70060,634.249471458774,4,1,1,50,1,1
72596,680.426400544341,4,1,1,50,1,0
83482,-133.333333333333,4,2,1,70,0,1
91647,541.516245487365,4,2,1,50,1,0
93813,417.972831765935,3,2,1,70,1,0
96319,-100,3,2,1,70,0,1
96320,-100,3,2,1,70,0,0
126414,-100,3,2,1,70,0,1
145223,-100,3,2,1,50,0,0

[HitObjects]
256,192,9087,12,4,13477
336,112,20034,5,4
176,112,21117,1,2
208,272,22201,2,0,B|256:304|304:272,2,100,0|0|2
208,112,24368,6,0,B|256:80|304:112,2,100,0|0|2
176,272,26535,1,0
336,272,27618,1,2
304,112,28702,6,0,B|256:80|208:112,2,100,4|0|2
336,272,30869,2,0,B|320:208|192:208|176:272,1,200,0|2
208,112,33036,6,0,B|256:144|304:112,2,100,0|0|2
176,272,35203,2,0,B|192:336|320:336|336:272,1,200,0|2
256,136,37370,6,0,B|312:128|352:152,1,100,4|8
352,232,38453,2,0,B|312:256|256:248,1,100,2|8
176,240,39537,2,0,B|176:136,1,100,0|8
256,136,40620,1,2
256,296,41704,6,0,B|384:296|384:176,1,200,4|10
256,96,43871,2,0,B|128:96|128:216,1,200,0|10
304,192,46223,6,0,B|256:224|208:192,3,100,4|8|2|8
144,240,48390,2,0,B|112:192|144:144,3,100,0|8|2|8
192,80,50557,6,0,B|240:120|288:80,3,100,0|8|2|8
336,144,52724,2,0,B|368:192|336:240,1,100,0|8
288,304,53807,1,2
168,192,54891,6,0,B|216:232|256:192,1,100,4|8
256,112,55974,2,0,B|304:72|344:112,1,100,2|8
344,192,57058,2,0,B|304:304|176:256,1,200,2|10
256,112,59225,6,0,B|200:152|256:192,1,100,4|8
336,192,60308,2,0,B|392:232|336:272,1,100,2|8
256,272,61392,2,0,B|136:248|184:120,1,200,2|10
344,120,63559,5,6
264,104,64101,2,0,B|264:54,2,50,8|8|2
184,120,65184,1,8
216,192,65726,2,0,B|264:160|312:192,1,100,2|8
320,272,66809,1,2
176,192,67893,5,6
256,216,68435,2,0,B|256:266,2,50,8|8|2
336,192,69518,1,8
256,192,69789,12,4,71328
184,192,83482,5,2
256,192,84163,1,2
328,192,84843,1,10
328,192,86204,6,0,B|256:232|184:192,1,149.999995529652,2|10
256,192,88926,12,4,91647
168,192,96320,37,2
256,104,97574,1,2
344,192,98828,5,2
256,280,100082,1,2
392,80,101336,6,0,B|344:104|296:80,1,100,2|0
216,80,102172,2,0,B|168:104|120:80,1,100,0|2
112,320,103844,6,0,B|256:240|400:320,1,300,2|2
208,168,106352,6,0,B|256:192|304:168,3,100,2|0|0|2
176,232,108442,6,0,B|152:280|176:328,1,100,0|2
336,328,109695,2,0,B|360:280|336:232,1,100,0|2
144,64,111367,6,0,B|168:112|216:128,1,100,2|0
296,128,112203,2,0,B|344:112|368:64,1,100,0|2
184,216,113875,6,0,B|232:176,2,50,2|0|0
232,280,114711,2,0,B|184:304|136:280,1,100,0|2
376,312,116383,6,0,B|352:264|376:216,1,100,2|0
416,144,117219,1,0
336,144,117637,2,0,B|320:80|192:80|176:144,1,200,2|0
176,224,118891,6,0,B|208:320|208:320|304:320|304:320|336:224|336:224,1,300,2|2
128,104,121399,5,2
128,264,122235,2,0,B|176:288|224:264,1,100,0|2
320,136,123489,6,0,B|352:96,2,50,0|0|2
400,272,124742,2,0,B|448:288,2,50,0|0|2
176,192,126414,6,0,B|152:144|176:96,2,100,2|8|8
240,144,127668,2,0,B|288:120|336:144,2,100,2|8|8
288,208,128922,6,0,B|312:256|288:304,2,100,2|8|8
224,256,130176,2,0,B|176:280|128:256,1,100,2|8
176,192,131012,1,8
128,128,131430,6,0,B|176:104|224:128,1,100,2|8
304,128,132266,1,8
352,192,132684,2,0,B|304:216|256:192,1,100,2|8
256,272,133520,1,8
184,232,133938,6,0,B|160:184|184:136,1,100,2|8
256,192,134774,1,8
256,112,135192,2,0,B|352:64|448:112,1,200,2|8
416,184,136446,6,0,B|384:278,1,100,2|8
304,272,137282,2,0,B|336:177,1,100,8|2
256,176,138118,6,0,B|224:271,1,100,8|8
144,264,138954,2,0,B|175:169,1,100,2|8
200,96,139790,6,8,B|136:96,2,50
384,192,141043,5,8
384,192,141461,1,2
320,144,141879,6,0,B|296:192|320:240,1,100,8|8
240,232,142715,6,0,B|240:280,2,50,2|8|8
240,152,143551,2,0,B|240:96,2,50,8|8|2
160,152,144387,5,8
160,232,144805,1,8
256,192,145014,12,0,146582
