osu file format v7

[General]
AudioFilename: Qiu Tian Bu Hui Lai.mp3
AudioLeadIn: 0
PreviewTime: 63097
Countdown: 0
SampleSet: Soft
StackLeniency: 0.6
Mode: 0
LetterboxInBreaks: 0

[Editor]
DistanceSpacing: 0.800000011920929
BeatDivisor: 4
GridSize: 8

[Metadata]
Title:Qiu Tian Bu Hui Lai
Artist:Wang Qiang
Creator:KanbeKotori
Version:Normal
Source:
Tags:Impossiblexu

[Difficulty]
HPDrainRate:5
CircleSize:4
OverallDifficulty:5
SliderMultiplier:1
SliderTickRate:0.5

[Events]
//Background and Video events
0,0,"bg.jpg"
//Break Periods
2,92335,104012
//Storyboard Layer 0 (Background)
//Storyboard Layer 1 (Fail)
//Storyboard Layer 2 (Pass)
//Storyboard Layer 3 (Foreground)
//Storyboard Sound Samples
//Background Colour Transformations
3,100,163,162,255

[TimingPoints]
13674,384.615384615385,4,2,1,30,1,0
60404,-100,4,2,1,0,0,0
63097,-100,4,2,1,30,0,0
63674,-100,4,2,1,30,0,1
89635,-100,4,2,1,0,0,1
92327,-100,4,2,1,30,0,0
118866,-100,4,2,1,0,0,0
121558,-100,4,2,1,30,0,0
155789,-100,4,2,1,0,0,0
158481,-100,4,2,1,30,0,0
185212,-100,4,2,1,30,0,1
211174,-100,4,2,1,0,0,1
213481,-100,4,2,1,30,0,1
214058,-200,4,2,1,30,0,0
226558,-100,4,2,1,0,0,0

[Colours]
Combo1 : 255,254,200
Combo2 : 241,111,3
Combo3 : 136,138,62
Combo4 : 209,165,105

[HitObjects]
96,120,14443,2,0,B|208:48|296:136,1,200,0|8
280,200,15597,1,0
280,200,15981,2,0,B|96:304,1,200,0|8
40,248,17135,1,0
40,168,17520,6,0,B|56:104|128:96,1,100
128,176,18289,2,0,B|192:160|200:88,1,100,8|0
264,56,19058,1,0
344,48,19443,1,0
352,128,19827,1,8
272,136,20212,1,0
208,184,20597,6,0,B|96:232|120:368,1,200,0|8
200,352,21750,1,0
280,336,22135,2,0,B|496:336,1,200,0|8
448,264,23289,1,0
408,192,23674,6,0,B|296:192,1,100
288,112,24443,2,0,B|392:112,1,100,8|0
424,40,25212,1,0
472,104,25597,1,0
472,184,25981,1,8
424,248,26366,1,0
344,248,26750,6,0,B|224:248,2,100,0|0|8
400,192,27904,1,0
344,136,28289,2,0,B|400:112|384:32,2,100,0|0|8
280,88,29443,1,0
200,88,29827,5,0
120,112,30212,1,0
144,192,30597,1,8
224,168,30981,1,0
304,152,31366,2,0,B|416:152,2,100,0|0|8
304,152,32520,1,0
256,216,32904,6,0,B|256:328,2,100,0|0|8
192,160,34058,1,0
128,112,34443,2,0,B|56:112|40:176,2,100,0|0|8
192,160,35597,1,0
256,112,35981,5,0
296,40,36366,1,0
376,40,36750,1,8
416,112,37135,1,0
336,112,37520,2,0,B|336:320,1,200,0|8
256,312,38674,1,0
176,312,39058,6,0,B|224:216|344:208,1,200,0|8
400,160,40212,1,0
344,104,40597,2,0,B|400:80|408:24,2,100,0|0|8
288,160,41750,1,0
232,104,42135,2,0,B|120:104,1,100
152,184,42904,2,0,B|48:184,1,100,8|0
72,104,43674,5,0
136,56,44058,1,0
200,104,44443,1,8
176,176,44827,1,0
96,176,45212,1,0
56,248,45597,1,0
96,320,45981,6,0,B|144:352|192:320,1,100,8|0
152,248,46750,2,0,B|200:216|248:248,1,100
280,320,47520,1,8
320,248,47904,1,0
280,176,48289,5,0
320,104,48674,1,0
248,64,49058,1,8
208,136,49443,1,0
136,168,49827,2,0,B|88:208|32:184,2,100,0|0|8
136,168,50981,1,0
192,104,51366,6,0,B|416:104,1,200,0|8
408,184,52520,1,0
360,248,52904,2,0,B|136:248,1,200,0|8
96,192,54058,1,0
88,112,54443,5,0
168,104,54827,1,0
176,184,55212,1,8
96,192,55597,1,0
56,264,55981,2,8,B|112:376|240:352,1,200,0|8
272,296,57135,1,0
232,224,57520,2,0,B|232:104,1,100
160,96,58289,6,0,B|80:176,1,100,8|0
120,240,59058,2,0,B|200:160,1,100
248,112,59827,1,8
280,184,60212,1,0
256,192,60597,12,8,62904
96,272,63289,5,0
96,272,63674,2,0,B|224:96,1,200,0|8
264,176,64827,1,0
232,248,65212,2,0,B|120:208|96:104,1,200,0|8
168,72,66366,1,0
240,112,66750,6,0,B|288:80|344:120,1,100
288,184,67520,2,0,B|240:216|184:176,1,100,8|0
128,136,68289,1,0
112,216,68674,1,0
192,232,69058,1,8
208,152,69443,1,0
272,96,69827,6,0,B|368:144|384:256,1,200,0|8
304,272,70981,1,0
224,256,71366,2,0,B|376:96,1,200,0|8
312,48,72520,1,0
240,88,72904,6,0,B|128:88,1,100
168,168,73674,2,0,B|64:168,1,100,8|0
88,88,74443,1,0
160,48,74827,1,0
240,48,75212,1,8
312,88,75597,1,0
360,160,75981,6,0,B|192:312,1,200,0|8
136,280,77135,1,0
112,208,77520,2,0,B|280:56,1,200,0|8
328,40,78674,1,0
392,88,79058,5,0
408,168,79443,1,0
328,184,79827,1,8
312,104,80212,1,0
240,64,80597,2,0,B|136:64,2,100,0|0|8
240,64,81750,1,0
312,104,82135,6,0,B|368:208|312:296,1,200,0|8
256,232,83289,1,0
204,293,83674,2,0,B|148:189|204:101,1,200,0|8
256,160,84827,1,0
336,160,85212,5,0
408,200,85597,1,0
408,280,85981,1,8
336,320,86366,1,0
336,240,86750,2,0,B|128:240,1,200,0|8
192,88,88289,2,0,B|400:88,1,200,0|8
256,192,89827,12,0,92135
104,128,105212,6,0,B|120:56|240:56|256:128,1,200,0|8
184,152,106366,1,0
184,152,106750,2,0,B|184:264|336:264,1,200,0|8
376,208,107904,1,0
328,144,108289,6,0,B|208:144,1,100
208,64,109058,2,0,B|320:64,1,100,8|0
384,96,109827,1,0
448,152,110212,1,0
384,200,110597,1,8
448,248,110981,1,0
384,304,111366,6,0,B|168:304,1,200,0|8
104,304,112520,1,0
104,304,112904,2,0,B|104:176|248:176,1,200,0|8
280,232,114058,1,0
344,184,114443,6,0,B|376:136|344:88,1,100
280,48,115212,2,0,B|248:96|280:144,1,100,8|0
199,124,115981,5,0
286,109,116366,1,0
342,176,116750,1,8
312,259,117135,1,0
225,274,117520,1,0
169,207,117904,1,0
248,192,118289,1,8
248,192,118674,1,0
256,192,119058,12,0,121366
88,128,122135,6,0,B|312:128,1,200,0|8
344,184,123289,1,0
336,264,123674,2,0,B|264:336|128:328,1,200,0|8
96,272,124827,1,0
96,192,125212,5,0
144,128,125597,1,0
192,192,125981,1,8
240,128,126366,1,0
288,192,126750,2,0,B|320:248|280:288,1,100
216,336,127520,2,0,B|184:280|224:240,1,100,8|0
168,184,128289,6,0,B|352:56,1,200,0|8
408,88,129443,1,0
440,160,129827,2,0,B|416:256|296:288,1,200,0|8
256,216,130981,1,0
176,216,131366,5,0
231,139,131750,1,0
320,168,132135,1,8
320,263,132520,1,0
231,292,132904,1,0
231,292,133289,2,0,B|127:292,1,100,0|8
64,248,134058,6,0,B|24:216,2,50
112,184,134827,1,0
168,240,135212,2,0,B|280:240,1,100,8|0
328,192,135981,1,0
408,200,136366,1,0
416,120,136750,1,8
336,112,137135,6,0,B|288:88,2,50
416,120,137904,1,0
408,200,138289,2,0,B|440:256|400:312,1,100,8|0
352,248,139058,2,0,B|240:248,1,100
224,176,139827,2,0,B|344:176,1,100,8|0
400,144,140597,1,0
336,96,140981,1,0
272,144,141366,6,0,B|160:144,1,100,8|0
112,96,142135,2,0,B|80:144|120:200,1,100
176,144,142904,2,0,B|208:192|168:248,1,100,8|0
112,288,143674,5,0
184,328,144058,1,0
264,328,144443,1,8
336,288,144827,1,0
280,232,145212,2,0,B|280:128,2,100,0|0|8
280,232,146366,1,0
200,232,146750,6,0,B|88:232,1,100
64,160,147520,1,8
64,160,147904,1,0
104,88,148289,2,0,B|208:88,1,100
232,160,149058,1,8
232,160,149443,1,0
232,160,149827,6,0,B|352:160,1,100
320,240,150597,2,0,B|432:240,1,100,8|0
480,184,151366,5,0
472,104,151750,1,0
392,112,152135,1,8
400,192,152520,1,0
328,232,152904,2,0,B|280:272|224:272,1,100
160,264,153674,6,0,B|104:240|120:176,1,100,8|0
176,128,154443,2,0,B|232:152|216:216,1,100
288,256,155212,1,8
296,176,155597,1,0
256,192,155981,12,0,158289
368,80,158674,5,0
368,80,159058,2,0,B|152:80,1,200,0|8
112,136,160212,1,0
152,208,160597,2,0,B|224:288,1,100
280,232,161366,2,0,B|352:312,1,100,8|0
424,304,162135,5,0
480,248,162520,1,0
424,192,162904,1,8
480,136,163289,1,0
432,72,163674,2,0,B|312:40|248:144,1,200,0|8
208,200,164827,1,0
224,280,165212,6,0,B|448:280,1,200,0|8
464,208,166366,1,0
432,136,166750,2,0,B|376:104|328:144,1,100
384,208,167520,2,0,B|328:240|280:200,1,100,8|0
264,136,168289,5,0
184,120,168674,1,0
168,200,169058,1,8
248,216,169443,1,0
296,280,169827,2,0,B|368:368|488:336,1,200,0|8
488,264,170981,1,0
440,200,171366,6,0,B|336:200,1,100
296,128,172135,2,0,B|416:128,1,100,8|0
440,200,172904,1,0
408,272,173289,1,0
352,216,173674,1,8
320,288,174058,1,0
264,232,174443,6,0,B|48:232,1,200,0|8
24,168,175597,1,0
64,96,175981,2,0,B|16:64|32:0,2,100,0|0|8
136,128,177135,1,0
208,96,177520,6,0,B|256:64|312:104,1,100
264,168,178289,2,0,B|312:200|368:160,1,100,8|0
408,104,179058,1,0
464,160,179443,1,0
464,240,179827,1,8
408,296,180212,1,0
352,240,180597,2,0,B|152:160,1,200,0|8
128,96,181750,1,0
176,160,182135,6,0,B|120:256|184:368,1,200,0|8
328,296,183674,2,0,B|384:200|320:88,1,200,0|8
168,88,185212,6,0,B|120:64|64:88,1,100
32,152,185981,1,8
72,224,186366,1,0
136,168,186750,2,0,B|184:144|248:168,1,100
312,184,187520,1,8
256,240,187904,1,0
328,264,188289,6,0,B|448:264,1,100
424,184,189058,2,0,B|304:184,1,100,8|0
296,112,189827,1,0
216,112,190212,1,0
256,184,190597,2,0,B|256:248,2,50,8|0|0
344,184,191366,6,0,B|432:272,1,100
368,320,192135,2,0,B|288:240,1,100,8|0
288,168,192904,1,0
248,96,193289,1,0
168,96,193674,1,8
128,168,194058,1,0
208,168,194443,6,0,B|208:288,1,100,0|0
280,304,195212,2,0,B|280:200,1,100,8|0
344,152,195981,1,0
424,160,196366,1,0
376,224,196750,2,0,B|368:288,2,50,8|0|0
344,152,197520,6,0,B|336:88|272:80,1,100
216,128,198289,1,8
152,80,198674,1,0
96,136,199058,2,0,B|72:200|128:240,1,100
64,288,199827,1,8
144,304,200212,1,0
224,280,200597,6,0,B|344:280,1,100
288,208,201366,2,0,B|408:208,1,100,8|0
424,136,202135,1,0
384,64,202520,1,0
336,128,202904,2,0,B|280:152,2,50,8|0|0
416,120,203674,6,0,B|448:168|416:216,1,100
352,168,204443,2,0,B|320:216|352:264,1,100,8|0
296,320,205212,1,0
240,264,205597,1,0
184,320,205981,1,8
128,264,206366,1,0
184,208,206750,6,0,B|184:104,1,100
264,128,207520,2,0,B|264:232,1,100,8|0
182,241,208289,5,0
261,280,208674,1,0
334,231,209058,1,8
328,143,209443,1,0
248,104,209828,1,0
176,153,210212,1,0
248,189,210597,1,8
248,189,210982,1,0
256,192,211366,12,0,213289
256,192,213674,5,8
200,136,214443,2,0,B|144:104|96:144,1,100,0|2
136,208,215981,2,0,B|192:240|240:200,1,100,0|2
296,160,217520,1,0
216,144,218289,1,2
200,224,219058,1,0
280,240,219827,1,2
360,224,220597,6,0,B|360:112,1,100,0|2
280,152,222135,2,0,B|280:256,1,100,0|2
216,304,223674,1,0
168,240,224443,1,0
256,192,225404,1,0
256,192,226558,12,0,228097
256,192,228289,12,0,232135
