osu file format v7

[General]
AudioFilename: Qiu Tian Bu Hui Lai.mp3
AudioLeadIn: 0
PreviewTime: 63097
Countdown: 0
SampleSet: Soft
StackLeniency: 0.6
Mode: 0
LetterboxInBreaks: 0

[Editor]
DistanceSpacing: 1.10000002384186
BeatDivisor: 4
GridSize: 8

[Metadata]
Title:Qiu Tian Bu Hui Lai
Artist:Wang Qiang
Creator:KanbeKotori
Version:Hard
Source:
Tags:Impossiblexu

[Difficulty]
HPDrainRate:7
CircleSize:4
OverallDifficulty:7
SliderMultiplier:1.6
SliderTickRate:0.5

[Events]
//Background and Video events
0,0,"bg.jpg"
//Break Periods
2,92335,103927
//Storyboard Layer 0 (Background)
//Storyboard Layer 1 (Fail)
//Storyboard Layer 2 (Pass)
//Storyboard Layer 3 (Foreground)
//Storyboard Sound Samples
//Background Colour Transformations
3,100,163,162,255

[TimingPoints]
13674,384.615384615385,4,2,1,30,1,0
60404,-100,4,2,1,0,0,0
63097,-100,4,2,1,30,0,0
63674,-100,4,2,1,30,0,1
89635,-100,4,2,1,0,0,1
92327,-100,4,2,1,30,0,0
155789,-100,4,2,1,0,0,0
158481,-100,4,2,1,30,0,0
185212,-100,4,2,1,30,0,1
211174,-100,4,2,1,0,0,1
213481,-100,4,2,1,30,0,1
214058,-200,4,2,1,30,0,0
226558,-100,4,2,1,0,0,0

[Colours]
Combo1 : 255,254,200
Combo2 : 241,111,3
Combo3 : 136,138,62
Combo4 : 209,165,105

[HitObjects]
88,96,14250,1,0
88,96,14442,2,0,B|168:40|280:120,1,160
312,144,15020,1,0
384,96,15212,2,0,B|384:8,2,80,8|0|0
456,144,15789,5,0
456,144,15981,2,0,B|456:256|344:256,1,160
365,166,16558,1,0
365,78,16750,2,0,B|253:78|253:190,1,160,8|0
296,248,17327,5,0
224,304,17520,2,0,B|136:320|48:304,1,160
32,136,18289,2,0,B|120:120|208:136,1,160,8|0
368,136,19058,2,0,B|464:104|504:32,2,160,0|0|8
296,80,20020,1,0
224,136,20212,1,2
160,80,20404,5,0
160,80,20597,2,0,B|32:96|32:240,1,160
120,216,21174,1,0
88,296,21366,2,0,B|279:298,1,160,8|0
336,296,21943,5,0
336,296,22135,2,0,B|336:208|248:160,1,160
184,216,22712,1,0
112,168,22904,2,0,B|240:40,1,160,8|0
312,56,23481,5,0
312,56,23674,1,0
392,248,24058,1,0
200,328,24443,1,8
120,136,24827,1,0
272,48,25212,2,0,B|80:48,2,160,0|0|8
344,104,26174,1,8
400,176,26366,1,2
344,240,26558,5,0
288,304,26750,2,0,B|192:304|104:256,1,160
88,192,27327,1,0
144,120,27520,2,0,B|240:64,2,80,8|0|0
88,192,28097,5,0
136,264,28289,2,0,B|240:272|272:168,1,160
176,184,28866,1,0
128,112,29058,2,0,B|8:112,2,80,8|0|0
176,32,29635,5,0
216,112,29827,2,0,B|408:112,1,160
296,272,30597,2,0,B|104:272,1,160,8|0
232,176,31366,2,0,B|336:176|352:56,2,160,0|0|8
168,112,32327,1,8
104,176,32520,1,2
48,112,32712,5,0
104,48,32904,2,0,B|296:48,1,160
336,104,33481,1,0
408,48,33674,2,0,B|512:48,2,80,8|0|0
336,104,34250,5,0
408,152,34443,2,0,B|408:320,1,160
336,360,35020,1,0
264,312,35212,2,0,B|123:311,2,80,8|0|0
336,264,35789,5,0
408,216,35981,2,0,B|384:104|304:64,1,160
104,168,36750,2,0,B|128:280|208:320,1,160,8|0
352,336,37520,5,0
332,36,37904,1,0
83,203,38289,1,0
168,216,38481,1,0
112,288,38674,5,0
112,288,38866,1,0
112,288,39058,2,0,B|40:200|136:120,1,160
160,216,39635,1,0
160,216,39827,2,0,B|320:216,2,120,8|0|0
72,216,40597,2,0,B|72:112|184:120,1,160
344,144,41366,2,0,B|256:88,1,80,8|0
192,80,41750,5,0
192,80,41943,1,0
192,80,42135,2,0,B|72:120|136:264,1,160
200,168,42712,1,0
200,168,42904,2,0,B|392:168,1,160,8|0
416,232,43481,1,0
488,280,43674,2,0,B|408:344|320:264,3,160,0|0|8|2
416,232,45020,1,8
416,232,45212,2,0,B|416:64,1,160,8|0
240,56,45981,6,0,B|136:56|136:184,1,160,8|0
224,144,46558,1,0
224,144,46750,2,0,B|224:328,1,160
136,312,47327,2,0,B|24:312|16:144,2,200
312,304,48674,2,0,B|416:304,1,80
480,328,49058,2,0,B|480:216|376:216,1,160,8|0
256,104,49827,5,0
85,194,50212,1,0
189,185,50404,1,0
230,277,50597,1,8
153,347,50789,1,0
64,296,50981,5,2
64,296,51174,1,0
64,296,51366,2,0,B|8:216|80:128,1,160
120,80,51943,1,0
184,136,52135,1,8
240,80,52327,1,0
304,136,52520,5,0
304,136,52712,1,0
304,136,52905,2,0,B|424:152|432:296,1,160
360,296,53481,1,0
296,240,53674,2,0,B|160:240,1,80,8|0
128,240,54058,6,0,B|128:160|240:176,1,80
256,176,54443,2,0,B|24:176,1,160
216,304,55212,2,0,B|448:304,1,160,8|0
432,232,55789,1,0
432,144,55981,2,0,B|320:152|256:8,3,160,0|0|8|2
216,32,57327,1,8
136,80,57520,2,0,B|136:264,1,160,8|0
288,320,58289,6,0,B|464:320,1,160,8|0
224,64,59058,2,0,B|48:64,1,160
256,192,59827,1,8
256,192,60212,1,0
256,192,60597,12,0,62904
56,80,63289,6,0,B|168:80,1,80
224,80,63674,2,0,B|280:160|208:248,1,160
144,272,64250,2,0,B|88:192|160:104,1,160
224,80,64827,1,0
296,128,65020,1,0
368,80,65212,6,0,B|368:288,1,160
288,280,65789,2,0,B|288:72,1,160
216,72,66366,1,0
136,112,66558,1,0
64,160,66750,6,0,B|64:288|224:272,1,160
448,224,67520,2,0,B|448:96|288:112,1,160,8|0
184,56,68289,2,0,B|16:56,2,160,0|0|8
248,120,69250,1,8
184,176,69443,1,2
248,240,69635,1,0
312,176,69827,6,0,B|416:176|432:64,1,160
360,24,70404,2,0,B|256:24|240:136,1,160
176,168,70981,1,0
104,112,71174,1,0
32,168,71366,6,0,B|32:304|184:304,1,160
120,208,71943,1,0
120,208,72135,2,0,B|320:208,1,160,8|0
408,80,72904,2,0,B|408:280,1,160
104,304,73674,2,0,B|104:104,1,160,8|0
272,88,74443,2,0,B|368:128|480:16,2,160,0|0|8
200,32,75404,1,8
128,88,75597,5,2
128,88,75789,1,0
128,88,75981,2,0,B|40:136|56:256,1,160
96,296,76558,2,0,B|184:248|168:128,1,160
128,88,77135,1,0
208,48,77327,1,0
288,88,77520,6,0,B|456:88,1,160
416,168,78097,2,0,B|248:168,1,160
200,232,78674,1,0
256,296,78866,1,0
320,240,79058,6,0,B|416:224|480:112,1,160
192,144,79827,2,0,B|96:160|32:272,1,160,8|0
208,328,80597,2,0,B|32:328,2,160,0|0|8
264,264,81558,1,0
208,192,81750,1,0
264,128,81943,1,0
328,64,82135,6,0,B|464:64|464:224,1,160,0|0
368,160,82712,2,0,B|200:160,1,160
136,112,83289,1,0
72,160,83481,1,0
136,224,83674,6,0,B|312:224,1,160
280,136,84250,2,0,B|392:136|400:256,1,160
312,224,84827,1,0
240,280,85020,1,0
152,304,85212,2,0,B|96:224|168:128,1,160
360,80,85981,2,0,B|416:160|344:256,1,160,8|0
168,344,86750,5,0
80,192,87135,1,0
168,39,87520,1,8
344,39,87904,1,0
432,192,88289,1,0
344,344,88674,1,0
256,192,89058,5,8
256,192,89443,1,0
256,192,89827,12,0,92135
168,224,104827,6,0,B|168:136,1,80
80,152,105212,2,0,B|80:56|200:56,1,160
272,64,105789,2,0,B|272:320,1,240
352,344,106558,1,0
432,304,106750,2,0,B|432:144|272:152,1,240
232,80,107520,1,8
368,168,107904,1,0
280,304,108289,5,0
144,216,108674,1,0
144,40,109058,2,0,B|240:40,1,80,8|0
232,128,109443,1,0
320,112,109635,2,0,B|312:296|136:192,1,240
88,248,110404,1,0
128,328,110597,2,0,B|320:328,1,160,8|0
368,296,111174,5,0
448,256,111366,2,0,B|448:72,1,160
368,56,111943,1,0
288,96,112135,2,0,B|176:96|176:200,1,160,8|0
256,344,112904,5,0
48,192,113289,1,0
256,40,113674,1,8
464,192,114058,1,0
320,88,114443,6,0,B|128:88,1,160
192,296,115212,2,0,B|384:296,1,160,8|0
368,120,115981,2,0,B|472:96|520:24,2,160,0|0|8
144,264,117135,2,0,B|40:288|-8:360,2,160
144,88,118289,5,8
368,296,118674,1,0
256,192,119058,12,8,121366
368,312,121943,5,0
368,312,122135,2,0,B|368:136,1,160
296,96,122712,1,0
224,144,122904,2,0,B|224:248|112:248,1,160,8|0
136,160,123481,5,0
136,160,123674,2,0,B|136:48|256:48,1,160
312,56,124250,1,0
400,56,124443,2,0,B|400:232,1,160,8|0
320,256,125020,1,0
248,304,125212,6,0,B|80:304,1,160
264,80,125981,2,0,B|432:80,1,160,8|0
144,184,126750,2,0,B|144:16,1,160
368,200,127520,2,0,B|368:368,1,160,8|0
288,336,128097,5,0
288,336,128289,2,0,B|176:336|176:224,1,160
272,248,128866,1,0
272,248,129058,2,0,B|272:72,1,160,8|0
184,88,129635,5,0
184,88,129827,2,0,B|80:88|80:208,1,160
168,184,130404,1,0
168,184,130597,2,0,B|344:184,1,160,8|0
392,240,131174,5,0
328,304,131366,2,0,B|128:304,1,160
184,80,132135,2,0,B|384:80,1,160,8|0
432,232,132904,5,0
296,16,133289,1,0
80,152,133674,1,8
216,368,134058,5,2
216,368,134250,1,0
216,368,134443,2,0,B|192:304|280:280|256:192,1,160
176,192,135020,1,0
88,208,135212,2,0,B|88:72,2,120,8|0|0
88,296,135981,2,0,B|192:296|192:192,1,160
424,88,136750,2,0,B|320:88|320:192,1,160,8|0
408,184,137327,5,0
408,184,137520,2,0,B|408:352,1,160
240,288,138289,2,0,B|240:120,1,160,8|0
312,80,138866,1,0
384,128,139058,2,0,B|384:232|256:232,1,160
200,232,139635,1,0
112,232,139827,2,0,B|112:128|16:104,2,160,8|2|0
168,296,140789,5,0
248,336,140981,1,0
328,296,141174,1,0
408,256,141366,2,0,B|408:120,2,120,8|0|0
328,296,142135,2,0,B|136:296,1,160
112,224,142712,2,0,B|112:88|16:48,2,200
288,336,144058,5,0
400,160,144443,1,8
224,48,144827,1,0
194,276,145212,5,0
354,159,145404,1,0
157,159,145597,1,0
317,276,145789,1,0
256,87,145981,1,8
80,88,146366,5,0
80,88,146558,1,0
80,88,146750,2,0,B|80:264,1,160
432,296,147520,2,0,B|432:120,1,160,8|0
432,48,148097,5,0
432,48,148289,2,0,B|328:48|328:144,1,160
80,336,149058,2,0,B|184:336|184:240,1,160,8|0
96,248,149635,5,0
96,248,149827,2,0,B|96:72,1,160
176,40,150404,1,0
256,80,150597,2,0,B|296:160|248:248,1,160,8|0
200,304,151174,1,0
112,304,151366,6,0,B|16:304|16:184,2,160,0|0|8
176,248,152327,1,8
112,184,152520,1,2
176,120,152712,1,8
112,56,152904,2,0,B|296:56,1,160
360,56,153481,1,0
448,56,153674,6,0,B|448:176|320:176,1,160,8|0
64,328,154443,2,0,B|64:208|192:208,1,160
256,72,155212,1,8
256,312,155597,1,0
256,192,155981,12,0,158289
400,288,158674,6,0,B|304:288,1,80
232,288,159058,2,0,B|136:272|104:168,1,160
112,104,159635,2,0,B|208:120|240:224,1,160
296,264,160212,1,0
384,264,160404,1,0
440,200,160597,2,0,B|440:24,1,160
360,72,161174,2,0,B|360:248,1,160
296,288,161750,1,0
216,320,161943,1,0
136,288,162135,6,0,B|96:200|144:120,1,160
376,96,162904,2,0,B|416:184|368:264,1,160,8|0
216,320,163674,2,0,B|32:320,2,160,0|0|8
272,256,164635,1,0
216,192,164827,5,2
216,192,165020,1,8
216,192,165212,2,0,B|160:120|232:16,1,160
280,96,165789,2,0,B|336:168|264:272,1,160
208,304,166366,2,0,B|112:304,1,80
40,304,166750,2,0,B|40:200|160:200,1,160
224,200,167327,1,0
272,128,167520,2,0,B|448:128,1,160,8|2
416,304,168289,6,0,B|336:352|248:296,1,160
96,80,169058,2,0,B|184:64|256:80,1,160,8|0
384,192,169827,1,0
256,320,170212,1,0
128,192,170597,1,8
256,64,170981,5,0
256,64,171174,1,0
256,64,171366,2,0,B|368:64|368:184,1,160
280,152,171943,2,0,B|112:152,1,160
56,216,172520,1,0
120,280,172712,1,0
208,280,172904,6,0,B|384:280,1,160
456,280,173481,2,0,B|456:176|320:176,1,160
288,232,174058,1,0
216,184,174250,1,0
144,232,174443,2,0,B|144:56,1,160
368,152,175212,2,0,B|368:328,1,160,8|0
216,80,175981,2,0,B|392:80,1,160
296,304,176750,2,0,B|120:304,1,160,8|0
72,240,177327,5,0
136,176,177520,2,0,B|216:128|296:184,1,160
216,224,178097,2,0,B|296:272|376:216,1,160
408,144,178674,1,0
368,64,178866,1,0
280,64,179058,2,0,B|112:64,3,160,0|0|8|0
56,224,180597,6,0,B|128:304|224:312,1,160
456,160,181366,2,0,B|384:80|288:72,1,160,8|0
80,192,182135,5,0
344,344,182520,1,0
344,39,182904,1,8
168,344,183289,1,0
432,192,183674,1,0
168,39,184058,1,0
256,192,184443,6,0,B|216:216|168:184,1,80,8|8
224,112,184827,2,0,B|264:88|312:120,1,80
360,176,185212,2,0,B|360:288|240:304,1,160
152,208,185789,2,0,B|152:96|272:80,1,160
320,48,186366,1,0
376,120,186558,1,0
320,184,186750,6,0,B|320:360,1,160
192,200,187327,2,0,B|192:24,1,160
112,80,187904,1,0
112,168,188097,1,0
24,168,188289,6,0,B|24:264|128:264,1,160
200,312,188866,1,0
272,264,189058,2,0,B|272:96,1,160,8|0
352,64,189635,1,0
432,104,189827,2,0,B|432:200|496:256,2,160,0|0|8
352,64,190789,1,0
272,104,190981,5,2
192,64,191174,1,8
112,104,191366,2,0,B|128:208|192:256,1,160
400,280,191943,2,0,B|384:176|320:128,1,160
256,104,192520,1,0
168,128,192712,1,0
128,208,192904,6,0,B|248:344,1,160
384,176,193481,2,0,B|264:40,1,160
200,24,194058,1,0
120,56,194250,1,0
32,56,194443,6,0,B|32:160|144:160,1,160
128,72,195020,1,0
128,72,195212,2,0,B|296:72,1,160,8|2
344,136,195789,1,8
288,200,195981,2,0,B|216:256|104:232,2,160,0|0|8
368,160,196943,1,8
408,240,197135,5,0
328,280,197327,1,0
248,248,197520,2,0,B|64:248,1,160
264,136,198097,2,0,B|448:136,1,160
472,208,198674,1,0
432,288,198866,1,0
368,232,199058,6,0,B|400:144|336:64,1,160
144,152,199635,2,0,B|112:240|176:320,1,160
248,272,200212,1,0
328,304,200404,1,0
408,272,200597,6,0,B|408:88,1,160
104,112,201366,2,0,B|104:296,1,160,8|0
280,312,202135,2,0,B|344:336|384:296,1,80
312,240,202520,2,0,B|248:216|208:256,1,80
192,312,202904,1,8
112,144,203289,6,0,B|160:168|192:144,1,80
264,96,203674,2,0,B|440:96,1,160
248,288,204250,2,0,B|72:288,1,160
40,216,204827,1,0
40,128,205020,1,0
88,56,205212,6,0,B|192:72|272:112,1,160
424,328,205789,2,0,B|320:312|240:272,1,160
192,240,206366,1,0
112,280,206558,1,0
32,240,206750,6,0,B|96:88,1,160
480,144,207520,2,0,B|416:296,1,160,8|0
256,192,208289,6,0,B|224:128|280:96|256:16,1,160
256,192,209058,2,0,B|327:196|327:260|408:280,1,160,8|0
256,192,209827,2,0,B|216:251|160:219|103:280,1,160
256,192,210597,1,8
256,192,210981,1,0
256,192,211366,12,0,213289
256,192,213674,5,8
256,192,213866,1,8
184,80,214443,6,0,B|272:80,1,80,2|0
352,80,215212,1,0
408,144,215597,1,2
352,208,215981,2,0,B|264:208,1,80,2|0
208,264,216750,1,0
136,208,217135,1,2
208,152,217520,6,0,B|176:104|224:64,1,80,2|0
296,48,218289,2,0,B|328:96|280:136,1,80
216,152,219058,2,0,B|128:152,2,80,2|0|0
272,216,220212,5,0
320,288,220597,2,0,B|360:320|408:280,1,80,2|0
440,216,221366,1,0
440,128,221750,1,2
400,48,222135,2,0,B|360:16|312:56,1,80,2|0
352,128,222904,2,0,B|312:160|264:120,1,80
240,48,223674,1,2
136,192,224443,2,0,B|232:192,1,80
352,192,225404,1,0
256,192,226558,12,0,228097
256,192,228289,12,0,232135
