osu file format v12

[General]
AudioFilename: chuntianli.mp3
AudioLeadIn: 0
PreviewTime: 97211
Countdown: 0
SampleSet: Soft
StackLeniency: 0.7
Mode: 0
LetterboxInBreaks: 1
WidescreenStoryboard: 0

[Editor]
DistanceSpacing: 1.1
BeatDivisor: 2
GridSize: 4

[Metadata]
Title:Chun Tian Li
TitleUnicode:春天里
Artist:Wang Feng
ArtistUnicode:汪峰
Creator:615915887
Version:Normal
Source:
Tags:in spring
BeatmapID:338832
BeatmapSetID:135198

[Difficulty]
HPDrainRate:4
CircleSize:3
OverallDifficulty:4
ApproachRate:4
SliderMultiplier:0.8
SliderTickRate:1

[Events]
//Background and Video events
0,0,"beatfycho.jpg",0,0
Video,-4202,"23333301.avi"
//Break Periods
2,132577,160085
//Storyboard Layer 0 (Background)
//Storyboard Layer 1 (Fail)
//Storyboard Layer 2 (Pass)
//Storyboard Layer 3 (Foreground)
//Storyboard Sound Samples
//Background Colour Transformations
3,100,163,162,255

[TimingPoints]
393,333.333333333333,3,2,1,30,1,0
393,-100,3,2,1,30,0,0
24378,333.333333333333,3,2,1,30,1,0
33396,333.333333333333,3,2,1,45,1,0
33396,-100,3,2,1,45,0,0
37391,333.333333333333,3,2,1,45,1,0
41386,333.333333333333,3,2,1,45,1,0
45383,333.333333333333,3,2,1,45,1,0
49049,-100,3,2,1,45,0,0
49382,-100,3,2,1,45,0,0
63382,-100,3,2,1,30,0,0
65382,-100,3,2,1,45,0,0
66382,-100,3,2,1,60,0,0
71382,327.868852459016,3,2,1,60,1,0
72365,333.333333333333,3,2,1,60,1,0
74367,333.333333333333,3,2,1,60,1,0
81367,327.868852459016,3,2,1,60,1,0
82350,342.857142857143,3,2,1,60,1,0
82350,-100,3,2,1,65,0,0
83378,333.333333333333,3,2,1,65,1,0
98377,-100,3,2,1,80,0,1
114044,-100,3,2,1,80,0,0
114377,-100,3,2,1,80,0,1
130377,-100,3,2,1,70,0,0
161405,333.333333333333,3,2,1,40,1,0
161405,-100,3,2,1,40,0,0
162405,-100,3,2,1,50,0,0
170377,333.333333333333,3,2,1,50,1,0
178368,333.333333333333,3,2,1,70,1,0
178368,-100,3,2,1,70,0,0
184356,333.333333333333,3,2,1,70,1,0
194377,333.333333333333,3,2,1,70,1,0
194377,-100,3,2,1,80,0,1
210043,-100,3,2,1,80,0,0
210376,-100,3,2,1,80,0,1
224383,333.333333333333,3,2,1,80,1,1
225383,-100,3,2,1,80,0,0
226383,-100,3,2,1,80,0,1
242049,-100,3,2,1,80,0,0
242382,-100,3,2,1,80,0,1
258382,-100,3,2,1,80,0,0
258716,-100,3,2,1,30,0,0
260382,-100,3,2,1,5,0,0

[Colours]
Combo1 : 204,254,99
Combo2 : 253,226,134
Combo3 : 192,192,192

[HitObjects]
140,152,393,86,0,P|120:120|116:68,2,80
220,188,1392,2,0,P|296:192|368:244,1,160,2|0,0:0|0:0,0:0:0:0:
304,304,2392,2,0,P|364:346|448:348,1,160,2|0,0:0|0:0,0:0:0:0:
504,280,3392,1,0,0:0:0:0:
328,84,4392,6,0,L|248:64,2,80
416,84,5392,2,0,P|386:150|304:168,1,160,2|0,0:0|0:0,0:0:0:0:
220,176,6392,2,0,P|256:236|340:248,1,160,2|0,0:0|0:0,0:0:0:0:
428,232,7392,1,0,0:0:0:0:
176,304,8392,6,0,L|96:332,1,80
52,256,9059,1,0,0:0:0:0:
44,168,9392,2,0,B|108:124|108:124|192:112,1,160,2|0,0:0|0:0,0:0:0:0:
276,116,10392,2,0,B|332:140|332:140|424:104|500:164,1,240,2|0,0:0|0:0,0:0:0:0:
300,336,12392,102,0,L|380:316,1,80
352,232,13059,1,0,0:0:0:0:
344,144,13392,2,0,P|276:184|268:260,1,160,2|0,0:0|0:0,0:0:0:0:
200,316,14392,2,0,P|176:240|188:160,1,160,2|0,0:0|0:0,0:0:0:0:
244,96,15392,1,0,0:0:0:0:
420,292,16392,6,0,P|388:220|400:140,1,160,2|0,0:0|0:0,0:0:0:0:
316,112,17392,2,0,L|264:180,2,80,2|0|0,0:0|0:0|0:0,0:0:0:0:
244,64,18392,2,0,P|180:104|92:96,1,160,2|0,0:0|0:0,0:0:0:0:
32,156,19392,1,2,0:0:0:0:
224,336,20392,102,0,P|184:328|152:304,2,80,2|0|0,0:0|0:0|0:0,0:0:0:0:
220,248,21392,2,0,P|292:280|308:360,1,160,2|0,0:0|0:0,0:0:0:0:
396,356,22392,2,0,P|420:287|500:260,1,160,2|0,0:0|0:0,0:0:0:0:
484,348,23392,1,2,0:0:0:0:
352,120,24378,6,0,L|388:48,2,80,2|0|0,0:0|0:0|0:0,0:0:0:0:
360,208,25378,2,0,L|404:280,2,80,2|0|0,0:0|0:0|0:0,0:0:0:0:
280,172,26377,2,0,L|200:176,2,80,2|0|0,0:0|0:0|0:0,0:0:0:0:
352,120,27377,1,2,0:0:0:0:
88,140,28377,102,0,B|80:100|80:100|60:56,2,80,2|0|0,0:0|0:0|0:0,0:0:0:0:
84,228,29377,2,0,B|84:308|84:308|144:360|144:360|224:360|224:360|280:304|280:304|280:224|280:224|220:160,1,480,2|2,0:0|0:0,0:0:0:0:
468,64,32377,5,2,0:0:0:0:
420,136,32711,1,2,0:0:0:0:
408,224,33044,1,2,0:0:0:0:
364,300,33396,6,0,P|308:352|228:356,1,160,4|2,0:0|0:0,0:0:0:0:
188,276,34396,2,0,P|188:236|204:196,2,80
140,352,35396,1,0,0:0:0:0:
84,96,36396,102,0,P|120:80|168:76,1,80,2|2,0:0|0:0,0:0:0:0:
248,76,37062,1,2,0:0:0:0:
332,100,37391,2,0,P|396:140|440:216,1,160,2|2,0:0|0:0,0:0:0:0:
452,300,38391,2,0,P|460:336|484:372,2,80
372,264,39391,1,0,0:0:0:0:
116,320,40391,5,2,0:0:0:0:
48,264,40724,1,2,0:0:0:0:
72,180,41057,1,2,0:0:0:0:
80,92,41386,2,0,P|148:136|152:212,1,160,4|2,0:0|0:0,0:0:0:0:
240,224,42386,2,0,P|276:296|352:320,1,160
436,312,43386,1,0,0:0:0:0:
420,48,44386,102,0,L|340:60,2,80,2|2|2,0:0|0:0|0:0,0:0:0:0:
436,136,45383,2,0,L|272:160,1,160,2|2,0:0|0:0,0:0:0:0:
192,176,46383,2,0,P|240:240|316:236,1,160
400,224,47383,1,0,0:0:0:0:
152,316,48383,5,2,0:0:0:0:
108,240,48716,1,2,0:0:0:0:
156,164,49049,1,2,0:0:0:0:
244,160,49382,2,0,B|296:220|296:220|296:304,1,160,4|0,0:0|0:0,0:0:0:0:
384,300,50382,2,0,B|384:219|384:219|436:159,1,160
500,96,51382,1,0,0:0:0:0:
236,80,52382,102,0,P|200:100|176:140,2,80,2|2|2,0:0|0:0|0:0,0:0:0:0:
260,164,53382,2,0,P|264:240|224:316,1,160,2|2,0:0|0:0,0:0:0:0:
140,312,54382,2,0,P|103:241|106:162,1,160
184,120,55382,1,0,0:0:0:0:
448,120,56382,6,0,L|448:204,1,80,2|2,0:0|0:0,0:0:0:0:
444,288,57049,1,2,0:0:0:0:
360,316,57382,2,0,B|284:344|284:344|204:312,1,160,4|2,0:0|0:0,0:0:0:0:
192,228,58382,2,0,B|118:198|118:198|42:226,1,160
24,312,59382,1,0,0:0:0:0:
220,132,60382,102,0,P|252:152|296:156,1,80,2|2,0:0|0:0,0:0:0:0:
380,160,61049,1,2,0:0:0:0:
464,140,61382,1,2,0:0:0:0:
256,192,61716,12,0,63382,0:0:0:0:
252,192,65382,5,2,0:0:0:0:
292,116,65716,1,2,0:0:0:0:
340,192,66049,1,2,0:0:0:0:
296,268,66382,6,0,P|240:320|156:324,1,160,4|0,0:0|0:0,0:0:0:0:
84,280,67382,2,0,P|64:200|84:124,1,160,2|0,0:3|0:0,0:0:0:0:
124,48,68382,1,0,0:0:0:0:
300,244,69382,102,0,P|324:212|364:200,2,80,8|0|0,0:0|0:0|0:0,0:0:0:0:
376,288,70382,2,0,B|348:328|296:332|296:332|228:336,1,160,2|0,0:0|0:0,0:0:0:0:
144,324,71382,2,0,P|112:252|144:172,1,160,2|0,0:3|0:0,0:0:0:0:
196,112,72365,1,0,0:0:0:0:
400,280,73365,6,0,B|392:240|392:240|396:200,2,80,8|0|0,0:0|0:0|0:0,0:0:0:0:
324,324,74367,2,0,P|252:296|168:304,1,160,2|0,0:0|0:0,0:0:0:0:
124,228,75367,2,0,P|184:176|204:96,1,160,2|0,0:3|0:0,0:0:0:0:
132,48,76367,1,0,0:0:0:0:
92,308,77367,102,0,L|168:284,1,80,8|0,0:0|0:0,0:0:0:0:
252,256,78033,1,0,0:0:0:0:
324,304,78367,2,0,B|400:328|400:328|480:312,1,160,2|0,0:0|0:0,0:0:0:0:
484,224,79367,2,0,B|408:200|408:200|328:216,1,160,2|0,0:3|0:0,0:0:0:0:
252,256,80367,1,0,0:0:0:0:
56,80,81367,5,8,0:0:0:0:
136,116,81694,1,8,0:0:0:0:
220,92,82022,1,4,0:3:0:0:
304,64,82350,2,0,P|380:76|448:136,1,160,4|0,0:0|0:0,0:0:0:0:
412,212,83378,2,0,P|392:248|388:288,2,80,8|0|4,0:0|0:0|0:3,0:0:0:0:
472,276,84378,1,4,0:3:0:0:
212,324,85378,102,0,P|224:244|192:160,1,160,8|0,0:0|0:0,0:0:0:0:
120,128,86378,2,0,P|80:128|44:144,2,80,2|0|4,0:0|0:0|0:3,0:0:0:0:
196,84,87378,2,0,P|232:68|280:68,2,80,8|0|4,0:0|0:0|0:3,0:0:0:0:
200,172,88378,1,4,0:3:0:0:
428,308,89378,6,0,L|444:228,2,80,8|0|0,0:0|0:0|0:0,0:0:0:0:
348,268,90378,2,0,L|304:200,2,80,4|0|0,0:0|0:0|0:0,0:0:0:0:
260,288,91377,2,0,L|176:288,2,80,8|0|0,0:0|0:0|0:0,0:0:0:0:
348,268,92377,1,0,0:0:0:0:
132,116,93377,102,0,P|172:104|216:104,2,80,8|0|0,0:0|0:0|0:0,0:0:0:0:
100,200,94377,1,4,0:0:0:0:
132,280,94711,1,4,0:0:0:0:
208,324,95044,1,4,0:0:0:0:
296,312,95377,1,4,0:0:0:0:
356,248,95711,1,4,0:0:0:0:
360,160,96044,1,4,0:0:0:0:
320,84,96377,1,4,0:0:0:0:
96,224,97377,5,8,0:0:0:0:
180,248,97711,1,8,0:3:0:0:
240,312,98044,1,4,0:3:0:0:
328,320,98377,6,0,P|404:300|448:228,1,160,4|0,0:0|0:0,0:0:0:0:
416,152,99377,2,0,P|404:112|412:72,2,80,8|0|0,0:0|0:0|0:0,0:0:0:0:
360,220,100377,1,0,0:0:0:0:
104,284,101377,102,0,P|128:252|144:212,1,80,8|0,0:0|0:0,0:0:0:0:
144,128,102044,1,0,0:0:0:0:
224,92,102377,2,0,P|300:68|392:80,1,160,4|0,0:0|0:0,0:0:0:0:
456,120,103377,2,0,P|476:156|484:200,1,80,8|0,0:0|0:0,0:0:0:0:
468,280,104044,1,0,0:0:0:0:
400,224,104377,1,0,0:0:0:0:
144,288,105377,70,0,L|224:332,2,80,8|0|0,0:0|0:0|0:0,0:0:0:0:
160,200,106377,2,0,B|184:156|184:156|190:89|190:89|180:40,1,160,4|0,0:0|0:0,0:0:0:0:
264,16,107377,2,0,B|304:36|304:36|376:36|376:36|428:12,1,160,8|0,0:0|0:0,0:0:0:0:
464,92,108377,1,0,0:0:0:0:
300,300,109377,54,0,L|372:344,1,80,8|0,0:0|0:0,0:0:0:0:
416,268,110044,1,0,0:0:0:0:
416,180,110377,2,0,P|348:140|264:148,1,160,4|0,0:0|0:0,0:0:0:0:
188,180,111377,2,0,P|152:196|112:196,2,80,8|0|0,0:0|0:0|0:0,0:0:0:0:
196,92,112377,1,0,0:0:0:0:
136,348,113377,101,8,0:0:0:0:
224,332,113711,1,8,0:3:0:0:
296,284,114044,1,4,0:3:0:0:
352,216,114377,2,0,P|384:156|480:144,1,160,4|0,0:0|0:0,0:0:0:0:
440,224,115377,2,0,L|448:304,1,80,8|0,0:0|0:0,0:0:0:0:
372,348,116044,1,0,0:0:0:0:
372,348,116377,1,0,0:0:0:0:
132,304,117377,70,0,B|92:312|92:312|56:336,2,80,8|0|0,0:0|0:0|0:0,0:0:0:0:
216,280,118377,2,0,P|280:236|308:156,1,160,4|0,0:0|0:0,0:0:0:0:
248,96,119377,2,0,P|284:76|332:76,2,80,8|0|0,0:0|0:0|0:0,0:0:0:0:
216,180,120377,1,0,0:0:0:0:
448,52,121377,102,0,L|456:132,2,80,8|0|0,0:0|0:0|0:0,0:0:0:0:
360,56,122377,2,0,L|376:216,1,160,4|0,0:0|0:0,0:0:0:0:
288,224,123377,2,0,L|280:144,2,80,8|0|0,0:0|0:0|0:0,0:0:0:0:
300,312,124377,1,0,0:0:0:0:
40,260,125377,69,8,0:0:0:0:
52,172,125711,1,0,0:0:0:0:
140,184,126044,1,0,0:0:0:0:
128,272,126377,2,0,P|204:248|228:168,1,160,4|0,0:0|0:0,0:0:0:0:
268,100,127377,2,0,P|304:84|352:88,2,80,8|0|0,0:0|0:0|0:0,0:0:0:0:
180,104,128377,1,4,0:0:0:0:
444,336,129711,5,8,0:0:0:0:
400,260,130044,1,8,0:0:0:0:
324,216,130377,1,8,0:0:0:0:
256,192,130711,12,4,132377,0:0:0:0:
372,232,161405,22,0,P|392:264|396:316,2,80
292,196,162405,2,0,P|216:192|144:140,1,160,2|0,0:0|0:0,0:0:0:0:
208,80,163405,2,0,P|148:38|64:36,1,160,2|0,0:0|0:0,0:0:0:0:
8,104,164405,1,2,0:0:0:0:
184,300,165405,6,0,L|264:320,2,80,2|0|0,0:0|0:0|0:0,0:0:0:0:
96,300,166405,2,0,P|126:234|208:216,1,160,2|0,0:0|0:0,0:0:0:0:
292,208,167405,2,0,P|256:148|172:136,1,160,2|0,0:0|0:0,0:0:0:0:
84,152,168405,1,0,0:0:0:0:
336,80,169405,102,0,L|416:52,1,80,2|0,0:0|0:0,0:0:0:0:
460,128,170071,1,0,0:0:0:0:
468,216,170377,2,0,B|404:260|404:260|320:272,1,160,2|0,0:0|0:0,0:0:0:0:
236,268,171377,2,0,B|192:244|192:244|136:256|80:232,1,160,2|0,0:0|0:0,0:0:0:0:
12,180,172377,1,2,0:0:0:0:
212,48,173377,6,0,L|132:68,1,80,2|0,0:0|0:0,0:0:0:0:
160,152,174043,1,0,0:0:0:0:
168,240,174377,2,0,P|236:200|244:124,1,160,2|0,0:0|0:0,0:0:0:0:
312,68,175377,2,0,P|336:144|324:224,1,160,2|0,0:0|0:0,0:0:0:0:
268,288,176377,1,2,0:0:0:0:
92,92,177377,102,0,P|124:164|112:244,1,160,2|0,0:0|0:0,0:0:0:0:
196,272,178368,2,0,L|248:204,2,80,4|0|0,0:0|0:0|0:0,0:0:0:0:
268,320,179368,2,0,P|332:280|420:288,1,160,8|0,0:0|0:0,0:0:0:0:
480,228,180368,1,0,0:0:0:0:
288,48,181368,6,0,P|328:56|360:80,2,80,8|0|0,0:0|0:0|0:0,0:0:0:0:
292,136,182368,2,0,P|220:104|204:24,1,160,4|0,0:0|0:0,0:0:0:0:
116,28,183368,2,0,P|92:97|12:124,1,160,8|0,0:0|0:0,0:0:0:0:
28,36,184356,1,0,0:0:0:0:
160,264,185356,102,0,L|124:336,2,80,8|0|0,0:0|0:0|0:0,0:0:0:0:
152,176,186356,2,0,L|108:104,2,80,4|0|0,0:0|0:0|0:0,0:0:0:0:
232,212,187356,2,0,L|312:208,2,80,8|0|0,0:0|0:0|0:0,0:0:0:0:
160,264,188356,1,0,0:0:0:0:
424,244,189356,6,0,B|432:284|432:284|452:328,2,80,8|0|0,0:0|0:0|0:0,0:0:0:0:
380,168,190356,101,4,0:0:0:0:
316,108,190689,1,4,0:0:0:0:
228,92,191022,1,4,0:0:0:0:
144,112,191356,1,4,0:0:0:0:
88,180,191689,1,4,0:0:0:0:
60,264,192022,1,4,0:0:0:0:
84,348,192356,1,4,0:0:0:0:
324,232,193356,5,2,0:0:0:0:
324,144,193689,1,2,0:0:0:0:
268,76,194022,1,2,0:0:0:0:
184,64,194377,102,0,P|108:84|64:156,1,160,4|0,0:0|0:0,0:0:0:0:
96,232,195377,2,0,P|108:272|100:312,2,80,12|0|0,0:0|0:0|0:0,0:0:0:0:
152,164,196377,1,0,0:0:0:0:
408,100,197377,6,0,P|384:132|368:172,1,80,6|0,0:0|0:0,0:0:0:0:
368,256,198043,1,0,0:0:0:0:
288,292,198377,2,0,P|212:316|120:304,1,160,4|0,0:0|0:0,0:0:0:0:
56,264,199377,2,0,P|36:228|28:184,1,80,12|0,0:0|0:0,0:0:0:0:
44,104,200043,1,0,0:0:0:0:
112,160,200377,1,0,0:0:0:0:
368,96,201377,102,0,L|288:52,2,80,12|0|0,0:0|0:0|0:0,0:0:0:0:
352,184,202377,2,0,B|328:228|328:228|321:294|321:294|332:344,1,160,4|0,0:0|0:0,0:0:0:0:
248,368,203377,2,0,B|208:348|208:348|136:348|136:348|84:372,1,160,12|0,0:0|0:0,0:0:0:0:
48,292,204377,1,0,0:0:0:0:
212,84,205377,6,0,L|140:40,1,80,12|0,0:0|0:0,0:0:0:0:
96,116,206043,1,0,0:0:0:0:
96,204,206377,2,0,P|164:244|248:236,1,160,4|0,0:0|0:0,0:0:0:0:
324,204,207377,2,0,P|360:188|400:188,2,80,12|0|0,0:0|0:0|0:0,0:0:0:0:
316,292,208377,1,4,0:0:0:0:
360,68,209376,101,12,0:0:0:0:
404,144,209710,1,8,0:0:0:0:
356,220,210043,1,8,0:0:0:0:
268,224,210376,2,0,B|216:164|216:164|216:80,1,160,4|0,0:0|0:0,0:0:0:0:
128,84,211376,2,0,B|128:165|128:165|76:225,1,160,12|0,0:0|0:0,0:0:0:0:
12,288,212376,1,0,0:0:0:0:
276,304,213376,6,0,P|312:284|336:244,2,80,12|0|0,0:0|0:0|0:0,0:0:0:0:
252,220,214376,2,0,P|248:144|288:68,1,160,4|0,0:0|0:0,0:0:0:0:
372,72,215376,2,0,P|409:143|406:222,1,160,12|0,0:0|0:0,0:0:0:0:
328,260,216376,1,0,0:0:0:0:
64,264,217376,102,0,L|64:180,1,80,12|0,0:0|0:0,0:0:0:0:
68,96,218043,1,0,0:0:0:0:
152,68,218376,2,0,B|228:40|228:40|308:72,1,160,4|0,0:0|0:0,0:0:0:0:
320,156,219376,2,0,B|394:186|394:186|470:158,1,160,12|0,0:0|0:0,0:0:0:0:
488,72,220376,1,0,0:0:0:0:
292,252,221376,6,0,P|260:232|216:228,1,80,12|0,0:0|0:0,0:0:0:0:
132,224,222043,1,0,0:0:0:0:
48,252,222376,2,0,P|28:176|40:92,1,160,4|0,0:0|0:0,0:0:0:0:
112,48,223376,2,0,P|188:64|272:52,1,160,12|0,0:0|0:0,0:0:0:0:
356,72,224376,1,4,0:0:0:0:
256,192,224716,12,4,226383,0:0:0:0:
164,256,227383,70,0,L|92:296,2,80,12|0|0,0:0|0:0|0:0,0:0:0:0:
240,212,228383,1,4,0:0:0:0:
276,132,228716,1,0,0:0:0:0:
364,140,229049,1,0,0:0:0:0:
392,224,229383,2,0,P|432:232|480:228,2,80,12|0|0,0:0|0:0|0:0,0:0:0:0:
356,304,230383,6,0,P|288:344|208:332,1,160,4|0,0:0|0:0,0:0:0:0:
140,284,231383,2,0,P|152:244|148:200,2,80,12|0|0,0:0|0:0|0:0,0:0:0:0:
64,236,232383,2,0,P|61:196|73:158,2,80,4|0|0,0:0|0:0|0:0,0:0:0:0:
140,284,233383,1,12,0:0:0:0:
224,292,233716,1,0,0:0:0:0:
304,256,234049,1,0,0:0:0:0:
376,204,234383,102,0,B|424:136|424:136|436:44,1,160,4|0,0:0|0:0,0:0:0:0:
352,28,235383,2,0,B|340:108|340:108|256:108,1,160,12|0,0:0|0:0,0:0:0:0:
172,108,236383,2,0,L|88:108,2,80,4|0|0,0:0|0:0|0:0,0:0:0:0:
212,188,237383,2,0,P|176:208|152:248,2,80,12|0|0,0:0|0:0|0:0,0:0:0:0:
240,272,238383,6,0,P|304:320|392:328,1,160,4|0,0:0|0:0,0:0:0:0:
424,252,239382,2,0,P|440:220|440:176,2,80,12|0|0,0:0|0:0|0:0,0:0:0:0:
356,196,240382,1,4,0:0:0:0:
312,120,240716,1,0,0:0:0:0:
232,88,241049,1,0,0:0:0:0:
152,124,241382,2,0,P|148:164|128:208,1,80,12|4,0:0|0:0,0:0:0:0:
84,276,242049,1,4,0:0:0:0:
172,284,242382,102,0,P|252:296|316:344,1,160,4|0,0:0|0:0,0:0:0:0:
384,284,243382,2,0,B|376:244|376:244|380:200,1,80,12|0,0:0|0:0,0:0:0:0:
392,116,244049,1,0,0:0:0:0:
308,92,244382,2,0,B|232:68|232:68|144:92,1,160,4|0,0:0|0:0,0:0:0:0:
104,160,245382,2,0,P|76:128|68:84,2,80,12|0|0,0:0|0:0|0:0,0:0:0:0:
192,168,246382,6,0,P|216:244|192:332,1,160,4|0,0:0|0:0,0:0:0:0:
280,356,247382,2,0,P|296:320|304:272,2,80,12|0|0,0:0|0:0|0:0,0:0:0:0:
368,360,248382,2,0,P|404:348|436:320,1,80,4|0,0:0|0:0,0:0:0:0:
480,244,249049,1,0,0:0:0:0:
480,156,249382,2,0,P|464:116|440:88,1,80,12|0,0:0|0:0,0:0:0:0:
360,48,250049,1,0,0:0:0:0:
276,76,250382,102,0,P|220:132|132:152,1,160,4|0,0:0|0:0,0:0:0:0:
76,96,251382,2,0,P|56:132|64:184,1,80,12|0,0:0|0:0,0:0:0:0:
112,236,252049,1,0,0:0:0:0:
192,276,252382,2,0,P|232:292|268:288,1,80,4|0,0:0|0:0,0:0:0:0:
244,204,253049,1,0,0:0:0:0:
332,220,253382,1,12,0:0:0:0:
400,276,253716,1,0,0:0:0:0:
476,236,254049,1,0,0:0:0:0:
484,148,254382,6,0,P|440:84|360:60,1,160,4|0,0:0|0:0,0:0:0:0:
276,64,255382,2,0,P|236:68|188:60,2,80,12|0|0,0:0|0:0|0:0,0:0:0:0:
324,140,256382,2,0,P|332:180|324:228,1,80,4|0,0:0|0:0,0:0:0:0:
300,304,257049,1,0,0:0:0:0:
220,344,257382,1,12,0:0:0:0:
152,288,257716,6,0,L|136:204,1,80,4|4,0:0|0:0,0:0:0:0:
120,124,258382,1,0,0:0:0:0:
256,192,258716,12,0,260382,0:0:0:0:
