osu file format v12

[General]
AudioFilename: chuntianli.mp3
AudioLeadIn: 0
PreviewTime: 97211
Countdown: 0
SampleSet: Soft
StackLeniency: 0.7
Mode: 0
LetterboxInBreaks: 1
WidescreenStoryboard: 0

[Editor]
DistanceSpacing: 0.9
BeatDivisor: 4
GridSize: 4

[Metadata]
Title:Chun Tian Li
TitleUnicode:春天里
Artist:Wang Feng
ArtistUnicode:汪峰
Creator:615915887
Version:Insane
Source:
Tags:in spring
BeatmapID:345947
BeatmapSetID:135198

[Difficulty]
HPDrainRate:7
CircleSize:4
OverallDifficulty:7
ApproachRate:8
SliderMultiplier:1.6
SliderTickRate:1

[Events]
//Background and Video events
0,0,"beatfycho.jpg",0,0
Video,-4202,"23333301.avi"
//Break Periods
2,134577,155627
//Storyboard Layer 0 (Background)
//Storyboard Layer 1 (Fail)
//Storyboard Layer 2 (Pass)
//Storyboard Layer 3 (Foreground)
//Storyboard Sound Samples
//Background Colour Transformations
3,100,163,162,255

[TimingPoints]
393,333.333333333333,3,2,1,30,1,0
393,-133.333333333333,3,2,1,30,0,0
24378,333.333333333333,3,2,1,30,1,0
24378,-133.333333333333,3,2,1,30,0,0
33396,333.333333333333,3,2,1,45,1,0
33396,-133.333333333333,3,2,1,45,0,0
37391,333.333333333333,3,2,1,45,1,0
37391,-133.333333333333,3,2,1,45,0,0
41386,333.333333333333,3,2,1,45,1,0
41386,-133.333333333333,3,2,1,45,0,0
45383,333.333333333333,3,2,1,45,1,0
45383,-133.333333333333,3,2,1,45,0,0
49049,-133.333333333333,3,2,1,45,0,0
49382,-133.333333333333,3,2,1,45,0,0
63382,-100,3,2,1,30,0,0
65382,-100,3,2,1,45,0,0
66382,-100,3,2,1,60,0,0
71382,327.868852459016,3,2,1,60,1,0
72365,333.333333333333,3,2,1,60,1,0
74367,333.333333333333,3,2,1,60,1,0
81367,327.868852459016,3,2,1,60,1,0
82350,342.857142857143,3,2,1,60,1,0
83378,333.333333333333,3,2,1,65,1,0
98377,-100,3,2,1,80,0,1
114044,-100,3,2,1,80,0,0
114377,-100,3,2,1,80,0,1
130377,-100,3,2,1,70,0,0
161377,-100,3,2,1,40,0,0
161405,333.333333333333,3,2,1,40,1,0
162405,-200,3,2,1,50,0,0
170377,333.333333333333,3,2,1,50,1,0
170377,-200,3,2,1,50,0,0
178368,333.333333333333,3,2,1,70,1,0
178368,-133.333333333333,3,2,1,70,0,0
184356,333.333333333333,3,2,1,70,1,0
184356,-133.333333333333,3,2,1,70,0,0
194377,333.333333333333,3,2,1,70,1,0
194377,-100,3,2,1,80,0,1
210043,-100,3,2,1,80,0,0
210376,-100,3,2,1,80,0,1
224383,333.333333333333,3,2,1,80,1,1
225383,-100,3,2,1,80,0,0
226383,-83.3333333333333,3,2,1,80,0,1
242049,-83.3333333333333,3,2,1,80,0,0
242382,-83.3333333333333,3,2,1,80,0,1
258382,-83.3333333333333,3,2,1,80,0,0
258549,-83.3333333333333,3,2,1,30,0,0
260382,-83.3333333333333,3,2,1,5,0,0

[Colours]
Combo1 : 204,254,99
Combo2 : 253,226,134
Combo3 : 192,192,192

[HitObjects]
64,216,393,85,0,0:0:0:0:
184,72,726,1,0,0:0:0:0:
244,256,1059,1,0,0:0:0:0:
376,124,1392,2,0,P|432:144|476:200,1,120.000004577637,2|0,0:0|0:0,0:0:0:0:
352,260,2059,1,0,0:0:0:0:
376,124,2392,2,0,P|316:128|264:156,1,120.000004577637,2|0,0:0|0:0,0:0:0:0:
216,284,3059,1,0,0:0:0:0:
264,156,3392,1,0,0:0:0:0:
72,56,4392,101,0,0:0:0:0:
128,212,4726,1,0,0:0:0:0:
164,52,5059,1,0,0:0:0:0:
36,216,5392,2,0,P|60:272|112:300,1,120.000004577637,2|0,0:0|0:0,0:0:0:0:
220,256,6059,1,0,0:0:0:0:
401,215,6392,2,0,P|378:270|328:300,1,120.000004577637,2|0,0:0|0:0,0:0:0:0:
128,212,7059,1,0,0:0:0:0:
308,212,7392,1,0,0:0:0:0:
444,56,8392,6,0,B|448:72|448:72|476:108|472:156|472:156|476:172,2,120.000004577637
360,148,9392,2,0,P|350:206|316:255,1,120.000004577637,2|0,0:0|0:0,0:0:0:0:
216,328,10059,1,0,0:0:0:0:
317,255,10392,2,0,B|269:215|205:219|205:219|137:223|89:179,1,240.000009155274,2|0,0:0|0:0,0:0:0:0:
184,88,11392,1,0,0:0:0:0:
184,88,12392,101,0,0:0:0:0:
292,84,12726,1,0,0:0:0:0:
424,200,13059,2,0,L|388:256,1,60.0000022888184
351,185,13392,2,0,P|332:128|292:84,1,120.000004577637,2|0,0:0|0:0,0:0:0:0:
196,208,14059,1,0,0:0:0:0:
88,324,14392,1,2,0:0:0:0:
36,168,14726,1,0,0:0:0:0:
140,52,15059,1,0,0:0:0:0:
292,84,15392,1,0,0:0:0:0:
452,336,16392,5,2,0:0:0:0:
312,336,16726,1,0,0:0:0:0:
192,268,17059,1,0,0:0:0:0:
160,136,17392,2,0,P|224:136|280:168,2,120.000004577637,2|0|0,0:0|0:0|0:0,0:0:0:0:
64,244,18392,2,0,P|68:308|96:356,2,120.000004577637,2|0|0,0:0|0:0|0:0,0:0:0:0:
20,104,19392,1,2,0:0:0:0:
20,104,20392,101,2,0:0:0:0:
156,60,20726,1,0,0:0:0:0:
296,116,21059,1,0,0:0:0:0:
408,216,21392,2,0,P|408:288|376:344,1,120.000004577637,2|0,0:0|0:0,0:0:0:0:
264,256,22059,1,0,0:0:0:0:
136,304,22392,2,0,P|124:244|144:188,2,120.000004577637,2|0|0,0:0|0:0|0:0,0:0:0:0:
264,256,23392,1,2,0:0:0:0:
264,256,24378,5,2,0:0:0:0:
300,76,24711,1,0,0:0:0:0:
264,256,25044,1,0,0:0:0:0:
176,136,25378,2,0,B|116:128|116:128|56:148,2,120.000004577637,2|0|0,0:0|0:0|0:0,0:0:0:0:
396,184,26377,2,0,B|456:200|456:200|512:188,2,120.000004577637,2|0|0,0:0|0:0|0:0,0:0:0:0:
300,76,27377,1,2,0:0:0:0:
300,76,28377,101,2,0:0:0:0:
144,140,28711,1,0,0:0:0:0:
280,220,29044,1,0,0:0:0:0:
188,28,29377,2,0,L|76:72,1,120.000004577637,2|0,0:0|0:0,0:0:0:0:
188,28,30044,1,0,0:0:0:0:
264,260,30377,2,0,L|384:216,1,120.000004577637,2|0,0:0|0:0,0:0:0:0:
264,260,31044,1,0,0:0:0:0:
188,28,31377,1,2,0:0:0:0:
188,28,32377,5,2,0:0:0:0:
248,176,32711,1,2,0:0:0:0:
440,216,33044,1,2,0:0:0:0:
248,176,33396,6,0,P|160:160|80:104,1,180.000006866455,4|2,0:0|0:0,0:0:0:0:
36,172,34062,2,0,P|44:200|44:232,1,60.0000022888184,2|0,0:0|0:0,0:0:0:0:
104,280,34396,2,0,P|160:296|216:328,2,120.000004577637
356,316,35396,2,0,P|388:236|400:144,1,180.000006866455,2|0,0:0|0:0,0:0:0:0:
372,72,36062,2,0,P|344:80|312:96,1,60.0000022888184
240,124,36396,2,0,B|196:136|196:136|164:120|124:112,2,120.000004577637,2|2|2,0:0|0:0|0:0,0:0:0:0:
112,228,37391,102,0,P|116:320|204:332,1,180.000006866455,2|2,0:0|0:0,0:0:0:0:
268,304,38057,2,0,P|292:288|328:280,1,60.0000022888184,2|0,0:0|0:0,0:0:0:0:
404,264,38391,2,0,P|452:228|472:172,2,120.000004577637
320,52,39391,2,0,B|300:76|292:104|292:104|232:128|192:176,1,180.000006866455,2|0,0:0|0:0,0:0:0:0:
140,236,40057,2,0,B|140:268|140:268|128:296,1,60.0000022888184
68,352,40391,2,0,P|16:324|8:268,2,120.000004577637,2|2|2,0:0|0:0|0:0,0:0:0:0:
280,328,41386,6,0,P|364:312|472:336,1,180.000006866455,4|2,0:0|0:0,0:0:0:0:
496,256,42052,2,0,P|472:228|464:204,1,60.0000022888184,2|0,0:0|0:0,0:0:0:0:
436,128,42386,2,0,B|420:84|452:44|452:44|436:12,2,120.000004577637
276,68,43386,2,0,P|228:104|104:112,1,180.000006866455,2|0,0:0|0:0,0:0:0:0:
40,76,44052,2,0,L|32:136,1,60.0000022888184
88,196,44386,2,0,P|144:204|208:200,2,120.000004577637,2|2|2,0:0|0:0|0:0,0:0:0:0:
180,340,45383,102,0,B|232:328|300:336|300:336|360:328,1,180.000006866455,2|2,0:0|0:0,0:0:0:0:
392,256,46049,2,0,B|400:228|400:228|420:196,1,60.0000022888184,2|0,0:0|0:0,0:0:0:0:
444,124,46383,2,0,P|424:72|368:80,2,120.000004577637
232,104,47383,2,0,B|180:136|108:108|68:172,1,180.000006866455,2|0,0:0|0:0,0:0:0:0:
136,216,48049,2,0,P|112:240|80:248,1,60.0000022888184
32,312,48383,2,0,P|84:332|148:312,2,120.000004577637,2|2|2,0:0|0:0|0:0,0:0:0:0:
228,188,49382,6,0,B|264:196|264:196|364:248|364:248|393:255,1,180.000006866455,4|2,0:0|0:0,0:0:0:0:
440,332,50049,1,2,0:0:0:0:
394,255,50216,1,0,0:0:0:0:
356,336,50382,2,0,L|296:328,1,60.0000022888184
196,240,50716,2,0,L|260:248,1,60.0000022888184
112,320,51049,2,0,L|52:312,1,60.0000022888184
76,220,51382,102,0,B|64:164|96:112|96:112|136:48,1,180.000006866455,2|0,0:0|0:0,0:0:0:0:
212,68,52049,2,0,P|240:76|280:72,1,60.0000022888184
356,64,52382,1,2,0:0:0:0:
212,68,52716,1,2,0:0:0:0:
344,144,53049,1,2,0:0:0:0:
200,152,53382,6,0,B|144:172|144:172|124:232|84:280,1,180.000006866455,2|2,0:0|0:0,0:0:0:0:
152,328,54049,2,0,B|180:320|180:320|212:320,1,60.0000022888184,2|0,0:0|0:0,0:0:0:0:
292,340,54382,2,0,P|348:336|416:308,2,120.000004577637
344,196,55382,2,0,P|368:152|292:68,1,180.000006866455,2|0,0:0|0:0,0:0:0:0:
216,88,56049,1,0,0:0:0:0:
148,128,56216,1,0,0:0:0:0:
92,192,56382,2,0,P|76:220|72:248,1,60.0000022888184,2|0,0:0|0:0,0:0:0:0:
164,360,56716,2,0,P|176:332|180:300,1,60.0000022888184,2|0,0:0|0:0,0:0:0:0:
288,196,57049,2,0,P|288:232|296:256,1,60.0000022888184,2|0,0:0|0:0,0:0:0:0:
416,344,57382,102,0,B|440:280|440:224|440:224|476:176,1,180.000006866455,4|2,0:0|0:0,0:0:0:0:
436,108,58049,2,0,L|408:56,1,60.0000022888184,2|0,0:0|0:0,0:0:0:0:
332,36,58382,2,0,P|304:84|244:92,2,120.000004577637
320,200,59382,2,0,P|248:248|204:344,1,180.000006866455,2|0,0:0|0:0,0:0:0:0:
108,384,60049,1,0,0:0:0:0:
108,384,60216,1,0,0:0:0:0:
44,292,60382,2,0,P|32:228|0:180,2,120.000004577637,2|2|2,0:0|0:0|0:0,0:0:0:0:
256,192,61382,12,0,63382,0:0:0:0:
72,136,65382,5,2,0:0:0:0:
176,280,65716,1,2,0:0:0:0:
288,144,66049,1,2,0:0:0:0:
392,296,66382,6,0,P|424:224|416:144,1,160,4|0,0:0|0:0,0:0:0:0:
332,104,66882,1,0,0:0:0:0:
328,196,67049,2,0,P|292:204|244:204,1,80
156,212,67382,2,0,P|192:276|280:292,1,160,2|0,0:3|0:0,0:0:0:0:
328,196,67882,1,0,0:0:0:0:
248,136,68049,2,0,P|216:108|196:76,1,80
104,64,68382,2,0,P|52:120|24:204,2,160
156,296,69382,5,8,0:0:0:0:
336,344,69716,1,0,0:0:0:0:
484,244,70049,1,0,0:0:0:0:
336,344,70382,6,0,P|306:271|308:192,1,160,2|0,0:0|0:0,0:0:0:0:
340,108,70882,1,0,0:0:0:0:
308,191,71049,2,0,P|272:203|228:203,1,80
172,136,71382,1,2,0:3:0:0:
340,108,71709,1,0,0:0:0:0:
348,268,72037,1,0,0:0:0:0:
180,296,72365,2,0,P|96:268|44:212,1,160
40,128,72865,1,0,0:0:0:0:
80,48,73031,2,0,P|120:36|164:32,1,80
244,60,73365,2,0,P|316:88|408:88,2,160,8|0|0,0:0|0:0|0:0,0:0:0:0:
192,200,74367,102,0,P|232:268|320:308,1,160,2|0,0:0|0:0,0:0:0:0:
400,312,74867,2,0,P|444:308|484:296,2,80
356,232,75367,2,0,P|416:188|444:32,1,240,2|0,0:3|0:0,0:0:0:0:
348,56,76033,1,0,0:0:0:0:
348,56,76200,1,0,0:0:0:0:
348,56,76367,2,0,B|376:120|288:164|288:164|248:208|268:272,1,240
200,336,77033,1,0,0:0:0:0:
120,288,77200,1,0,0:0:0:0:
76,208,77367,2,0,P|56:128|56:44,2,160,8|0|0,0:0|0:0|0:0,0:0:0:0:
168,212,78200,1,0,0:0:0:0:
260,208,78367,6,0,P|280:128|280:44,1,160,2|0,0:0|0:0,0:0:0:0:
456,56,78867,1,0,0:0:0:0:
375,91,79033,2,0,P|367:53|376:14,1,80
456,56,79367,2,0,P|460:132|440:212,1,160,2|0,0:3|0:0,0:0:0:0:
392,288,79867,1,0,0:0:0:0:
308,328,80033,2,0,P|268:336|228:336,1,80
140,320,80367,2,0,P|180:260|264:252,2,160,8|0|0,0:0|0:0|0:0,0:0:0:0:
80,100,81367,2,0,L|160:104,1,80,8|0,0:0|0:0,0:0:0:0:
244,40,81694,2,0,L|324:44,1,80,8|0,0:0|1:0,0:0:0:0:
388,152,82022,2,0,L|468:156,1,80,8|0,0:3|0:0,0:0:0:0:
268,156,82350,102,0,P|257:234|217:302,1,160,4|0,0:0|0:0,0:0:0:0:
132,280,82864,1,0,0:0:0:0:
216,303,83035,2,0,P|252:319|288:343,1,80
376,352,83378,2,0,P|440:328|476:244,2,160,8|0|4,0:0|0:0|0:3,0:0:0:0:
376,248,84211,1,0,0:0:0:0:
368,144,84378,2,0,P|296:175|268:248,2,160,4|0|4,0:3|0:0|0:3,0:0:0:0:
252,12,85378,1,8,0:0:0:0:
96,84,85711,2,0,P|84:124|80:164,1,80,0|4,0:0|0:3,0:0:0:0:
176,216,86044,2,0,P|192:180|192:140,1,80,0|4,0:0|0:3,0:0:0:0:
96,84,86378,6,0,P|80:144|88:248,1,160,2|0,0:0|0:0,0:0:0:0:
152,304,86878,1,0,0:0:0:0:
236,356,87044,2,0,L|316:368,1,80,4|0,0:3|0:0,0:0:0:0:
400,324,87378,2,0,B|360:252|360:252|356:168,1,160,8|0,0:0|0:0,0:0:0:0:
424,108,87878,1,4,0:3:0:0:
336,84,88044,1,0,0:0:0:0:
272,156,88211,1,4,0:3:0:0:
184,136,88378,2,0,P|100:112|28:68,2,160,0|0|4,0:0|0:0|0:3,0:0:0:0:
168,312,89378,2,0,L|88:332,1,80,8|0,0:0|0:0,0:0:0:0:
264,300,89711,2,0,L|321:359,1,80,0|4,0:0|0:3,0:0:0:0:
208,224,90044,2,0,L|230:144,1,80,0|4,0:0|0:3,0:0:0:0:
296,76,90378,102,0,P|372:60|456:80,1,160,2|0,0:0|0:0,0:0:0:0:
436,164,90877,1,0,0:0:0:0:
428,248,91044,2,0,P|432:288|448:332,1,80,4|0,0:3|0:0,0:0:0:0:
356,344,91377,2,0,B|340:304|336:260|336:260|276:212,1,160,8|0,0:0|0:0,0:0:0:0:
196,152,91877,1,0,0:0:0:0:
112,92,92044,2,0,P|96:128|96:172,1,80,0|4,0:0|0:3,0:0:0:0:
156,240,92377,2,0,P|164:308|96:360,2,160,4|0|0,0:3|0:0|0:0,0:0:0:0:
200,48,93377,1,8,0:0:0:0:
444,120,93711,1,0,0:0:0:0:
420,364,94044,1,0,0:0:0:0:
256,364,94377,6,0,P|244:328|256:288,1,80,4|0,0:0|0:0,0:0:0:0:
134,313,94711,2,0,P|151:279|188:259,1,80,4|0,0:0|0:0,0:0:0:0:
84,192,95044,2,0,P|120:180|160:192,1,80,4|0,0:0|0:0,0:0:0:0:
134,70,95377,2,0,P|168:87|188:124,1,80,12|0,0:0|0:0,0:0:0:0:
256,20,95711,2,0,P|268:56|256:96,1,80,4|0,0:0|0:0,0:0:0:0:
377,70,96044,2,0,P|360:104|323:124,1,80,4|0,0:0|0:0,0:0:0:0:
428,192,96377,2,0,P|360:220|272:228,1,160,4|0,0:0|0:0,0:0:0:0:
216,312,96877,1,8,0:0:0:0:
308,328,97044,1,8,0:3:0:0:
400,320,97211,1,4,0:3:0:0:
484,280,97377,69,12,0:0:0:0:
256,96,97711,1,4,0:3:0:0:
28,280,98044,1,4,0:3:0:0:
120,176,98211,1,0,0:0:0:0:
120,176,98294,1,0,0:0:0:0:
120,176,98377,22,0,P|192:216|284:228,1,160,6|2,0:0|0:0,0:0:0:0:
364,188,98877,1,0,0:0:0:0:
268,229,99044,2,0,P|260:185|268:145,1,80,2|0,0:0|0:0,0:0:0:0:
228,72,99377,2,0,P|160:32|76:32,2,160,8|0|0,0:0|0:0|0:0,0:0:0:0:
120,176,100377,2,0,P|112:248|60:320,1,160
164,332,100877,1,0,0:0:0:0:
260,324,101044,2,0,B|284:316|304:300|304:300|344:292,1,80
424,300,101377,1,10,0:0:0:0:
400,68,101711,1,2,0:0:0:0:
364,184,101877,1,8,0:0:0:0:
332,292,102044,1,4,0:3:0:0:
308,68,102377,6,0,P|228:80|160:120,1,160,6|2,0:0|0:0,0:0:0:0:
64,120,102877,1,0,0:0:0:0:
112,204,103044,2,0,P|116:244|108:284,1,80,2|0,0:0|0:0,0:0:0:0:
184,340,103377,2,0,B|232:352|288:332|288:332|356:332,2,160,8|0|0,0:0|0:0|0:0,0:0:0:0:
256,56,104377,2,0,P|264:120|316:208,1,160
384,152,104877,1,0,0:0:0:0:
464,88,105044,2,0,P|480:128|484:168,1,80
424,248,105377,2,0,P|396:276|360:296,1,80,10|0,0:0|0:0,0:0:0:0:
284,252,105711,2,0,P|244:244|204:252,1,80,2|8,0:0|0:0,0:0:0:0:
132,300,106044,2,0,P|97:280|68:252,1,80,6|0,0:3|0:0,0:0:0:0:
144,136,106377,54,0,P|208:100|244:16,1,160,6|2,0:0|0:0,0:0:0:0:
336,36,106877,1,0,0:0:0:0:
428,72,107044,2,0,P|460:100|480:132,1,80,2|0,0:0|0:0,0:0:0:0:
460,224,107377,2,0,B|448:304|448:304|400:368,2,160,8|0|0,0:0|0:0|0:0,0:0:0:0:
308,184,108377,2,0,B|224:200|224:200|150:189,1,160
56,176,108877,1,8,0:0:0:0:
104,276,109044,2,0,L|196:288,1,80,4|0,0:3|0:0,0:0:0:0:
150,189,109377,2,0,P|162:121|206:33,2,160,10|2|2,0:0|0:0|0:0,0:0:0:0:
492,344,110377,6,2,P|480:260|504:180,1,160,4|2,0:0|0:0,0:0:0:0:
456,92,110877,1,0,0:0:0:0:
392,172,111044,2,0,P|392:212|380:252,1,80,2|0,0:0|0:0,0:0:0:0:
392,344,111377,2,0,P|316:320|284:248,2,160,8|0|0,0:0|0:0|0:0,0:0:0:0:
88,68,112377,1,0,0:0:0:0:
324,92,112711,2,0,L|404:100,1,80
404,248,113044,2,0,L|320:240,1,80,8|4,0:0|0:3,0:0:0:0:
224,168,113377,101,10,0:0:0:0:
88,296,113711,1,2,0:0:0:0:
200,336,113877,1,8,0:3:0:0:
316,320,114044,1,6,0:3:0:0:
404,248,114211,1,0,0:0:0:0:
404,248,114294,1,0,0:0:0:0:
404,248,114377,6,0,P|448:184|456:104,1,160,4|2,0:0|0:0,0:0:0:0:
392,32,114877,1,0,0:0:0:0:
304,72,115044,2,0,B|264:80|264:80|224:72,1,80,2|0,0:0|0:0,0:0:0:0:
184,152,115377,2,0,B|264:168|264:168|344:152,2,160,8|0|0,0:0|0:0|0:0,0:0:0:0:
340,324,116377,2,0,B|264:340|264:340|184:324,1,160
96,296,116877,1,8,0:0:0:0:
184,324,117044,1,4,0:3:0:0:
184,324,117377,1,2,0:0:0:0:
184,60,117711,1,2,0:0:0:0:
412,192,118044,1,2,0:0:0:0:
72,192,118377,6,0,L|232:192,1,160,4|2,0:0|0:0,0:0:0:0:
320,128,118877,1,0,0:0:0:0:
324,252,119044,2,0,P|352:280|392:296,1,80,2|0,0:0|0:0,0:0:0:0:
412,192,119377,2,0,P|428:116|392:40,2,160,8|0|0,0:0|0:0|0:0,0:0:0:0:
92,336,120377,2,0,B|136:264|136:264|212:224,1,160
156,144,120877,1,8,0:0:0:0:
180,52,121044,2,0,L|256:88,1,80,4|0,0:3|0:0,0:0:0:0:
328,40,121377,2,0,L|368:116,1,80,10|0,0:0|0:0,0:0:0:0:
448,80,121711,2,0,L|444:164,1,80,2|0,0:0|0:0,0:0:0:0:
464,240,122044,2,0,L|416:304,1,80,2|0,0:0|0:0,0:0:0:0:
336,264,122377,6,0,P|272:300|184:304,1,160,4|2,0:0|0:0,0:0:0:0:
180,216,122877,2,0,P|164:176|136:144,2,80,0|2|0,0:0|0:0|0:0,0:0:0:0:
80,224,123377,1,8,0:0:0:0:
252,132,123711,1,0,0:0:0:0:
448,144,124044,1,0,0:0:0:0:
252,132,124377,2,0,P|312:80|400:64,1,160
448,144,124877,1,8,0:0:0:0:
416,236,125044,2,0,P|404:276|408:316,2,80,4|0|2,0:3|0:0|0:0,0:0:0:0:
304,36,125711,1,2,0:0:0:0:
152,232,126044,1,4,0:3:0:0:
300,311,126377,6,0,P|320:235|304:157,1,160,4|2,0:0|0:0,0:0:0:0:
216,108,126877,1,0,0:0:0:0:
304,157,127044,1,2,0:0:0:0:
216,108,127211,1,0,0:0:0:0:
112,144,127377,1,8,0:0:0:0:
72,332,127711,2,0,L|156:344,1,80
332,276,128044,2,0,L|248:264,1,80
160,256,128377,2,0,P|200:188|288:180,1,160
380,188,128877,1,8,0:0:0:0:
252,32,129044,1,8,0:0:0:0:
352,76,129211,1,8,0:0:0:0:
152,56,129377,1,8,0:0:0:0:
152,56,129711,5,8,0:0:0:0:
152,56,130044,1,8,0:0:0:0:
152,56,130377,1,8,0:0:0:0:
363,338,130711,5,8,0:3:0:0:
249,181,130877,1,8,0:3:0:0:
434,241,131044,1,8,0:3:0:0:
249,301,131211,1,8,0:3:0:0:
364,144,131377,1,8,0:3:0:0:
364,144,131711,2,0,L|300:92,1,80,8|0,0:0|0:0,0:0:0:0:
80,60,132377,5,4,0:0:0:0:
256,192,132461,12,4,134377,0:0:0:0:
256,192,156377,12,4,159377,0:0:0:0:
256,72,159711,5,0,0:0:0:0:
256,352,160044,1,0,0:0:0:0:
256,0,160377,5,4,0:0:0:0:
72,240,160711,1,4,0:0:0:0:
436,240,161044,1,4,0:0:0:0:
256,192,161377,101,0,0:0:0:0:
256,200,161738,1,0,0:0:0:0:
256,208,162071,1,0,0:0:0:0:
256,216,162405,6,0,L|256:296,1,80,2|0,0:0|0:0,0:0:0:0:
164,248,163071,1,0,0:0:0:0:
344,248,163405,1,0,0:0:0:0:
256,124,163738,1,0,0:0:0:0:
140,264,164071,1,0,0:0:0:0:
368,264,164405,1,0,0:0:0:0:
256,192,165405,102,0,L|176:192,2,80
400,192,166405,1,2,0:0:0:0:
332,72,166738,1,0,0:0:0:0:
332,300,167071,1,0,0:0:0:0:
256,192,167405,2,0,L|176:192,1,80
96,192,168071,1,0,0:0:0:0:
256,192,168405,1,0,0:0:0:0:
256,340,169405,5,0,0:0:0:0:
176,192,169738,1,0,0:0:0:0:
256,44,170071,1,0,0:0:0:0:
336,192,170377,2,0,L|420:192,2,80,2|0|0,0:0|0:0|0:0,0:0:0:0:
328,292,171377,2,0,P|256:324|184:288,1,160
164,192,172377,1,0,0:0:0:0:
164,192,173377,101,0,0:0:0:0:
264,88,173710,1,0,0:0:0:0:
360,192,174043,1,0,0:0:0:0:
264,292,174377,2,0,P|228:316|184:328,1,80,2|0,0:0|0:0,0:0:0:0:
80,276,175043,1,0,0:0:0:0:
120,156,175377,2,0,P|156:132|200:120,1,80
296,172,176043,1,0,0:0:0:0:
80,276,176377,1,0,0:0:0:0:
296,172,177377,101,0,0:0:0:0:
416,48,177710,1,0,0:0:0:0:
476,208,178043,1,0,0:0:0:0:
360,344,178368,6,0,B|300:344|300:344|244:324,1,120.000004577637,4|0,0:0|0:0,0:0:0:0:
176,284,178868,1,0,0:0:0:0:
96,312,179034,2,0,L|80:252,1,60.0000022888184
152,192,179368,2,0,P|188:148|200:80,2,120.000004577637
312,200,180368,2,0,P|384:184|492:236,1,180.000006866455
432,296,181034,1,0,0:0:0:0:
268,344,181368,2,0,P|208:312|176:268,2,120.000004577637,8|0|0,0:0|0:0|0:0,0:0:0:0:
436,104,182368,102,0,B|384:72|384:72|325:64,1,120.000004577637,2|0,0:0|0:0,0:0:0:0:
248,56,182868,1,0,0:0:0:0:
326,64,183034,2,0,L|310:124,1,60.0000022888184
252,184,183368,2,0,P|196:200|132:184,2,120.000004577637,8|0|0,0:0|0:0|0:0,0:0:0:0:
336,316,184356,2,0,P|392:300|456:316,2,120.000004577637
252,184,185356,1,8,0:0:0:0:
180,316,185689,1,0,0:0:0:0:
336,316,186022,1,0,0:0:0:0:
348,48,186356,6,0,P|396:64|444:120,1,120.000004577637,4|0,0:0|0:0,0:0:0:0:
460,192,186856,1,0,0:0:0:0:
376,172,187022,2,0,L|376:232,1,60.0000022888184
292,272,187356,2,0,L|292:152,2,120.000004577637,8|0|0,0:0|0:0|0:0,0:0:0:0:
208,316,188356,2,0,L|208:128,1,180.000006866455
120,120,189022,1,0,0:0:0:0:
68,336,189356,2,0,B|94:282|94:282|94:222,2,120.000004577637,8|0|0,0:0|0:0|0:0,0:0:0:0:
120,120,190356,102,0,P|144:96|176:88,1,60.0000022888184,4|0,0:0|0:0,0:0:0:0:
200,188,190689,2,0,P|232:179|264:188,1,60.0000022888184,4|0,0:0|0:0,0:0:0:0:
236,284,191022,2,0,P|268:292|291:316,1,60.0000022888184,4|0,0:0|0:0,0:0:0:0:
464,236,191356,2,0,P|440:260|408:268,1,60.0000022888184,4|0,0:0|0:0,0:0:0:0:
384,168,191689,2,0,P|351:176|319:167,1,60.0000022888184,4|0,0:0|0:0,0:0:0:0:
348,72,192022,2,0,P|315:63|292:39,1,60.0000022888184,4|0,0:0|0:0,0:0:0:0:
478,98,192356,2,0,P|437:142|384:168,2,120.000004577637,4|0|0,0:0|0:0|0:0,0:0:0:0:
224,168,193356,5,2,0:0:0:0:
384,240,193689,1,2,0:0:0:0:
476,96,194022,1,2,0:0:0:0:
472,316,194377,102,0,P|408:356|320:360,1,160,4|0,0:0|0:0,0:0:0:0:
232,300,194877,1,0,0:0:0:0:
156,212,195043,2,0,P|188:188|232:184,1,80
232,72,195377,2,0,P|152:80|84:124,2,160,12|0|0,0:0|0:0|0:0,0:0:0:0:
440,312,196377,2,0,B|440:232|440:232|468:156,1,160
416,72,196877,1,8,0:0:0:0:
324,128,197043,2,0,L|292:204,1,80,4|0,0:3|0:0,0:0:0:0:
240,300,197377,2,0,P|220:256|216:216,1,80,12|0,0:0|0:0,0:0:0:0:
140,92,197710,2,0,P|144:132|136:176,1,80
48,308,198043,2,0,P|56:264|52:228,1,80
140,92,198377,6,0,P|212:56|296:52,1,160,4|0,0:0|0:0,0:0:0:0:
400,80,198877,1,0,0:0:0:0:
452,176,199043,2,0,B|464:212|464:212|460:256,1,80
368,352,199377,2,0,B|328:280|328:280|324:200,2,160,12|0|0,0:0|0:0|0:0,0:0:0:0:
216,216,200377,2,0,P|148:180|64:184,1,160
36,276,200877,1,8,0:0:0:0:
36,88,201043,1,4,0:3:0:0:
216,56,201377,101,12,0:0:0:0:
304,104,201543,1,0,0:0:0:0:
408,88,201710,1,0,0:0:0:0:
468,184,201877,1,8,0:3:0:0:
436,284,202043,1,8,0:3:0:0:
260,208,202377,6,0,B|224:268|216:328|216:328|184:344,1,160,4|0,0:0|0:0,0:0:0:0:
84,304,202877,2,0,B|96:280|120:260|120:260|132:232,2,80
24,200,203377,2,0,P|84:136|156:128,2,160,12|0|0,0:0|0:0|0:0,0:0:0:0:
284,136,204377,2,0,P|361:122|412:63,1,160
304,32,204877,1,0,0:0:0:0:
480,176,205043,2,0,L|416:244,1,80
312,256,205377,2,0,B|264:296|196:300|196:300|160:324,2,160,12|0|0,0:0|0:0|0:0,0:0:0:0:
232,112,206377,102,0,B|200:104|200:104|124:52|124:52|88:44,1,160,4|0,0:0|0:0,0:0:0:0:
88,148,206877,1,0,0:0:0:0:
88,148,207043,2,0,L|56:224,2,80,0|0|12,0:0|0:0|0:0,0:0:0:0:
232,112,207710,1,0,0:0:0:0:
368,160,208043,1,0,0:0:0:0:
232,336,208377,6,0,B|212:296|212:296|244:288|244:288|220:252|224:200,1,160,4|0,0:0|0:0,0:0:0:0:
232,112,208876,1,8,0:0:0:0:
312,172,209043,1,4,0:3:0:0:
140,152,209210,1,0,0:0:0:0:
76,236,209376,101,12,0:0:0:0:
76,236,209460,1,0,0:0:0:0:
76,236,209543,1,0,0:0:0:0:
232,336,209710,1,8,0:0:0:0:
232,336,209793,1,0,0:0:0:0:
232,336,209876,1,0,0:0:0:0:
420,280,210043,1,8,0:0:0:0:
420,280,210126,1,0,0:0:0:0:
420,280,210210,1,0,0:0:0:0:
440,112,210376,6,0,P|360:124|288:176,1,160,4|0,0:0|0:0,0:0:0:0:
372,224,210876,1,0,0:0:0:0:
216,124,211043,2,0,P|176:108|140:108,1,80
156,212,211376,1,12,0:0:0:0:
264,248,211543,1,0,0:0:0:0:
152,248,211710,1,0,0:0:0:0:
260,312,211876,1,0,0:0:0:0:
148,288,212043,1,0,0:0:0:0:
256,376,212210,1,0,0:0:0:0:
144,324,212376,102,0,P|72:308|24:240,1,160
72,152,212876,1,8,0:0:0:0:
168,132,213043,2,0,L|248:128,1,80,4|0,0:3|0:0,0:0:0:0:
400,24,213376,2,0,L|240:32,1,160,12|0,0:0|0:0,0:0:0:0:
248,128,213876,1,8,0:0:0:0:
248,128,214043,1,4,0:3:0:0:
396,360,214376,6,0,P|428:288|432:208,1,160,4|0,0:0|0:0,0:0:0:0:
336,204,214876,1,0,0:0:0:0:
140,184,215043,2,0,P|148:145|167:110,1,80
352,108,215376,2,0,P|280:124|236:196,2,160,12|0|0,0:0|0:0|0:0,0:0:0:0:
216,332,216376,2,0,P|156:328|72:268,1,160
136,196,216876,2,0,P|136:152|128:116,1,80,8|4,0:0|0:3,0:0:0:0:
48,64,217210,1,0,0:0:0:0:
192,52,217376,101,4,0:0:0:0:
400,64,217710,1,0,0:0:0:0:
472,140,217876,1,8,0:0:0:0:
416,224,218043,1,4,0:3:0:0:
427,364,218376,6,0,P|348:359|277:324,1,160,4|0,0:0|0:0,0:0:0:0:
208,240,218876,1,0,0:0:0:0:
277,324,219043,2,0,P|305:288|313:248,1,80
276,152,219376,2,0,L|200:124,1,80,12|0,0:0|0:0,0:0:0:0:
120,16,219710,2,0,L|128:100,1,80
72,224,220043,2,0,L|140:172,1,80
268,52,220376,102,0,P|352:32|424:56,1,160
424,220,220876,1,8,0:0:0:0:
504,100,221043,2,0,L|504:180,1,80,4|0,0:3|0:0,0:0:0:0:
428,320,221376,2,0,P|355:295|324:224,2,160,12|0|0,0:0|0:0|0:0,0:0:0:0:
240,180,222376,6,0,B|192:160|192:160|140:184|80:176,1,160,4|0,0:0|0:0,0:0:0:0:
40,272,222876,1,0,0:0:0:0:
144,268,223043,1,0,0:0:0:0:
144,268,223376,1,12,0:0:0:0:
336,328,223543,1,0,0:0:0:0:
232,324,223710,1,0,0:0:0:0:
428,280,223876,1,8,0:0:0:0:
344,216,224043,1,4,0:3:0:0:
344,216,224376,101,4,0:0:0:0:
300,40,224716,2,0,L|256:8,2,53.3333333333333,8|8|8,0:0|0:0|0:0,0:0:0:0:
232,80,225049,2,0,L|176:60,2,53.3333333333333,8|8|8,0:0|0:0|0:0,0:0:0:0:
180,140,225383,2,0,L|116:140,2,53.3333333333333,8|8|8,0:3|0:3|0:3,0:0:0:0:
148,212,225716,2,0,L|92:228,2,53.3333333333333,8|8|8,0:3|0:3|0:3,0:0:0:0:
136,292,226049,2,0,L|112:340,2,53.3333333333333,4|4|4,0:3|0:3|0:3,0:0:0:0:
192,340,226383,6,0,P|292:348|392:308,1,191.999994140625,4|0,0:0|0:0,0:0:0:0:
336,204,226883,1,0,0:0:0:0:
444,224,227049,2,0,P|468:184|472:128,1,95.9999970703126
416,56,227383,2,0,B|360:20|296:36|296:36|224:24,2,191.999994140625,12|0|0,0:0|0:0|0:0,0:0:0:0:
144,192,228383,2,0,P|136:284|64:356,1,191.999994140625,4|0,0:0|0:0,0:0:0:0:
32,248,228883,2,0,P|20:204|28:152,2,95.9999970703126,8|4|0,0:0|0:3|0:0,0:0:0:0:
144,192,229383,1,12,0:0:0:0:
467,229,229716,5,0,0:0:0:0:
290,171,229883,1,8,0:0:0:0:
400,322,230049,1,4,0:3:0:0:
400,136,230216,1,0,0:0:0:0:
290,287,230383,6,0,P|208:252|176:156,1,191.999994140625,4|0,0:0|0:0,0:0:0:0:
164,20,230883,1,0,0:0:0:0:
240,80,231049,2,0,B|272:72|272:72|296:56|328:44,1,95.9999970703126
96,100,231383,2,0,P|48:180|48:280,1,191.999994140625,12|0,0:0|0:0,0:0:0:0:
140,328,231883,1,8,0:0:0:0:
248,328,232049,1,4,0:3:0:0:
448,76,232383,102,0,P|436:168|360:223,1,191.999994140625,4|0,0:0|0:0,0:0:0:0:
344,112,232883,1,8,0:0:0:0:
360,223,233049,1,4,0:3:0:0:
48,64,233383,2,0,P|88:60|148:72,1,95.9999970703126,12|0,0:0|0:0,0:0:0:0:
72,212,233716,1,0,0:0:0:0:
52,300,233883,1,8,0:0:0:0:
224,244,234049,1,4,0:3:0:0:
200,156,234216,1,0,0:0:0:0:
212,328,234383,6,0,P|304:344|408:316,1,191.999994140625,4|0,0:0|0:0,0:0:0:0:
464,132,234883,2,0,P|456:176|460:232,2,95.9999970703126
360,224,235383,2,0,P|364:120|388:36,2,191.999994140625,12|0|0,0:0|0:0|0:0,0:0:0:0:
180,32,236383,2,0,P|88:52|56:140,1,191.999994140625,4|0,0:0|0:0,0:0:0:0:
160,132,236883,1,8,0:0:0:0:
260,131,237049,2,0,P|226:217|136:236,2,191.999994140625,4|4|0,0:3|0:0|0:0,0:0:0:0:
368,136,237883,1,8,0:0:0:0:
460,180,238049,1,4,0:3:0:0:
56,336,238383,102,0,P|144:316|244:340,1,191.999994140625,4|0,0:0|0:0,0:0:0:0:
404,284,238882,1,0,0:0:0:0:
304,248,239049,2,0,P|260:228|212:216,1,95.9999970703126
112,188,239382,1,12,0:0:0:0:
88,56,239549,1,0,0:0:0:0:
120,220,239716,1,0,0:0:0:0:
80,24,239882,1,0,0:0:0:0:
128,256,240049,1,0,0:0:0:0:
304,248,240382,5,12,0:0:0:0:
259,131,240549,1,0,0:0:0:0:
356,53,240716,1,0,0:0:0:0:
461,121,240882,1,8,0:0:0:0:
428,241,241049,1,4,0:3:0:0:
112,309,241382,101,4,0:0:0:0:
240,244,241549,1,0,0:0:0:0:
120,168,241716,1,0,0:0:0:0:
184,60,241882,1,0,0:0:0:0:
248,212,242049,1,8,0:3:0:0:
380,104,242216,1,8,0:3:0:0:
380,104,242299,1,0,0:0:0:0:
380,104,242382,6,0,P|468:136|512:220,1,191.999994140625,4|0,0:0|0:0,0:0:0:0:
380,244,242882,1,0,0:0:0:0:
380,104,243049,1,0,0:0:0:0:
248,212,243216,1,0,0:0:0:0:
252,64,243382,2,0,P|152:72|60:36,2,191.999994140625,12|0|0,0:0|0:0|0:0,0:0:0:0:
39,251,244382,101,4,0:0:0:0:
180,304,244549,1,0,0:0:0:0:
28,336,244716,1,0,0:0:0:0:
192,224,244882,1,0,0:0:0:0:
168,384,245049,1,0,0:0:0:0:
392,236,245382,1,12,0:0:0:0:
384,40,245716,2,0,L|388:136,1,95.9999970703126,0|8,0:0|0:0,0:0:0:0:
392,236,246049,1,4,0:3:0:0:
248,128,246382,6,0,P|256:216|208:312,1,191.999994140625,4|0,0:0|0:0,0:0:0:0:
312,340,246882,1,0,0:0:0:0:
140,244,247049,2,0,P|164:208|160:156,1,95.9999970703126
56,180,247382,2,0,P|76:92|176:52,2,191.999994140625,12|0|0,0:0|0:0|0:0,0:0:0:0:
404,336,248382,2,0,B|396:260|436:208|436:208|432:144,1,191.999994140625,4|0,0:0|0:0,0:0:0:0:
420,24,248882,1,8,0:0:0:0:
433,151,249049,1,4,0:3:0:0:
308,96,249382,102,0,P|272:116|216:120,1,95.9999970703126,12|0,0:0|0:0,0:0:0:0:
100,112,249716,1,0,0:0:0:0:
28,220,249882,1,8,0:0:0:0:
92,324,250049,1,8,0:0:0:0:
208,332,250216,1,4,0:3:0:0:
272,228,250382,6,0,P|364:240|440:304,1,191.999994140625,4|0,0:0|0:0,0:0:0:0:
456,184,250882,1,0,0:0:0:0:
464,72,251049,2,0,B|420:92|420:92|372:96,1,95.9999970703126
248,88,251382,2,0,P|148:80|56:120,2,191.999994140625,12|0|0,0:0|0:0|0:0,0:0:0:0:
84,336,252382,2,0,P|184:344|276:304,1,191.999994140625,4|0,0:0|0:0,0:0:0:0:
360,232,252882,1,8,0:0:0:0:
360,232,253049,1,0,0:0:0:0:
87,194,253382,101,12,0:0:0:0:
134,89,253549,1,0,0:0:0:0:
240,136,253716,1,0,0:0:0:0:
193,241,253882,1,8,0:0:0:0:
87,194,254049,1,4,0:3:0:0:
352,100,254382,6,0,P|436:152|488:228,1,191.999994140625,4|0,0:0|0:0,0:0:0:0:
360,232,254882,1,8,0:0:0:0:
360,232,255049,1,4,0:3:0:0:
160,344,255382,2,0,P|152:288|128:244,1,95.9999970703126,12|0,0:0|0:0,0:0:0:0:
176,68,255716,2,0,P|184:124|208:168,1,95.9999970703126
96,160,256049,1,0,0:0:0:0:
384,84,256382,102,0,B|344:112|344:112|316:156,1,95.9999970703126,4|0,0:0|0:0,0:0:0:0:
216,216,256716,2,0,B|260:236|260:236|312:238,1,95.9999970703126,0|8,0:0|0:0,0:0:0:0:
396,208,257049,1,4,0:3:0:0:
396,208,257382,1,4,0:0:0:0:
256,347,257716,5,4,0:0:0:0:
256,40,258049,1,4,0:0:0:0:
256,192,258382,5,0,0:0:0:0:
256,192,258549,12,0,260382,0:0:0:0:
