osu file format v12

[General]
AudioFilename: chuntianli.mp3
AudioLeadIn: 0
PreviewTime: 97211
Countdown: 0
SampleSet: Soft
StackLeniency: 0.7
Mode: 0
LetterboxInBreaks: 1
WidescreenStoryboard: 0

[Editor]
DistanceSpacing: 0.7
BeatDivisor: 4
GridSize: 4

[Metadata]
Title:Chun Tian Li
TitleUnicode:春天里
Artist:Wang Feng
ArtistUnicode:汪峰
Creator:615915887
Version:Hard
Source:
Tags:in spring
BeatmapID:338833
BeatmapSetID:135198

[Difficulty]
HPDrainRate:6
CircleSize:4
OverallDifficulty:5
ApproachRate:7
SliderMultiplier:1.4
SliderTickRate:1

[Events]
//Background and Video events
0,0,"beatfycho.jpg",0,0
Video,-4202,"23333301.avi"
//Break Periods
2,134577,157477
//Storyboard Layer 0 (Background)
//Storyboard Layer 1 (Fail)
//Storyboard Layer 2 (Pass)
//Storyboard Layer 3 (Foreground)
//Storyboard Sound Samples
//Background Colour Transformations
3,100,163,162,255

[TimingPoints]
393,333.333333333333,3,2,1,30,1,0
393,-133.333333333333,3,2,1,30,0,0
24378,333.333333333333,3,2,1,30,1,0
24378,-133.333333333333,3,2,1,30,0,0
33396,333.333333333333,3,2,1,45,1,0
33396,-133.333333333333,3,2,1,45,0,0
37391,333.333333333333,3,2,1,45,1,0
37391,-133.333333333333,3,2,1,45,0,0
41386,333.333333333333,3,2,1,45,1,0
41386,-133.333333333333,3,2,1,45,0,0
45383,333.333333333333,3,2,1,45,1,0
45383,-133.333333333333,3,2,1,45,0,0
49049,-133.333333333333,3,2,1,45,0,0
49382,-133.333333333333,3,2,1,45,0,0
63382,-100,3,2,1,30,0,0
65382,-100,3,2,1,45,0,0
66382,-100,3,2,1,60,0,0
71382,327.868852459016,3,2,1,60,1,0
72365,333.333333333333,3,2,1,60,1,0
74367,333.333333333333,3,2,1,60,1,0
81367,327.868852459016,3,2,1,60,1,0
82350,342.857142857143,3,2,1,60,1,0
82350,-100,3,2,1,65,0,0
83378,333.333333333333,3,2,1,65,1,0
98377,-100,3,2,1,80,0,1
114044,-100,3,2,1,80,0,0
114377,-100,3,2,1,80,0,1
130377,-100,3,2,1,70,0,0
161405,333.333333333333,3,2,1,40,1,0
161405,-100,3,2,1,40,0,0
162405,-133.333333333333,3,2,1,50,0,0
170377,333.333333333333,3,2,1,50,1,0
170377,-133.333333333333,3,2,1,50,0,0
178368,333.333333333333,3,2,1,70,1,0
178368,-133.333333333333,3,2,1,70,0,0
184356,333.333333333333,3,2,1,70,1,0
185356,-133.333333333333,3,2,1,70,0,0
194377,333.333333333333,3,2,1,70,1,0
194377,-100,3,2,1,80,0,1
210043,-100,3,2,1,80,0,0
210376,-100,3,2,1,80,0,1
224383,333.333333333333,3,2,1,80,1,1
225383,-100,3,2,1,80,0,0
226383,-100,3,2,1,80,0,1
242049,-100,3,2,1,80,0,0
242382,-100,3,2,1,80,0,1
258382,-100,3,2,1,80,0,0
258549,-100,3,2,1,30,0,0
260382,-100,3,2,1,5,0,0

[Colours]
Combo1 : 204,254,99
Combo2 : 253,226,134
Combo3 : 192,192,192

[HitObjects]
112,176,393,85,0,0:0:0:0:
160,244,726,1,0,0:0:0:0:
244,248,1059,1,0,0:0:0:0:
328,236,1392,2,0,P|304:188|256:164,1,105.000004005432,2|0,0:0|0:0,0:0:0:0:
188,124,2059,1,0,0:0:0:0:
260,80,2392,2,0,P|304:72|348:32,1,105.000004005432,2|0,0:0|0:0,0:0:0:0:
428,56,3059,1,0,0:0:0:0:
488,116,3392,1,0,0:0:0:0:
308,292,4392,102,0,P|260:268|208:284,2,105.000004005432
252,356,5392,2,0,P|200:364|152:340,1,105.000004005432,2|0,0:0|0:0,0:0:0:0:
128,260,6059,1,0,0:0:0:0:
108,180,6392,2,0,B|96:128|96:128|48:92,2,105.000004005432,2|0|0,0:0|0:0|0:0,0:0:0:0:
128,260,7392,1,0,0:0:0:0:
348,140,8392,6,0,P|397:125|432:87,2,105.000004005432
356,56,9392,2,0,P|392:16|448:8,1,105.000004005432,2|0,0:0|0:0,0:0:0:0:
508,56,10059,1,0,0:0:0:0:
504,140,10392,2,0,B|484:208|484:208|504:292|424:324,1,210.000008010865,2|0,0:0|0:0,0:0:0:0:
404,240,11392,1,0,0:0:0:0:
404,240,12392,101,0,0:0:0:0:
336,292,12726,1,0,0:0:0:0:
256,324,13059,2,0,L|200:328,1,52.5000020027161
168,352,13392,2,0,P|160:304|116:264,2,105.000004005432,2|0|0,0:0|0:0|0:0,0:0:0:0:
84,340,14392,2,0,P|48:304|40:248,1,105.000004005432,2|0,0:0|0:0,0:0:0:0:
48,168,15059,1,0,0:0:0:0:
68,88,15392,1,0,0:0:0:0:
320,100,16392,5,0,0:0:0:0:
352,176,16726,1,0,0:0:0:0:
404,112,17059,1,0,0:0:0:0:
320,100,17392,2,0,P|284:132|272:188,1,105.000004005432,2|0,0:0|0:0,0:0:0:0:
320,252,18059,1,0,0:0:0:0:
404,244,18392,2,0,P|448:260|480:316,2,105.000004005432,2|0|0,0:0|0:0|0:0,0:0:0:0:
400,328,19392,1,2,0:0:0:0:
148,340,20392,101,2,0:0:0:0:
200,276,20726,1,0,0:0:0:0:
192,192,21059,1,0,0:0:0:0:
156,116,21392,2,0,P|120:80|60:72,1,105.000004005432,2|0,0:0|0:0,0:0:0:0:
80,156,22059,1,0,0:0:0:0:
244,120,22392,2,0,P|292:140|344:128,1,105.000004005432,2|0,0:0|0:0,0:0:0:0:
300,56,23059,1,0,0:0:0:0:
244,120,23392,1,2,0:0:0:0:
84,316,24378,5,2,0:0:0:0:
164,340,24711,1,0,0:0:0:0:
248,324,25044,1,0,0:0:0:0:
308,264,25378,2,0,P|328:216|324:156,2,105.000004005432,2|0|0,0:0|0:0|0:0,0:0:0:0:
332,344,26377,2,0,P|382:334|415:294,1,105.000004005432,2|0,0:0|0:0,0:0:0:0:
444,216,27044,1,0,0:0:0:0:
415,294,27377,1,2,0:0:0:0:
400,44,28377,102,0,B|352:64|352:64|328:116,2,105.000004005432,2|0|0,0:0|0:0|0:0,0:0:0:0:
268,40,29377,1,2,0:0:0:0:
184,44,29711,1,0,0:0:0:0:
124,104,30044,1,0,0:0:0:0:
116,188,30377,1,2,0:0:0:0:
152,264,30711,1,0,0:0:0:0:
200,196,31044,1,0,0:0:0:0:
116,188,31377,1,2,0:0:0:0:
336,312,32377,5,2,0:0:0:0:
380,240,32711,1,2,0:0:0:0:
420,312,33044,1,2,0:0:0:0:
296,236,33396,6,0,P|320:180|420:168,1,157.500006008148,4|0,0:0|0:0,0:0:0:0:
448,144,34062,2,0,P|452:116|436:80,1,52.5000020027161,2|0,0:0|0:0,0:0:0:0:
412,68,34396,1,0,0:0:0:0:
328,56,34729,1,0,0:0:0:0:
248,84,35062,1,0,0:0:0:0:
176,32,35396,2,0,B|152:68|164:112|164:112|96:144,1,157.500006008148,2|0,0:0|0:0,0:0:0:0:
60,164,36062,2,0,L|68:216,1,52.5000020027161
80,256,36396,2,0,P|104:304|152:328,2,105.000004005432,2|2|2,0:0|0:0|0:0,0:0:0:0:
164,244,37391,102,0,P|224:284|228:368,1,157.500006008148,2|0,0:0|0:0,0:0:0:0:
272,376,38057,2,0,P|320:348|376:364,1,105.000004005432,2|0,0:0|0:0,0:0:0:0:
448,332,38724,2,0,P|412:284|368:272,1,105.000004005432
380,188,39391,2,0,P|416:152|420:48,1,157.500006008148,2|0,0:0|0:0,0:0:0:0:
392,20,40057,1,0,0:0:0:0:
344,88,40391,2,0,P|308:52|304:-4,2,105.000004005432,2|2|2,0:0|0:0|0:0,0:0:0:0:
232,64,41386,6,0,P|156:76|76:40,1,157.500006008148,4|0,0:0|0:0,0:0:0:0:
48,24,42052,1,2,0:0:0:0:
32,108,42386,2,0,P|32:160|0:204,2,105.000004005432
108,144,43386,2,0,P|96:200|24:276,1,157.500006008148,2|0,0:0|0:0,0:0:0:0:
12,312,44052,1,0,0:0:0:0:
88,344,44386,2,0,P|136:368|188:368,1,105.000004005432,2|2,0:0|0:0,0:0:0:0:
272,360,45052,1,2,0:0:0:0:
340,308,45383,102,0,P|400:268|476:292,1,157.500006008148,2|0,0:0|0:0,0:0:0:0:
508,264,46049,2,0,P|504:212|480:160,1,105.000004005432,2|0,0:0|0:0,0:0:0:0:
424,104,46716,1,0,0:0:0:0:
388,28,47049,1,0,0:0:0:0:
424,104,47383,2,0,P|352:104|304:40,1,157.500006008148,2|0,0:0|0:0,0:0:0:0:
264,24,48049,1,0,0:0:0:0:
184,52,48383,2,0,L|80:88,2,105.000004005432,2|2|2,0:0|0:0|0:0,0:0:0:0:
192,136,49382,6,0,P|128:180|104:264,1,157.500006008148,4|0,0:0|0:0,0:0:0:0:
132,284,50049,2,0,P|172:324|180:372,1,105.000004005432,2|0,0:0|0:0,0:0:0:0:
96,360,50716,1,0,0:0:0:0:
232,276,51049,1,0,0:0:0:0:
352,324,51382,2,0,P|432:332|488:280,1,157.500006008148,2|0,0:0|0:0,0:0:0:0:
504,244,52049,1,0,0:0:0:0:
476,164,52382,2,0,B|432:176|420:232|420:232|408:240,2,105.000004005432,2|2|2,0:0|0:0|0:0,0:0:0:0:
460,80,53382,102,0,P|416:56|308:44,1,157.500006008148,2|0,0:0|0:0,0:0:0:0:
272,56,54049,2,0,P|248:104|204:128,1,105.000004005432,2|0,0:0|0:0,0:0:0:0:
188,44,54716,1,0,0:0:0:0:
272,56,55049,1,0,0:0:0:0:
324,120,55382,2,0,P|284:168|192:200,1,157.500006008148,2|0,0:0|0:0,0:0:0:0:
156,200,56049,1,0,0:0:0:0:
88,248,56382,1,2,0:0:0:0:
104,332,56716,1,2,0:0:0:0:
168,280,57049,1,2,0:0:0:0:
180,364,57382,6,0,P|236:328|240:240,1,157.500006008148,4|0,0:0|0:0,0:0:0:0:
240,200,58049,2,0,P|280:172|344:176,3,105.000004005432,2|0|0|0,0:0|0:0|0:0|0:0,0:0:0:0:
388,240,59382,2,0,P|424:272|408:376,1,157.500006008148,2|0,0:0|0:0,0:0:0:0:
368,372,60049,1,0,0:0:0:0:
368,372,60382,1,2,0:0:0:0:
420,308,60716,1,2,0:0:0:0:
492,268,61049,1,2,0:0:0:0:
256,192,61382,12,0,63382,0:0:0:0:
104,280,65382,85,2,0:0:0:0:
136,188,65716,1,2,0:0:0:0:
196,264,66049,1,2,0:0:0:0:
284,308,66382,102,0,P|292:240|252:180,1,140,4|0,0:0|0:0,0:0:0:0:
280,140,66882,2,0,L|352:144,1,70
432,196,67382,2,0,P|448:264|440:332,2,140,2|0|0,0:3|0:0|0:0,0:0:0:0:
432,96,68382,1,0,0:0:0:0:
352,40,68716,1,0,0:0:0:0:
256,40,69049,1,0,0:0:0:0:
184,104,69382,2,0,P|140:168|68:176,1,140,8|0,0:0|0:0,0:0:0:0:
92,84,70049,1,0,0:0:0:0:
92,84,70382,6,0,P|132:152|148:224,1,140,2|0,0:0|0:0,0:0:0:0:
108,240,70882,2,0,B|132:264|132:264|156:296,1,70
248,320,71382,2,0,P|292:304|320:216,2,140,2|0|0,0:3|0:0|0:0,0:0:0:0:
232,224,72365,2,0,P|256:156|324:128,1,140
412,132,73031,1,0,0:0:0:0:
460,220,73365,2,0,P|476:280|444:360,2,140,8|0|0,0:0|0:0|0:0,0:0:0:0:
508,132,74367,102,0,P|480:68|412:40,1,140,2|0,0:0|0:0,0:0:0:0:
372,44,74867,2,0,L|296:52,1,70
332,144,75367,2,0,P|260:140|212:92,1,140,2|0,0:3|0:0,0:0:0:0:
144,24,76033,1,0,0:0:0:0:
124,120,76367,2,0,P|176:192|288:240,1,210
332,244,77033,1,0,0:0:0:0:
332,244,77367,1,8,0:0:0:0:
424,208,77700,1,0,0:0:0:0:
408,304,78033,2,0,P|388:324|348:340,1,70
300,340,78367,6,0,B|236:332|184:348|184:348|160:340,1,140,2|0,0:0|0:0,0:0:0:0:
116,324,78867,1,0,0:0:0:0:
76,296,79033,1,0,0:0:0:0:
32,208,79367,2,0,P|92:196|152:240,1,140,2|0,0:3|0:3,0:3:0:0:
196,264,79867,2,0,L|216:196,1,70
300,148,80367,2,0,P|244:100|176:104,2,140
392,180,81367,1,8,0:0:0:0:
440,96,81694,2,0,P|468:120|488:160,1,70,8|4,0:0|0:3,0:0:0:0:
488,196,82022,1,8,0:3:0:0:
468,292,82350,102,0,P|416:344|348:348,2,140,4|0|0,0:0|0:0|0:0,0:0:0:0:
376,252,83378,2,0,P|296:264|256:320,1,140,8|0,0:0|0:0,0:0:0:0:
232,348,83878,2,0,P|200:356|160:352,1,70,0|4,0:0|0:3,0:0:0:0:
64,348,84378,2,0,B|68:296|116:264|116:264|116:224,2,140,4|0|0,0:3|0:0|0:0,0:0:0:0:
0,276,85378,1,8,0:0:0:0:
28,184,85711,1,0,0:0:0:0:
108,128,86044,1,0,0:0:0:0:
204,112,86378,6,0,P|268:116|348:84,2,140,2|0|0,0:0|0:0|0:0,0:0:0:0:
172,204,87378,2,0,P|216:256|232:328,1,140,8|0,0:0|0:0,0:0:0:0:
316,368,88044,1,0,0:0:0:0:
412,348,88378,2,0,P|472:328|504:260,2,140
416,248,89378,1,8,0:0:0:0:
440,152,89711,1,0,0:0:0:0:
508,84,90044,1,0,0:0:0:0:
440,152,90378,102,0,B|408:112|408:76|408:76|348:68,2,140,2|0|0,0:0|0:0|0:0,0:0:0:0:
356,200,91377,2,0,P|304:148|232:144,2,140,8|0|0,0:0|0:0|0:0,0:0:0:0:
264,240,92377,1,0,0:0:0:0:
176,288,92711,1,0,0:0:0:0:
84,248,93044,1,0,0:0:0:0:
68,152,93377,6,0,P|84:92|136:32,2,140,8|0|0,0:0|0:0|0:0,0:0:0:0:
156,108,94377,2,0,L|224:92,1,70,4|0,0:0|0:0,0:0:0:0:
272,96,94711,2,0,L|340:120,1,70,0|0,0:0|0:0,0:0:0:0:
376,152,95044,2,0,L|396:228,1,70,0|0,0:0|0:0,0:0:0:0:
392,268,95377,2,0,L|376:336,1,70,12|0,0:0|0:0,0:0:0:0:
328,352,95711,2,0,L|252:364,1,70,0|0,0:0|0:0,0:0:0:0:
212,356,96044,2,0,L|140:320,1,70,0|0,0:0|0:0,0:0:0:0:
120,284,96377,2,0,P|92:228|128:140,2,140,4|10|2,0:0|0:0|0:0,0:0:0:0:
192,216,97377,69,8,0:0:0:0:
232,128,97711,1,8,0:3:0:0:
172,52,98044,1,4,0:3:0:0:
268,36,98377,22,0,P|320:80|328:148,1,140,4|0,0:0|0:0,0:0:0:0:
296,188,98877,2,0,L|364:200,1,70
408,288,99377,2,0,B|376:296|348:292|348:292|264:276,2,140,8|0|0,0:0|0:0|0:0,0:0:0:0:
452,200,100377,2,0,P|414:97|328:48,1,210
284,48,101044,1,0,0:0:0:0:
188,68,101377,2,0,P|140:120|60:128,1,140,8|0,0:0|0:0,0:0:0:0:
76,84,101877,1,8,0:0:0:0:
96,36,102044,1,4,0:3:0:0:
96,36,102377,6,0,P|128:108|128:168,1,140,4|0,0:0|0:0,0:0:0:0:
124,216,102877,1,0,0:0:0:0:
120,264,103044,1,0,0:0:0:0:
152,356,103377,2,0,P|204:316|212:240,2,140,8|0|0,0:0|0:0|0:0,0:0:0:0:
268,380,104377,2,0,B|296:352|304:312|304:312|336:284|376:304|376:304|396:328|424:336,1,210
468,336,105044,1,0,0:0:0:0:
456,236,105377,2,0,P|444:176|384:116,1,140,8|0,0:0|0:0,0:0:0:0:
372,76,105877,2,0,L|332:136,1,70,8|4,0:0|0:3,0:0:0:0:
236,132,106377,102,0,L|312:12,2,140,4|0|0,0:0|0:0|0:0,0:0:0:0:
156,192,107377,2,0,P|136:128|168:64,1,140,8|0,0:0|0:0,0:0:0:0:
72,44,108044,1,0,0:0:0:0:
44,136,108377,2,0,P|58:204|95:263,1,140
95,263,108877,1,8,0:0:0:0:
95,263,109044,1,4,0:3:0:0:
176,324,109377,1,8,0:0:0:0:
268,292,109711,1,0,0:0:0:0:
352,344,110044,1,0,0:0:0:0:
448,336,110377,6,0,B|440:308|440:308|456:248|456:248|448:196,2,140,4|0|0,0:0|0:0|0:0,0:0:0:0:
372,272,111377,2,0,B|380:244|380:244|357:135,1,140,8|0,0:0|0:0,0:0:0:0:
408,52,112044,1,0,0:0:0:0:
357,135,112377,2,0,P|305:87|233:79,1,140
192,76,112877,2,0,P|156:72|124:80,2,70,0|8|4,0:0|0:0|0:3,0:0:0:0:
216,120,113377,1,0,0:0:0:0:
156,196,113711,2,0,L|84:200,2,70,8|8|4,0:3|0:3|0:3,0:0:0:0:
228,260,114377,102,0,P|168:296|96:276,2,140,4|0|0,0:0|0:0|0:0,0:0:0:0:
308,316,115377,2,0,B|336:280|328:232|328:232|348:184,1,140,8|0,0:0|0:0,0:0:0:0:
444,208,116044,1,0,0:0:0:0:
480,116,116377,1,0,0:0:0:0:
384,128,116711,2,0,L|376:56,2,70,0|8|4,0:0|0:0|0:3,0:0:0:0:
288,148,117377,2,0,B|280:80|280:80|276:36|296:0,2,140,8|0|0,0:0|0:0|0:0,0:0:0:0:
228,224,118377,70,0,P|164:248|132:312,1,140,4|0,0:0|0:0,0:0:0:0:
228,324,119044,1,0,0:0:0:0:
228,324,119377,2,0,P|292:300|324:236,2,140,8|0|0,0:0|0:0|0:0,0:0:0:0:
131,307,120377,2,0,P|78:265|68:196,1,140
68,196,120877,1,8,0:0:0:0:
68,196,121044,1,4,0:3:0:0:
12,120,121377,2,0,B|48:64|48:64|124:56,1,140,8|0,0:0|0:0,0:0:0:0:
216,48,122044,1,0,0:0:0:0:
312,76,122377,102,0,P|272:132|196:144,2,140,4|0|0,0:0|0:0|0:0,0:0:0:0:
408,56,123377,2,0,P|392:124|348:180,1,140,8|0,0:0|0:0,0:0:0:0:
408,256,124044,1,0,0:0:0:0:
476,188,124377,2,0,P|500:256|476:324,1,140
444,348,124877,2,0,P|408:356|364:348,1,70,8|4,0:0|0:3,0:0:0:0:
280,336,125377,1,8,0:0:0:0:
184,328,125711,2,0,L|120:292,1,70,0|8,0:0|0:0,0:0:0:0:
100,252,126044,1,4,0:3:0:0:
100,252,126377,54,0,P|136:192|204:168,1,140,4|0,0:0|0:0,0:0:0:0:
296,156,127044,1,0,0:0:0:0:
324,64,127377,2,0,P|380:104|388:172,2,140,8|0|0,0:0|0:0|0:0,0:0:0:0:
228,84,128377,2,0,P|200:152|220:212,1,140
248,252,128877,1,0,0:0:0:0:
284,288,129044,2,0,P|308:312|344:328,2,70,4|8|8,0:3|0:0|0:0,0:0:0:0:
368,236,129711,5,8,0:0:0:0:
408,148,130044,1,8,0:0:0:0:
352,68,130377,1,8,0:0:0:0:
252,64,130711,54,0,P|224:40|192:32,1,70,8|8,0:3|0:3,0:0:0:0:
144,32,131044,1,8,0:3:0:0:
100,52,131211,1,8,0:3:0:0:
68,88,131377,1,4,0:0:0:0:
44,200,131711,2,0,L|116:200,1,70,8|4,0:0|0:3,0:0:0:0:
256,192,132377,12,4,134377,0:0:0:0:
256,192,158377,12,2,161044,0:0:0:0:
256,192,161405,5,0,0:0:0:0:
256,92,161738,1,0,0:0:0:0:
340,144,162071,1,0,0:0:0:0:
340,240,162405,6,0,P|308:280|252:288,1,105.000004005432,2|0,0:0|0:0,0:0:0:0:
168,264,163071,1,0,0:0:0:0:
72,260,163405,2,0,P|88:320|136:352,2,105.000004005432,2|0|0,0:0|0:0|0:0,0:0:0:0:
80,164,164405,1,2,0:0:0:0:
348,76,165405,102,0,P|348:128|376:172,1,105.000004005432,2|0,0:0|0:0,0:0:0:0:
440,104,166071,1,0,0:0:0:0:
440,104,166405,2,0,P|464:160|456:216,1,105.000004005432,2|0,0:0|0:0,0:0:0:0:
400,276,167071,1,0,0:0:0:0:
316,316,167405,2,0,P|272:332|200:324,2,105.000004005432,2|0|0,0:0|0:0|0:0,0:0:0:0:
400,276,168405,1,2,0:0:0:0:
236,44,169405,6,0,P|184:56|152:100,1,105.000004005432,2|0,0:0|0:0,0:0:0:0:
124,184,170071,1,0,0:0:0:0:
200,240,170377,2,0,P|248:264|308:260,2,105.000004005432,2|0|0,0:0|0:0|0:0,0:0:0:0:
112,276,171377,2,0,P|192:332|316:344,1,210.000008010865,2|0,0:0|0:0,0:0:0:0:
392,320,172377,1,2,0:0:0:0:
391,36,173377,102,0,P|383:87|401:135,1,105.000004005432,2|0,0:0|0:0,0:0:0:0:
476,196,174043,1,0,0:0:0:0:
402,136,174377,2,0,P|350:140|306:172,1,105.000004005432,2|0,0:0|0:0,0:0:0:0:
248,244,175043,1,0,0:0:0:0:
196,320,175377,2,0,P|164:360|112:376,2,105.000004005432,2|0|0,0:0|0:0|0:0,0:0:0:0:
112,280,176377,1,2,0:0:0:0:
296,64,177377,101,2,0:0:0:0:
372,120,177710,1,2,0:0:0:0:
288,160,178043,1,2,0:0:0:0:
384,28,178368,6,0,P|436:52|456:148,1,157.500006008148,4|0,0:0|0:0,0:0:0:0:
448,188,179034,1,0,0:0:0:0:
408,272,179368,2,0,P|384:320|388:372,2,105.000004005432,8|0|0,0:0|0:0|0:0,0:0:0:0:
476,336,180368,1,0,0:0:0:0:
476,336,181368,5,8,0:0:0:0:
384,312,181701,1,0,0:0:0:0:
292,332,182034,1,0,0:0:0:0:
200,344,182368,2,0,P|148:348|100:316,1,105.000004005432,4|0,0:0|0:0,0:0:0:0:
104,321,182868,1,0,0:0:0:0:
104,321,183034,1,0,0:0:0:0:
168,252,183368,2,0,P|192:208|184:156,2,105.000004005432,8|0|0,0:0|0:0|0:0,0:0:0:0:
96,188,184356,1,0,0:0:0:0:
332,32,185356,102,0,P|280:40|244:80,2,105.000004005432,8|0|0,0:0|0:0|0:0,0:0:0:0:
324,128,186356,2,0,P|328:180|288:228,1,105.000004005432,4|0,0:0|0:0,0:0:0:0:
344,304,187022,1,0,0:0:0:0:
344,304,187356,1,8,0:0:0:0:
424,252,187689,2,0,P|416:196|440:152,1,105.000004005432
500,84,188356,1,0,0:0:0:0:
216,56,189356,6,0,P|260:80|284:136,1,105.000004005432,8|0,0:0|0:0,0:0:0:0:
280,224,190022,1,0,0:0:0:0:
224,300,190356,2,0,P|196:264|192:200,2,105.000004005432,4|0|0,0:0|0:0|0:0,0:0:0:0:
340,296,191356,2,0,P|368:260|372:196,2,105.000004005432,12|0|0,0:0|0:0|0:0,0:0:0:0:
280,224,192356,1,4,0:0:0:0:
280,224,192689,1,0,0:0:0:0:
280,224,193022,1,0,0:0:0:0:
364,328,193356,101,2,0:0:0:0:
488,304,193689,1,2,0:0:0:0:
408,204,194022,1,2,0:0:0:0:
224,304,194377,6,0,P|176:252|104:224,1,140,4|0,0:0|0:0,0:0:0:0:
96,180,194877,2,0,L|164:192,1,70
244,136,195377,2,0,B|212:108|172:100|172:100|112:88,2,140,8|0|0,0:0|0:0|0:0,0:0:0:0:
168,196,196377,2,0,P|160:268|180:336,1,140
228,336,196877,1,8,0:0:0:0:
228,336,197043,1,4,0:3:0:0:
324,316,197377,2,0,P|372:264|452:256,1,140,8|0,0:0|0:0,0:0:0:0:
416,348,198043,1,0,0:0:0:0:
416,348,198377,102,0,P|384:276|384:216,1,140,4|0,0:0|0:0,0:0:0:0:
392,120,199043,1,0,0:0:0:0:
336,40,199377,2,0,P|296:96|308:168,2,140,8|0|0,0:0|0:0|0:0,0:0:0:0:
243,6,200377,2,0,P|209:67|205:137,1,140
205,136,200877,1,8,0:0:0:0:
205,136,201043,1,4,0:3:0:0:
112,124,201377,2,0,B|108:176|148:212|148:212|128:248,1,140,8|0,0:0|0:0,0:0:0:0:
156,292,201877,2,0,L|196:232,1,70,8|4,0:3|0:3,0:0:0:0:
276,252,202377,6,0,L|200:372,2,140,4|0|0,0:0|0:0|0:0,0:0:0:0:
356,192,203377,2,0,P|376:256|344:320,1,140,8|0,0:0|0:0,0:0:0:0:
440,340,204043,1,0,0:0:0:0:
467,246,204377,2,0,P|452:178|415:119,1,140
415,119,204877,1,0,0:0:0:0:
415,119,205043,1,0,0:0:0:0:
336,60,205377,1,8,0:0:0:0:
244,92,205710,1,0,0:0:0:0:
160,40,206043,1,0,0:0:0:0:
64,48,206377,102,0,B|72:76|72:76|56:136|56:136|64:188,2,140,4|0|0,0:0|0:0|0:0,0:0:0:0:
140,112,207377,2,0,B|132:140|132:140|154:248,1,140,8|0,0:0|0:0,0:0:0:0:
104,332,208043,1,0,0:0:0:0:
154,249,208377,2,0,P|206:297|278:305,1,140
320,308,208876,2,0,P|356:312|388:304,2,70,8|4|0,0:0|0:3|0:0,0:0:0:0:
296,264,209376,1,8,0:0:0:0:
356,188,209710,2,0,L|428:184,2,70,8|4|8,0:0|0:3|0:0,0:0:0:0:
284,124,210376,6,0,P|344:88|416:108,2,140,4|0|0,0:0|0:0|0:0,0:0:0:0:
204,68,211376,2,0,B|176:104|184:152|184:152|164:200,1,140,8|0,0:0|0:0,0:0:0:0:
68,176,212043,1,0,0:0:0:0:
32,268,212376,1,0,0:0:0:0:
128,256,212710,2,0,L|136:328,2,70,0|8|4,0:0|0:0|0:3,0:0:0:0:
221,373,213376,2,0,B|236:348|232:304|232:304|224:236,1,140,8|0,0:0|0:0,0:0:0:0:
224,236,213876,1,8,0:0:0:0:
224,236,214043,1,4,0:3:0:0:
284,160,214376,102,0,P|348:136|380:72,1,140,4|0,0:0|0:0,0:0:0:0:
284,60,215043,1,0,0:0:0:0:
284,60,215376,2,0,P|220:84|188:148,2,140,8|0|0,0:0|0:0|0:0,0:0:0:0:
380,76,216376,2,0,P|435:117|459:181,1,140
460,182,216876,1,8,0:0:0:0:
460,182,217043,1,4,0:3:0:0:
512,264,217376,2,0,B|464:312|464:312|388:324,1,140,8|0,0:0|0:0,0:0:0:0:
344,328,217876,1,8,0:0:0:0:
296,336,218043,1,4,0:3:0:0:
200,308,218376,6,0,P|240:252|316:240,2,140,4|0|0,0:0|0:0|0:0,0:0:0:0:
104,328,219376,2,0,P|120:260|164:204,1,140,8|0,0:0|0:0,0:0:0:0:
104,128,220043,1,0,0:0:0:0:
36,196,220376,2,0,P|12:128|36:60,1,140
68,36,220876,2,0,P|104:28|148:36,1,70,8|4,0:0|0:3,0:0:0:0:
232,48,221376,1,8,0:0:0:0:
328,68,221710,1,0,0:0:0:0:
404,128,222043,1,0,0:0:0:0:
404,128,222376,102,0,P|376:192|308:208,1,140,4|0,0:0|0:0,0:0:0:0:
216,228,223043,1,0,0:0:0:0:
188,320,223376,2,0,P|132:280|124:212,1,140,8|0,0:0|0:0,0:0:0:0:
144,168,223876,1,8,0:0:0:0:
172,128,224043,1,4,0:3:0:0:
252,72,224376,5,4,0:0:0:0:
348,52,224716,2,0,L|396:60,5,46.6666666666667,8|8|8|8|8|8,0:0|0:0|0:0|0:0|0:0|0:0,0:0:0:0:
424,76,225383,2,0,L|468:120,5,46.6666666666667,8|8|8|8|8|8,0:3|0:3|0:3|0:3|0:3|0:3,0:0:0:0:
472,136,226049,2,0,L|484:188,2,46.6666666666667,4|4|4,0:3|0:3|0:3,0:0:0:0:
436,148,226383,102,0,P|400:208|408:284,1,140,4|0,0:0|0:0,0:0:0:0:
320,348,227049,1,0,0:0:0:0:
208,340,227383,2,0,P|240:268|296:240,2,140,12|0|0,0:0|0:0|0:0,0:0:0:0:
96,340,228383,2,0,B|88:276|88:276|60:196,1,140,4|0,0:0|0:0,0:0:0:0:
60,148,228883,1,8,0:0:0:0:
72,92,229049,1,4,0:3:0:0:
176,48,229383,1,12,0:0:0:0:
276,96,229716,2,0,P|260:124|220:148,2,70,0|8|4,0:0|0:0|0:3,0:0:0:0:
380,52,230383,6,0,P|444:88|488:144,2,140,4|0|0,0:0|0:0|0:0,0:0:0:0:
400,164,231383,2,0,B|428:220|488:228|488:228|488:256,1,140,4|0,0:0|0:0,0:0:0:0:
488,254,231883,1,8,0:0:0:0:
488,254,232049,1,4,0:3:0:0:
488,368,232383,2,0,P|424:344|384:288,1,140,4|0,0:0|0:0,0:0:0:0:
336,260,232883,1,8,0:0:0:0:
336,260,233049,1,4,0:3:0:0:
288,344,233383,2,0,L|216:340,1,70,4|0,0:0|0:0,0:0:0:0:
172,308,233716,2,0,L|176:232,1,70,0|8,0:0|0:0,0:0:0:0:
124,212,234049,2,0,L|48:208,1,70,4|0,0:3|0:0,0:0:0:0:
44,152,234383,6,0,P|56:96|128:44,2,140,4|0|0,0:0|0:0|0:0,0:0:0:0:
156,156,235383,1,12,0:0:0:0:
252,92,235716,2,0,P|264:56|256:20,2,70
268,204,236383,2,0,P|328:168|364:104,1,140,4|0,0:0|0:0,0:0:0:0:
360,52,236883,2,0,L|440:88,1,70,8|4,0:0|0:3,0:0:0:0:
432,192,237383,2,0,P|380:252|320:288,1,140,12|0,0:0|0:0,0:0:0:0:
280,308,237883,2,0,L|340:344,2,70,8|4|0,0:0|0:3|0:0,0:0:0:0:
224,300,238383,102,0,P|152:312|100:356,2,140,4|0|0,0:0|0:0|0:0,0:0:0:0:
148,220,239382,2,0,P|88:176|72:112,1,140,12|0,0:0|0:0,0:0:0:0:
184,112,240049,1,0,0:0:0:0:
292,140,240382,2,0,P|280:172|248:200,2,70,12|4|4,0:0|0:3|0:3,0:0:0:0:
296,84,240882,1,8,0:0:0:0:
316,32,241049,1,4,0:3:0:0:
404,100,241382,1,4,0:0:0:0:
460,196,241716,1,0,0:0:0:0:
460,308,242049,1,8,0:3:0:0:
416,340,242216,1,4,0:3:0:0:
360,356,242382,6,0,P|348:284|384:224,2,140,4|0|0,0:0|0:0|0:0,0:0:0:0:
248,364,243382,2,0,B|184:344|184:344|104:356,1,140,12|0,0:0|0:0,0:0:0:0:
0,368,244049,1,0,0:0:0:0:
56,272,244382,2,0,P|88:216|84:136,1,140,4|0,0:0|0:0,0:0:0:0:
52,36,245049,1,0,0:0:0:0:
52,36,245382,2,0,P|128:40|180:84,1,140,12|0,0:0|0:0,0:0:0:0:
176,78,245882,1,8,0:0:0:0:
176,78,246049,1,4,0:3:0:0:
220,180,246382,102,0,P|212:244|236:320,1,140,4|0,0:0|0:0,0:0:0:0:
340,356,247049,1,0,0:0:0:0:
340,356,247382,1,12,0:0:0:0:
340,244,247716,2,0,P|408:268|444:328,1,140
508,232,248382,2,0,P|464:184|396:152,1,140,4|0,0:0|0:0,0:0:0:0:
344,140,248882,1,8,0:0:0:0:
344,140,249049,1,4,0:3:0:0:
388,40,249382,1,12,0:0:0:0:
276,52,249716,2,0,P|252:76|240:112,3,70,0|8|8|4,0:0|0:0|0:0|0:3,0:0:0:0:
212,160,250382,6,0,P|168:200|80:208,1,140,4|0,0:0|0:0,0:0:0:0:
119,103,251049,1,0,0:0:0:0:
119,103,251382,2,0,P|133:171|136:241,1,140,12|0,0:0|0:0,0:0:0:0:
80,336,252049,1,0,0:0:0:0:
136,242,252382,2,0,P|181:293|188:361,1,140,4|0,0:0|0:0,0:0:0:0:
188,362,252882,1,8,0:0:0:0:
188,362,253049,1,4,0:3:0:0:
300,360,253382,1,12,0:0:0:0:
408,336,253716,1,0,0:0:0:0:
468,240,254049,1,0,0:0:0:0:
436,132,254382,102,0,P|376:168|356:240,1,140,4|0,0:0|0:0,0:0:0:0:
328,280,254882,2,0,P|296:264|272:232,1,70,8|4,0:0|0:3,0:0:0:0:
168,208,255382,2,0,P|152:240|152:284,2,70,12|0|0,0:0|0:0|0:0,0:0:0:0:
192,156,255882,1,8,0:0:0:0:
232,116,256049,1,4,0:3:0:0:
336,80,256382,2,0,P|316:44|280:16,2,70,4|0|0,0:0|0:0|0:0,0:0:0:0:
348,136,256882,1,8,0:0:0:0:
348,192,257049,1,4,0:3:0:0:
336,304,257382,21,12,0:0:0:0:
192,344,257716,1,4,0:0:0:0:
80,232,258049,1,4,0:0:0:0:
232,192,258382,5,0,0:0:0:0:
256,192,258549,12,0,260382,0:0:0:0:
