osu file format v5

[General]
AudioFilename: C-O-C-A-I-N-E FF7.mp3
AudioLeadIn: 0
PreviewTime: -1
Countdown: 1
SampleSet: Normal
StackLeniency: 0.7
Mode: 0
LetterboxInBreaks: 1
EditorBookmarks: 5743,27653

[Metadata]
Title:C-O-C-A-I-N-E
Artist:WalnutFaceBrand
Creator:Zatoichi
Version:Normal
Source:
Tags:

[Difficulty]
HPDrainRate:4
CircleSize:4
OverallDifficulty:5
SliderMultiplier:1.3
SliderTickRate:1

[Events]
//Background and Video events
1,0,"C-O-C-A-I-N-E FF7.avi"
0,0,"Dr__Rockso_is_C_C_CLEAN_by_Ai_Lupin.jpg"
//Break Periods
2,16705,20690
2,32187,36846
2,54402,58387
//Storyboard Layer 0 (Background)
//Storyboard Layer 1 (Failing)
//Storyboard Layer 2 (Passing)
//Storyboard Layer 3 (Foreground)
//Storyboard Sound Samples
//Background Colour Transformations
3,100,163,162,255

[TimingPoints]
350,336.579455190055,4,1,0,100,1,0

[Colours]
Combo1 : 128,0,255
Combo2 : 0,255,0
Combo3 : 255,255,0
Combo4 : 255,0,255
Combo5 : 0,255,255

[HitObjects]
32,160,5735,1,0
128,160,6071,1,2
224,160,6408,1,0
288,224,6745,1,2
384,224,7081,5,0
480,224,7418,1,2
432,304,7754,1,2
336,304,8091,1,2
256,256,8427,6,4,B|256:112,1,130
80,192,9437,6,0,B|160:192,1,64.9999999999999,0|4
208,128,9942,2,0,B|208:208,1,64.9999999999999,0|4
208,288,10447,2,4,B|64:288,1,130,4|4
176,304,11120,5,0
80,304,11456,1,2
32,224,11793,1,0
128,224,12130,1,2
224,224,12466,5,0
288,160,12803,1,2
384,160,13139,1,2
480,160,13476,1,2
416,224,13813,6,0,B|336:224,2,65,0|8|8
288,160,14654,2,0,B|208:160,2,64.9999999999999,0|8|8
192,192,15327,1,0
192,192,15496,1,8
160,224,15664,2,8,B|80:224,4,65
192,256,16505,1,4
464,336,21891,5,0
256,32,23237,1,0
48,336,24583,1,0
128,160,25256,1,2
256,288,25930,5,8
320,224,26266,1,2
384,160,26603,1,4
384,336,27276,6,0,B|424:200|384:64|344:200|304:336|264:200|304:64|312:40,1,390
205,61,28622,2,0,B|208:64|248:200|208:336|168:200|128:64|88:200|128:336,1,390
224,336,29968,6,0,B|304:336,1,65
288,288,30305,2,0,B|208:288,1,65
224,240,30642,2,0,B|304:240,1,65
288,192,30978,2,0,B|208:192,1,65
256,160,31315,5,0
208,80,31651,1,0
304,80,31988,1,0
256,192,38046,12,0,39393
256,320,40066,5,0
320,256,40402,1,2
384,192,40739,1,4
224,272,41412,1,0
288,208,41749,1,2
352,144,42085,1,4
176,112,42759,1,4
256,320,43432,5,0
192,256,43768,1,2
128,192,44105,1,4
288,272,44778,1,0
224,208,45115,1,2
160,144,45451,1,4
336,112,46124,1,4
336,112,46797,1,4
208,240,47471,6,0,B|208:96,1,130
304,128,48144,6,0,B|304:272,1,130
256,336,48817,5,0
256,192,49322,1,0
256,192,49490,1,0
352,192,49827,1,0
352,96,50163,1,2
256,96,50500,1,2
160,96,50836,1,2
256,192,51341,5,0
256,192,51510,1,2
320,256,51846,1,2
384,192,52183,1,2
320,128,52519,1,2
256,64,52856,1,2
128,192,53529,1,2
256,320,54202,1,4
256,192,59587,12,0,62953
32,160,63626,6,0,B|32:16,1,130
128,32,64300,2,0,B|272:32,1,130
320,96,64973,6,0,B|464:96,1,130
448,192,65646,2,0,B|304:192,1,130
320,96,66319,5,0
368,96,66487,2,0,B|448:96,1,65
432,192,66992,2,0,B|352:192,1,65
320,192,67328,1,0
256,192,67665,12,4,70358
