osu file format v5

[General]
AudioFilename: C-O-C-A-I-N-E FF7.mp3
AudioLeadIn: 0
PreviewTime: -1
Countdown: 1
SampleSet: Normal
StackLeniency: 0.7
Mode: 0
LetterboxInBreaks: 1
EditorBookmarks: 5743,27653

[Metadata]
Title:C-O-C-A-I-N-E
Artist:WalnutFaceBrand
Creator:Zatoichi
Version:Insane
Source:
Tags:

[Difficulty]
HPDrainRate:6
CircleSize:5
OverallDifficulty:6
SliderMultiplier:2.5
SliderTickRate:1

[Events]
//Background and Video events
1,0,"C-O-C-A-I-N-E FF7.avi"
0,0,"Dr__Rockso_is_C_C_CLEAN_by_Ai_Lupin.jpg"
//Break Periods
2,16705,20690
2,32187,36846
2,54402,58387
//Storyboard Layer 0 (Background)
//Storyboard Layer 1 (Failing)
//Storyboard Layer 2 (Passing)
//Storyboard Layer 3 (Foreground)
//Storyboard Sound Samples
//Background Colour Transformations
3,100,163,162,255

[TimingPoints]
350,336.579455190055,4,1,0,100,1,0

[Colours]
Combo1 : 128,0,255
Combo2 : 0,255,0
Combo3 : 255,255,0
Combo4 : 255,0,255
Combo5 : 0,255,255

[HitObjects]
296,40,5735,1,2
296,152,5903,1,0
392,96,6071,1,8
392,208,6240,1,0
296,264,6408,1,2
200,208,6576,1,0
104,152,6745,1,8
200,96,6913,1,0
104,40,7081,5,2
104,152,7249,1,0
104,264,7418,1,8
200,320,7586,1,0
296,264,7754,1,2
392,208,7923,1,0
392,320,8091,1,8
296,264,8259,1,0
256,160,8427,6,0,B|256:96,4,62.5,0|4|0|4|0
480,160,9101,5,8
480,160,9269,1,0
368,160,9437,1,4
368,48,9605,1,4
368,272,9942,1,4
480,272,10110,1,4
256,272,10447,1,4
256,48,10783,1,4
104,152,11120,5,2
216,152,11288,1,0
160,56,11457,1,8
272,56,11625,1,0
328,152,11793,1,2
272,248,11961,1,0
216,344,12130,1,8
160,248,12298,1,0
104,344,12466,5,2
216,344,12635,1,0
328,344,12803,1,8
384,248,12971,1,0
328,152,13140,1,2
272,56,13308,1,0
384,56,13476,1,8
328,152,13644,1,0
256,240,13813,6,0,B|256:304,4,62.5,0|4|0|4|0
32,48,14654,1,4
32,160,14822,2,4,B|160:160,1,125,2|4
480,272,15327,1,4
480,160,15496,2,4,B|352:160,1,125,2|4
256,104,15832,1,2
256,160,15916,1,4
256,216,16000,5,2
256,272,16085,1,4
256,328,16169,5,2
256,272,16253,1,4
256,216,16337,5,2
256,160,16421,1,4
256,104,16505,5,2
32,32,21890,5,2
32,32,21975,1,0
32,32,22059,2,0,B|288:32,1,250,0|2
283,32,22479,1,0
283,32,22564,1,0
256,368,23068,5,2
480,352,23405,5,2
480,352,23573,1,2
480,352,23657,1,0
480,352,23742,2,0,B|480:224,1,125,0|2
480,227,23994,1,0
480,160,24078,1,2
480,160,24162,1,0
480,160,24246,1,2
256,168,24583,5,2
224,56,24751,1,0
112,88,24920,1,8
80,192,25088,5,2
112,296,25256,1,0
224,328,25425,1,8
256,216,25593,5,2
288,328,25761,1,0
400,296,25929,1,8
432,192,26098,5,2
400,88,26266,1,0
288,56,26434,1,8
256,192,26603,5,2
256,192,26687,1,0
256,192,26771,1,2
256,192,26855,1,0
256,192,26939,5,0
256,192,27023,1,8
256,192,27107,1,0
256,192,27192,1,8
256,192,27276,5,4
88,192,27444,6,2,B|152:192,7,62.5
208,192,28286,5,0
256,88,28454,1,0
304,192,28622,1,0
304,192,28706,1,0
304,192,28790,1,0
416,192,28959,6,2,B|480:192,4,62.5
336,112,29464,5,0
256,192,29632,6,2,B|256:256,2,62.5
176,112,29968,5,0
96,192,30137,6,2,B|32:192,2,62.5
312,144,30642,5,0
216,80,30810,1,0
216,192,30978,1,0
312,256,31147,1,0
216,304,31315,1,0
256,192,31483,6,2,B|320:192,6,62.5
256,352,38046,5,0
368,296,38257,5,2
256,240,38467,5,8
112,296,38719,5,0
256,88,39056,5,0
480,192,39393,1,0
304,88,39729,1,0
288,288,40066,1,0
128,160,40402,1,2
224,160,40571,1,0
176,248,40739,1,4
392,128,41075,2,2,B|392:192,4,62.5
216,232,41749,1,4
456,56,42253,1,8
216,232,42758,1,4
480,192,43432,5,0
304,296,43768,1,0
288,96,44105,1,0
128,224,44441,1,2
224,224,44610,1,0
176,136,44778,1,4
392,256,45114,2,2,B|392:192,4,62.5
216,152,45788,1,4
456,328,46292,1,8
216,152,46797,1,4
448,88,47471,6,0,L|192:88,1,250
64,296,48144,2,0,L|320:296,1,250
480,32,48817,6,0,B|224:32,1,250
32,96,49490,2,0,B|288:96,1,250
480,160,50163,2,2,B|224:160,3,250
128,160,51341,5,2
32,160,51510,2,2,B|32:288,1,125
128,288,51846,1,2
224,288,52014,2,2,B|224:160,1,125
32,288,52519,6,2,B|288:288,1,250
480,352,53192,2,2,B|224:352,1,250
480,224,53866,2,4,B|224:224,1,250
32,160,59587,5,0
32,160,59756,1,2
32,160,59924,1,0
384,352,60261,5,0
384,352,60429,1,2
384,352,60597,1,0
128,32,60934,5,0
128,32,61102,1,2
128,32,61270,1,0
480,224,61607,5,0
480,224,61775,1,2
480,224,61944,1,0
96,96,62280,5,0
96,96,62364,1,8
96,96,62448,1,0
96,96,62533,1,8
96,96,62617,1,0
432,304,62953,5,0
432,304,63037,1,8
432,304,63121,1,0
432,304,63206,1,8
432,304,63290,1,0
32,288,63626,5,0
32,288,63710,1,8
32,288,63794,1,0
32,288,63879,1,8
32,288,63963,1,0
384,96,64300,5,0
384,96,64384,1,8
384,96,64468,1,0
384,96,64553,1,8
384,96,64637,1,0
32,32,64973,6,0,B|32:160,3,125
32,352,65646,6,0,B|160:352,3,125
224,160,66319,6,0,B|224:32,3,125
288,224,66992,6,0,B|288:352,3,125
256,192,67665,5,4
256,192,67834,12,10,68339
256,192,68507,12,4,69012
256,192,69180,12,4,70358
