osu file format v13

[General]
AudioFilename: Selector Infected Wixoss Opening OP - Killy killy Joker by Kanon Wakeshima.mp3
AudioLeadIn: 0
PreviewTime: -1
Countdown: 1
SampleSet: None
StackLeniency: 0.7
Mode: 3
LetterboxInBreaks: 1
SpecialStyle: 0
WidescreenStoryboard: 1

[Editor]
DistanceSpacing: 0.8
BeatDivisor: 4
GridSize: 16
TimelineZoom: 1.5

[Metadata]
Title:killy killy joker(TV size)
TitleUnicode:killy killy joker(TV size)
Artist:Wakeshima Kanon
ArtistUnicode:分島花音
Creator:GH_CHAIKA
Version:Normal
Source:Selector infected WIXOSS
Tags:
BeatmapID:513764
BeatmapSetID:219349

[Difficulty]
HPDrainRate:5
CircleSize:4
OverallDifficulty:5
ApproachRate:5
SliderMultiplier:1.4
SliderTickRate:1

[Events]
//Background and Video events
0,0,"3921831i.jpg",0,0
//Break Periods
//Storyboard Layer 0 (Background)
//Storyboard Layer 1 (Fail)
//Storyboard Layer 2 (Pass)
//Storyboard Layer 3 (Foreground)
//Storyboard Sound Samples
//Background Colour Transformations
3,100,163,162,255

[TimingPoints]
0,333.333333333333,4,3,0,15,1,0
8230,333.333333333333,4,3,0,15,1,0

[HitObjects]
64,192,8230,128,0,9896:0:0:0:0:
448,192,8230,1,0,0:0:0:0:
320,192,8563,1,0,0:0:0:0:
192,192,8896,1,0,0:0:0:0:
320,192,9229,1,0,0:0:0:0:
448,192,9563,1,0,0:0:0:0:
320,192,9896,1,0,0:0:0:0:
448,192,10229,1,0,0:0:0:0:
320,192,10396,1,0,0:0:0:0:
448,192,10396,1,0,0:0:0:0:
192,192,10729,1,0,0:0:0:0:
448,192,10896,1,0,0:0:0:0:
64,192,10896,1,0,0:0:0:0:
192,192,11229,128,0,11563:0:0:0:0:
448,192,11563,1,0,0:0:0:0:
320,192,11896,128,0,12229:0:0:0:0:
64,192,12229,1,0,0:0:0:0:
192,192,12396,1,0,0:0:0:0:
320,192,12563,1,0,0:0:0:0:
448,192,12729,1,0,0:0:0:0:
320,192,12896,1,0,0:0:0:0:
192,192,13063,1,0,0:0:0:0:
64,192,13229,1,0,0:0:0:0:
320,192,13396,128,0,13896:0:0:0:0:
448,192,13396,128,0,13896:0:0:0:0:
64,192,13896,1,0,0:0:0:0:
192,192,14229,1,0,0:0:0:0:
192,192,14563,1,0,0:0:0:0:
448,192,14563,1,0,0:0:0:0:
320,192,14729,1,0,0:0:0:0:
448,192,14896,1,0,0:0:0:0:
64,192,14896,1,0,0:0:0:0:
64,192,15229,1,0,0:0:0:0:
320,192,15229,1,0,0:0:0:0:
448,192,15396,1,0,0:0:0:0:
320,192,15563,1,0,0:0:0:0:
64,192,15563,1,0,0:0:0:0:
64,192,15896,1,0,0:0:0:0:
448,192,15896,1,0,0:0:0:0:
192,192,16063,1,0,0:0:0:0:
320,192,16229,1,0,0:0:0:0:
448,192,16229,128,0,16563:0:0:0:0:
64,192,16896,1,0,0:0:0:0:
448,192,16896,1,0,0:0:0:0:
192,192,17229,1,0,0:0:0:0:
320,192,17563,1,0,0:0:0:0:
192,192,17896,1,0,0:0:0:0:
448,192,17896,1,0,0:0:0:0:
320,192,18229,1,0,0:0:0:0:
64,192,18563,1,0,0:0:0:0:
448,192,18563,1,0,0:0:0:0:
64,192,18729,1,0,0:0:0:0:
448,192,18729,1,0,0:0:0:0:
448,192,18896,1,0,0:0:0:0:
64,192,18896,1,0,0:0:0:0:
192,192,19229,1,0,0:0:0:0:
64,192,19563,1,0,0:0:0:0:
320,192,19563,1,0,0:0:0:0:
192,192,19896,1,0,0:0:0:0:
64,192,20229,1,0,0:0:0:0:
448,192,20229,1,0,0:0:0:0:
192,192,20396,1,0,0:0:0:0:
320,192,20396,1,0,0:0:0:0:
64,192,20563,1,0,0:0:0:0:
448,192,20563,1,0,0:0:0:0:
192,192,20896,1,0,0:0:0:0:
448,192,20896,1,0,0:0:0:0:
320,192,21229,1,0,0:0:0:0:
64,192,21563,1,0,0:0:0:0:
448,192,21563,1,0,0:0:0:0:
192,192,21896,1,0,0:0:0:0:
320,192,22229,1,0,0:0:0:0:
448,192,22229,1,0,0:0:0:0:
192,192,22563,1,0,0:0:0:0:
64,192,22896,1,0,0:0:0:0:
448,192,22896,1,0,0:0:0:0:
320,192,23229,1,0,0:0:0:0:
64,192,23563,1,0,0:0:0:0:
320,192,23563,1,0,0:0:0:0:
320,192,23896,1,0,0:0:0:0:
448,192,23896,1,0,0:0:0:0:
192,192,24063,1,0,0:0:0:0:
64,192,24063,1,0,0:0:0:0:
64,192,24396,1,0,0:0:0:0:
192,192,24396,1,0,0:0:0:0:
320,192,24563,128,0,25896:0:0:0:0:
448,192,24563,128,0,25896:0:0:0:0:
64,192,24896,1,0,0:0:0:0:
64,192,25229,1,0,0:0:0:0:
64,192,25563,1,0,0:0:0:0:
64,192,25896,128,0,26896:0:0:0:0:
320,192,26229,1,0,0:0:0:0:
448,192,26563,1,0,0:0:0:0:
320,192,26896,1,0,0:0:0:0:
64,192,27229,1,0,0:0:0:0:
448,192,27229,1,0,0:0:0:0:
192,192,27563,1,0,0:0:0:0:
192,192,27896,1,0,0:0:0:0:
448,192,27896,1,0,0:0:0:0:
320,192,28229,1,0,0:0:0:0:
64,192,28396,128,0,28896:0:0:0:0:
448,192,28396,128,0,28896:0:0:0:0:
192,192,29229,128,0,29563:0:0:0:0:
320,192,29563,1,0,0:0:0:0:
448,192,29896,128,0,30229:0:0:0:0:
64,192,30229,1,0,0:0:0:0:
64,192,30563,128,0,30896:0:0:0:0:
320,192,30896,1,0,0:0:0:0:
320,192,31229,128,0,31563:0:0:0:0:
192,192,31563,1,0,0:0:0:0:
448,192,31896,128,0,32563:0:0:0:0:
64,192,32563,1,0,0:0:0:0:
192,192,32563,1,0,0:0:0:0:
320,192,32896,1,0,0:0:0:0:
320,192,33063,1,0,0:0:0:0:
192,192,33063,1,0,0:0:0:0:
448,192,33396,1,0,0:0:0:0:
448,192,33563,1,0,0:0:0:0:
448,192,33729,1,0,0:0:0:0:
192,192,33729,1,0,0:0:0:0:
320,192,34063,1,0,0:0:0:0:
64,192,34229,1,0,0:0:0:0:
448,192,34229,1,0,0:0:0:0:
64,192,34563,1,0,0:0:0:0:
64,192,34896,1,0,0:0:0:0:
320,192,34896,1,0,0:0:0:0:
192,192,35229,1,0,0:0:0:0:
192,192,35563,1,0,0:0:0:0:
448,192,35563,1,0,0:0:0:0:
320,192,35896,1,0,0:0:0:0:
448,192,36063,1,0,0:0:0:0:
64,192,36063,1,0,0:0:0:0:
64,192,36229,1,0,0:0:0:0:
448,192,36229,1,0,0:0:0:0:
192,192,36563,1,0,0:0:0:0:
192,192,36896,1,0,0:0:0:0:
320,192,36896,1,0,0:0:0:0:
320,192,37229,1,0,0:0:0:0:
64,192,37563,1,0,0:0:0:0:
448,192,37563,1,0,0:0:0:0:
192,192,37896,1,0,0:0:0:0:
320,192,38229,1,0,0:0:0:0:
320,192,38396,1,0,0:0:0:0:
320,192,38563,1,0,0:0:0:0:
448,192,38563,1,0,0:0:0:0:
192,192,38896,1,0,0:0:0:0:
192,192,39063,1,0,0:0:0:0:
64,192,39229,1,0,0:0:0:0:
192,192,39229,1,0,0:0:0:0:
64,192,39563,1,0,0:0:0:0:
448,192,39563,1,0,0:0:0:0:
192,192,39729,1,0,0:0:0:0:
320,192,39729,1,0,0:0:0:0:
192,192,40063,1,0,0:0:0:0:
320,192,40063,1,0,0:0:0:0:
448,192,40229,1,0,0:0:0:0:
64,192,40229,1,0,0:0:0:0:
448,192,40563,1,0,0:0:0:0:
64,192,40563,128,0,41229:0:0:0:0:
320,192,40896,1,0,0:0:0:0:
192,192,41229,1,0,0:0:0:0:
320,192,41563,1,0,0:0:0:0:
64,192,41729,1,0,0:0:0:0:
320,192,41729,1,0,0:0:0:0:
320,192,42063,1,0,0:0:0:0:
192,192,42229,1,0,0:0:0:0:
448,192,42229,1,0,0:0:0:0:
192,192,42396,1,0,0:0:0:0:
448,192,42396,1,0,0:0:0:0:
192,192,42729,1,0,0:0:0:0:
192,192,42896,1,0,0:0:0:0:
192,192,43063,1,0,0:0:0:0:
320,192,43063,1,0,0:0:0:0:
320,192,43396,1,0,0:0:0:0:
320,192,43563,1,0,0:0:0:0:
192,192,43729,1,0,0:0:0:0:
320,192,43729,1,0,0:0:0:0:
64,192,44063,1,0,0:0:0:0:
448,192,44063,1,0,0:0:0:0:
192,192,44229,1,0,0:0:0:0:
320,192,44229,1,0,0:0:0:0:
64,192,44396,1,0,0:0:0:0:
448,192,44396,1,0,0:0:0:0:
192,192,44563,1,0,0:0:0:0:
320,192,44563,1,0,0:0:0:0:
64,192,44729,128,0,45563:0:0:0:0:
448,192,44729,128,0,45563:0:0:0:0:
192,192,45896,1,0,0:0:0:0:
320,192,46063,1,0,0:0:0:0:
448,192,46229,1,0,0:0:0:0:
64,192,46229,1,0,0:0:0:0:
64,192,46396,1,0,0:0:0:0:
448,192,46396,1,0,0:0:0:0:
64,192,46563,128,0,46896:0:0:0:0:
448,192,46563,128,0,46896:0:0:0:0:
320,192,46896,1,0,0:0:0:0:
192,192,47063,1,0,0:0:0:0:
320,192,47229,1,0,0:0:0:0:
192,192,47396,1,0,0:0:0:0:
320,192,47563,128,0,47896:0:0:0:0:
64,192,47896,1,0,0:0:0:0:
448,192,48063,1,0,0:0:0:0:
64,192,48229,1,0,0:0:0:0:
448,192,48396,1,0,0:0:0:0:
64,192,48563,128,0,48896:0:0:0:0:
448,192,48896,1,0,0:0:0:0:
64,192,49229,128,0,50063:0:0:0:0:
448,192,49229,128,0,50063:0:0:0:0:
192,192,50063,1,0,0:0:0:0:
320,192,50063,1,0,0:0:0:0:
64,192,50229,1,0,0:0:0:0:
448,192,50229,1,0,0:0:0:0:
192,192,50396,128,0,50896:0:0:0:0:
320,192,50396,128,0,50896:0:0:0:0:
64,192,51229,1,0,0:0:0:0:
64,192,51396,1,0,0:0:0:0:
192,192,51563,1,0,0:0:0:0:
320,192,51563,1,0,0:0:0:0:
320,192,51729,1,0,0:0:0:0:
192,192,51729,1,0,0:0:0:0:
448,192,51896,1,0,0:0:0:0:
448,192,52063,1,0,0:0:0:0:
192,192,52229,1,0,0:0:0:0:
320,192,52229,1,0,0:0:0:0:
192,192,52396,1,0,0:0:0:0:
320,192,52396,1,0,0:0:0:0:
64,192,52563,1,0,0:0:0:0:
64,192,52729,1,0,0:0:0:0:
192,192,52896,1,0,0:0:0:0:
448,192,52896,1,0,0:0:0:0:
192,192,53063,1,0,0:0:0:0:
448,192,53063,1,0,0:0:0:0:
320,192,53229,1,0,0:0:0:0:
320,192,53396,1,0,0:0:0:0:
64,192,53563,1,0,0:0:0:0:
448,192,53563,1,0,0:0:0:0:
64,192,53729,1,0,0:0:0:0:
448,192,53729,1,0,0:0:0:0:
192,192,53896,128,0,55229:0:0:0:0:
448,192,54229,1,0,0:0:0:0:
64,192,54563,1,0,0:0:0:0:
448,192,54896,1,0,0:0:0:0:
448,192,55063,1,0,0:0:0:0:
448,192,55229,1,0,0:0:0:0:
64,192,55229,1,0,0:0:0:0:
320,192,55563,1,0,0:0:0:0:
192,192,55896,1,0,0:0:0:0:
448,192,55896,1,0,0:0:0:0:
320,192,56229,1,0,0:0:0:0:
192,192,56396,1,0,0:0:0:0:
64,192,56563,1,0,0:0:0:0:
320,192,56896,1,0,0:0:0:0:
64,192,57063,1,0,0:0:0:0:
448,192,57063,1,0,0:0:0:0:
64,192,57396,1,0,0:0:0:0:
320,192,57396,1,0,0:0:0:0:
448,192,57563,1,0,0:0:0:0:
64,192,57729,1,0,0:0:0:0:
320,192,57729,1,0,0:0:0:0:
64,192,58229,1,0,0:0:0:0:
192,192,58563,1,0,0:0:0:0:
320,192,58896,1,0,0:0:0:0:
448,192,59229,1,0,0:0:0:0:
320,192,59563,1,0,0:0:0:0:
192,192,59896,1,0,0:0:0:0:
64,192,60229,1,0,0:0:0:0:
192,192,60563,1,0,0:0:0:0:
448,192,60563,1,0,0:0:0:0:
320,192,60896,1,0,0:0:0:0:
192,192,61229,1,0,0:0:0:0:
448,192,61229,1,0,0:0:0:0:
64,192,61563,1,0,0:0:0:0:
448,192,61563,1,0,0:0:0:0:
64,192,61896,1,0,0:0:0:0:
320,192,61896,1,0,0:0:0:0:
192,192,62229,1,0,0:0:0:0:
448,192,62229,1,0,0:0:0:0:
64,192,62563,1,0,0:0:0:0:
320,192,62563,1,0,0:0:0:0:
64,192,62896,1,0,0:0:0:0:
448,192,62896,1,0,0:0:0:0:
192,192,63229,1,0,0:0:0:0:
320,192,63229,1,0,0:0:0:0:
320,192,63563,1,0,0:0:0:0:
448,192,63563,1,0,0:0:0:0:
64,192,63896,1,0,0:0:0:0:
320,192,63896,1,0,0:0:0:0:
192,192,64229,1,0,0:0:0:0:
320,192,64229,1,0,0:0:0:0:
192,192,64563,1,0,0:0:0:0:
64,192,64563,128,0,65229:0:0:0:0:
320,192,64896,1,0,0:0:0:0:
448,192,65229,1,0,0:0:0:0:
320,192,65563,1,0,0:0:0:0:
448,192,65729,1,0,0:0:0:0:
192,192,65729,1,0,0:0:0:0:
64,192,66063,1,0,0:0:0:0:
448,192,66063,1,0,0:0:0:0:
192,192,66229,1,0,0:0:0:0:
320,192,66229,1,0,0:0:0:0:
64,192,66396,1,0,0:0:0:0:
448,192,66396,1,0,0:0:0:0:
64,192,67063,128,0,67396:0:0:0:0:
320,192,67396,1,0,0:0:0:0:
192,192,67729,128,0,68063:0:0:0:0:
64,192,68063,1,0,0:0:0:0:
320,192,68396,128,0,68729:0:0:0:0:
448,192,68729,1,0,0:0:0:0:
64,192,69063,1,0,0:0:0:0:
192,192,69229,1,0,0:0:0:0:
320,192,69396,1,0,0:0:0:0:
448,192,69563,1,0,0:0:0:0:
320,192,69729,1,0,0:0:0:0:
192,192,69896,128,0,70229:0:0:0:0:
64,192,70229,128,0,70563:0:0:0:0:
192,192,70563,128,0,70896:0:0:0:0:
320,192,70896,128,0,71229:0:0:0:0:
448,192,71229,128,0,72063:0:0:0:0:
64,192,71729,1,0,0:0:0:0:
64,192,71896,1,0,0:0:0:0:
64,192,72063,1,0,0:0:0:0:
192,192,72063,1,0,0:0:0:0:
192,192,72396,1,0,0:0:0:0:
320,192,72563,1,0,0:0:0:0:
64,192,72563,1,0,0:0:0:0:
64,192,72896,1,0,0:0:0:0:
320,192,72896,1,0,0:0:0:0:
448,192,73063,128,0,73563:0:0:0:0:
192,192,73563,1,0,0:0:0:0:
320,192,73729,1,0,0:0:0:0:
192,192,73896,1,0,0:0:0:0:
320,192,74063,1,0,0:0:0:0:
192,192,74229,1,0,0:0:0:0:
320,192,74396,1,0,0:0:0:0:
192,192,74563,128,0,74896:0:0:0:0:
448,192,74896,1,0,0:0:0:0:
64,192,75229,1,0,0:0:0:0:
192,192,75396,1,0,0:0:0:0:
320,192,75563,1,0,0:0:0:0:
448,192,75563,1,0,0:0:0:0:
320,192,75896,1,0,0:0:0:0:
192,192,76063,1,0,0:0:0:0:
64,192,76229,1,0,0:0:0:0:
320,192,76396,128,0,76896:0:0:0:0:
448,192,76396,128,0,76896:0:0:0:0:
64,192,77229,1,0,0:0:0:0:
64,192,77563,1,0,0:0:0:0:
192,192,77563,1,0,0:0:0:0:
192,192,77896,1,0,0:0:0:0:
192,192,78229,1,0,0:0:0:0:
448,192,78229,1,0,0:0:0:0:
320,192,78563,1,0,0:0:0:0:
448,192,78729,1,0,0:0:0:0:
320,192,78896,1,0,0:0:0:0:
192,192,79063,1,0,0:0:0:0:
64,192,79229,1,0,0:0:0:0:
192,192,79563,1,0,0:0:0:0:
448,192,79563,1,0,0:0:0:0:
64,192,79896,1,0,0:0:0:0:
320,192,79896,1,0,0:0:0:0:
192,192,80229,1,0,0:0:0:0:
64,192,80563,1,0,0:0:0:0:
448,192,80563,1,0,0:0:0:0:
192,192,80896,1,0,0:0:0:0:
320,192,80896,1,0,0:0:0:0:
192,192,81229,1,0,0:0:0:0:
320,192,81396,1,0,0:0:0:0:
448,192,81563,1,0,0:0:0:0:
320,192,81729,1,0,0:0:0:0:
192,192,81896,1,0,0:0:0:0:
64,192,82229,128,0,83229:0:0:0:0:
448,192,82229,128,0,83229:0:0:0:0:
192,192,83563,1,0,0:0:0:0:
320,192,83896,1,0,0:0:0:0:
64,192,83896,1,0,0:0:0:0:
448,192,84229,1,0,0:0:0:0:
320,192,84563,1,0,0:0:0:0:
192,192,84563,1,0,0:0:0:0:
64,192,84896,1,0,0:0:0:0:
192,192,85229,1,0,0:0:0:0:
448,192,85229,1,0,0:0:0:0:
320,192,85563,1,0,0:0:0:0:
64,192,85896,1,0,0:0:0:0:
448,192,85896,1,0,0:0:0:0:
320,192,86229,1,0,0:0:0:0:
192,192,86563,1,0,0:0:0:0:
448,192,86563,1,0,0:0:0:0:
320,192,86896,1,0,0:0:0:0:
192,192,87229,1,0,0:0:0:0:
320,192,87229,1,0,0:0:0:0:
64,192,87396,1,0,0:0:0:0:
448,192,87396,1,0,0:0:0:0:
192,192,87563,1,0,0:0:0:0:
320,192,87563,1,0,0:0:0:0:
64,192,87896,1,0,0:0:0:0:
448,192,87896,1,0,0:0:0:0:
448,192,88063,1,0,0:0:0:0:
64,192,88063,1,0,0:0:0:0:
64,192,88229,1,0,0:0:0:0:
448,192,88229,1,0,0:0:0:0:
