osu file format v13

[General]
AudioFilename: Selector Infected Wixoss Opening OP - Killy killy Joker by Kanon Wakeshima.mp3
AudioLeadIn: 0
PreviewTime: -1
Countdown: 1
SampleSet: None
StackLeniency: 0.7
Mode: 3
LetterboxInBreaks: 1
SpecialStyle: 0
WidescreenStoryboard: 0

[Editor]
DistanceSpacing: 0.8
BeatDivisor: 4
GridSize: 16
TimelineZoom: 1.5

[Metadata]
Title:killy killy joker(TV size)
TitleUnicode:killy killy joker(TV size)
Artist:Wakeshima Kanon
ArtistUnicode:分島花音
Creator:GH_CHAIKA
Version:Insane
Source:Selector infected WIXOSS
Tags:
BeatmapID:513763
BeatmapSetID:219349

[Difficulty]
HPDrainRate:5
CircleSize:4
OverallDifficulty:5
ApproachRate:5
SliderMultiplier:1.4
SliderTickRate:1

[Events]
//Background and Video events
0,0,"3921831i.jpg",0,0
//Break Periods
//Storyboard Layer 0 (Background)
//Storyboard Layer 1 (Fail)
//Storyboard Layer 2 (Pass)
//Storyboard Layer 3 (Foreground)
//Storyboard Sound Samples
//Background Colour Transformations
3,100,163,162,255

[TimingPoints]
0,333.333333333333,4,3,0,15,1,0
8230,333.333333333333,4,3,0,15,1,0

[HitObjects]
448,192,1666,5,0,0:0:0:0:
320,192,2000,1,0,0:0:0:0:
192,192,2333,1,0,0:0:0:0:
64,192,2666,1,0,0:0:0:0:
192,192,3000,1,0,0:0:0:0:
64,192,3333,1,0,0:0:0:0:
320,192,3333,1,0,0:0:0:0:
192,192,3666,1,0,0:0:0:0:
64,192,4000,1,0,0:0:0:0:
448,192,4000,1,0,0:0:0:0:
320,192,4333,1,0,0:0:0:0:
192,192,4666,1,0,0:0:0:0:
448,192,4666,1,0,0:0:0:0:
320,192,5000,1,0,0:0:0:0:
448,192,5333,1,0,0:0:0:0:
64,192,5333,1,0,0:0:0:0:
320,192,5666,1,0,0:0:0:0:
192,192,6000,1,0,0:0:0:0:
448,192,6000,1,0,0:0:0:0:
320,192,6333,1,0,0:0:0:0:
64,192,6666,1,0,0:0:0:0:
448,192,6666,1,0,0:0:0:0:
320,192,6833,1,0,0:0:0:0:
192,192,7000,1,0,0:0:0:0:
64,192,7166,1,0,0:0:0:0:
192,192,7333,1,0,0:0:0:0:
320,192,7500,1,0,0:0:0:0:
448,192,7666,1,0,0:0:0:0:
64,192,7666,1,0,0:0:0:0:
64,192,7833,1,0,0:0:0:0:
448,192,7833,1,0,0:0:0:0:
448,192,8000,1,0,0:0:0:0:
64,192,8000,1,0,0:0:0:0:
64,192,8230,5,0,0:0:0:0:
320,192,8230,1,0,0:0:0:0:
448,192,8230,1,0,0:0:0:0:
192,192,8313,1,0,0:0:0:0:
320,192,8396,1,0,0:0:0:0:
64,192,8396,1,0,0:0:0:0:
448,192,8480,1,0,0:0:0:0:
320,192,8563,1,0,0:0:0:0:
192,192,8646,1,0,0:0:0:0:
64,192,8730,1,0,0:0:0:0:
448,192,8730,1,0,0:0:0:0:
192,192,8813,1,0,0:0:0:0:
320,192,8896,1,0,0:0:0:0:
64,192,8896,1,0,0:0:0:0:
192,192,8980,1,0,0:0:0:0:
64,192,9063,1,0,0:0:0:0:
448,192,9146,1,0,0:0:0:0:
320,192,9146,1,0,0:0:0:0:
64,192,9229,1,0,0:0:0:0:
320,192,9313,1,0,0:0:0:0:
448,192,9396,1,0,0:0:0:0:
192,192,9396,1,0,0:0:0:0:
64,192,9396,1,0,0:0:0:0:
320,192,9479,1,0,0:0:0:0:
64,192,9563,1,0,0:0:0:0:
192,192,9646,1,0,0:0:0:0:
320,192,9729,1,0,0:0:0:0:
448,192,9813,1,0,0:0:0:0:
320,192,9896,1,0,0:0:0:0:
192,192,9979,1,0,0:0:0:0:
64,192,10063,1,0,0:0:0:0:
192,192,10146,1,0,0:0:0:0:
320,192,10229,1,0,0:0:0:0:
448,192,10313,1,0,0:0:0:0:
64,192,10396,128,0,10729:0:0:0:0:
448,192,10729,1,0,0:0:0:0:
320,192,10813,1,0,0:0:0:0:
192,192,10896,1,0,0:0:0:0:
64,192,10979,1,0,0:0:0:0:
192,192,11063,1,0,0:0:0:0:
448,192,11063,1,0,0:0:0:0:
320,192,11146,1,0,0:0:0:0:
64,192,11229,1,0,0:0:0:0:
448,192,11229,1,0,0:0:0:0:
192,192,11313,1,0,0:0:0:0:
320,192,11396,1,0,0:0:0:0:
64,192,11396,1,0,0:0:0:0:
192,192,11479,1,0,0:0:0:0:
448,192,11479,1,0,0:0:0:0:
320,192,11563,1,0,0:0:0:0:
192,192,11646,1,0,0:0:0:0:
64,192,11729,1,0,0:0:0:0:
320,192,11729,1,0,0:0:0:0:
448,192,11813,1,0,0:0:0:0:
320,192,11896,1,0,0:0:0:0:
64,192,11896,1,0,0:0:0:0:
192,192,11979,1,0,0:0:0:0:
320,192,12063,1,0,0:0:0:0:
448,192,12146,1,0,0:0:0:0:
320,192,12229,1,0,0:0:0:0:
192,192,12313,1,0,0:0:0:0:
64,192,12396,1,0,0:0:0:0:
192,192,12479,1,0,0:0:0:0:
320,192,12563,128,0,12896:0:0:0:0:
448,192,12563,128,0,12896:0:0:0:0:
64,192,12729,1,0,0:0:0:0:
192,192,12896,1,0,0:0:0:0:
64,192,12896,128,0,13563:0:0:0:0:
320,192,13063,1,0,0:0:0:0:
192,192,13229,1,0,0:0:0:0:
448,192,13229,128,0,13563:0:0:0:0:
192,192,13396,1,0,0:0:0:0:
192,192,13563,1,0,0:0:0:0:
320,192,13563,1,0,0:0:0:0:
64,192,14229,1,0,0:0:0:0:
448,192,14229,1,0,0:0:0:0:
192,192,14229,1,0,0:0:0:0:
320,192,14313,1,0,0:0:0:0:
448,192,14396,1,0,0:0:0:0:
64,192,14563,1,0,0:0:0:0:
192,192,14563,1,0,0:0:0:0:
192,192,14729,1,0,0:0:0:0:
192,192,14896,1,0,0:0:0:0:
320,192,14896,1,0,0:0:0:0:
320,192,15063,1,0,0:0:0:0:
320,192,15229,1,0,0:0:0:0:
448,192,15229,1,0,0:0:0:0:
192,192,15396,1,0,0:0:0:0:
64,192,15563,1,0,0:0:0:0:
320,192,15563,1,0,0:0:0:0:
192,192,15729,1,0,0:0:0:0:
64,192,15896,1,0,0:0:0:0:
448,192,15896,1,0,0:0:0:0:
192,192,16063,1,0,0:0:0:0:
64,192,16229,1,0,0:0:0:0:
320,192,16229,1,0,0:0:0:0:
64,192,16396,1,0,0:0:0:0:
320,192,16396,1,0,0:0:0:0:
320,192,16563,1,0,0:0:0:0:
448,192,16563,1,0,0:0:0:0:
64,192,16563,1,0,0:0:0:0:
64,192,16896,1,0,0:0:0:0:
448,192,16896,1,0,0:0:0:0:
320,192,16896,1,0,0:0:0:0:
192,192,16979,1,0,0:0:0:0:
64,192,17063,1,0,0:0:0:0:
320,192,17063,1,0,0:0:0:0:
192,192,17146,1,0,0:0:0:0:
64,192,17229,1,0,0:0:0:0:
448,192,17229,1,0,0:0:0:0:
320,192,17313,1,0,0:0:0:0:
192,192,17396,1,0,0:0:0:0:
320,192,17479,1,0,0:0:0:0:
448,192,17563,1,0,0:0:0:0:
64,192,17729,128,0,18396:0:0:0:0:
448,192,17729,128,0,18396:0:0:0:0:
192,192,17729,1,0,0:0:0:0:
320,192,17896,1,0,0:0:0:0:
192,192,18063,1,0,0:0:0:0:
320,192,18229,1,0,0:0:0:0:
192,192,18396,1,0,0:0:0:0:
320,192,18396,1,0,0:0:0:0:
192,192,18563,1,0,0:0:0:0:
320,192,18563,1,0,0:0:0:0:
192,192,18729,1,0,0:0:0:0:
320,192,18729,1,0,0:0:0:0:
64,192,18896,1,0,0:0:0:0:
448,192,18896,1,0,0:0:0:0:
64,192,19063,1,0,0:0:0:0:
448,192,19063,1,0,0:0:0:0:
64,192,19229,1,0,0:0:0:0:
448,192,19229,1,0,0:0:0:0:
192,192,19313,1,0,0:0:0:0:
320,192,19396,1,0,0:0:0:0:
448,192,19479,1,0,0:0:0:0:
320,192,19563,1,0,0:0:0:0:
64,192,19646,1,0,0:0:0:0:
192,192,19646,1,0,0:0:0:0:
320,192,19729,1,0,0:0:0:0:
448,192,19813,1,0,0:0:0:0:
64,192,19896,1,0,0:0:0:0:
320,192,19896,1,0,0:0:0:0:
192,192,19979,1,0,0:0:0:0:
320,192,20063,1,0,0:0:0:0:
448,192,20146,1,0,0:0:0:0:
320,192,20229,1,0,0:0:0:0:
192,192,20313,1,0,0:0:0:0:
320,192,20396,1,0,0:0:0:0:
448,192,20396,1,0,0:0:0:0:
192,192,20479,1,0,0:0:0:0:
64,192,20563,1,0,0:0:0:0:
192,192,20646,1,0,0:0:0:0:
448,192,20646,1,0,0:0:0:0:
320,192,20729,1,0,0:0:0:0:
192,192,20813,1,0,0:0:0:0:
64,192,20896,128,0,23563:0:0:0:0:
320,192,20896,1,0,0:0:0:0:
448,192,20979,1,0,0:0:0:0:
320,192,21063,1,0,0:0:0:0:
192,192,21146,1,0,0:0:0:0:
320,192,21229,1,0,0:0:0:0:
448,192,21229,1,0,0:0:0:0:
448,192,21396,1,0,0:0:0:0:
192,192,21563,1,0,0:0:0:0:
448,192,21563,1,0,0:0:0:0:
320,192,21729,1,0,0:0:0:0:
320,192,21896,1,0,0:0:0:0:
448,192,21896,1,0,0:0:0:0:
448,192,22063,1,0,0:0:0:0:
192,192,22229,1,0,0:0:0:0:
448,192,22229,1,0,0:0:0:0:
320,192,22396,1,0,0:0:0:0:
192,192,22563,1,0,0:0:0:0:
320,192,22563,1,0,0:0:0:0:
448,192,22729,1,0,0:0:0:0:
192,192,22896,1,0,0:0:0:0:
448,192,22896,1,0,0:0:0:0:
320,192,23063,1,0,0:0:0:0:
192,192,23229,1,0,0:0:0:0:
448,192,23229,1,0,0:0:0:0:
320,192,23396,1,0,0:0:0:0:
320,192,23563,1,0,0:0:0:0:
448,192,23563,1,0,0:0:0:0:
192,192,23729,1,0,0:0:0:0:
64,192,23896,1,0,0:0:0:0:
320,192,23896,1,0,0:0:0:0:
448,192,23896,1,0,0:0:0:0:
64,192,24063,1,0,0:0:0:0:
192,192,24063,1,0,0:0:0:0:
448,192,24063,1,0,0:0:0:0:
448,192,24396,1,0,0:0:0:0:
320,192,24452,1,0,0:0:0:0:
192,192,24507,1,0,0:0:0:0:
64,192,24563,1,0,0:0:0:0:
448,192,24563,1,0,0:0:0:0:
192,192,24729,1,0,0:0:0:0:
320,192,24729,1,0,0:0:0:0:
64,192,24896,1,0,0:0:0:0:
320,192,24896,1,0,0:0:0:0:
192,192,25063,1,0,0:0:0:0:
448,192,25063,1,0,0:0:0:0:
64,192,25229,1,0,0:0:0:0:
448,192,25229,1,0,0:0:0:0:
192,192,25396,1,0,0:0:0:0:
320,192,25396,1,0,0:0:0:0:
192,192,25563,1,0,0:0:0:0:
448,192,25563,1,0,0:0:0:0:
64,192,25729,1,0,0:0:0:0:
192,192,25729,1,0,0:0:0:0:
192,192,25896,1,0,0:0:0:0:
448,192,25896,1,0,0:0:0:0:
192,192,26063,1,0,0:0:0:0:
320,192,26063,1,0,0:0:0:0:
320,192,26229,1,0,0:0:0:0:
448,192,26229,1,0,0:0:0:0:
64,192,26396,1,0,0:0:0:0:
320,192,26396,1,0,0:0:0:0:
192,192,26563,1,0,0:0:0:0:
448,192,26563,1,0,0:0:0:0:
64,192,26729,1,0,0:0:0:0:
192,192,26729,1,0,0:0:0:0:
192,192,26896,1,0,0:0:0:0:
448,192,26896,1,0,0:0:0:0:
192,192,27063,1,0,0:0:0:0:
320,192,27063,1,0,0:0:0:0:
64,192,27229,1,0,0:0:0:0:
64,192,27313,1,0,0:0:0:0:
320,192,27396,1,0,0:0:0:0:
448,192,27396,1,0,0:0:0:0:
64,192,27563,1,0,0:0:0:0:
448,192,27563,1,0,0:0:0:0:
320,192,27729,1,0,0:0:0:0:
320,192,27813,1,0,0:0:0:0:
64,192,27896,1,0,0:0:0:0:
448,192,27896,1,0,0:0:0:0:
192,192,28063,1,0,0:0:0:0:
320,192,28063,1,0,0:0:0:0:
448,192,28229,1,0,0:0:0:0:
448,192,28313,1,0,0:0:0:0:
64,192,28396,1,0,0:0:0:0:
192,192,28396,1,0,0:0:0:0:
320,192,28396,1,0,0:0:0:0:
448,192,28563,1,0,0:0:0:0:
448,192,28729,1,0,0:0:0:0:
448,192,28896,1,0,0:0:0:0:
448,192,29063,1,0,0:0:0:0:
64,192,29229,1,0,0:0:0:0:
448,192,29229,1,0,0:0:0:0:
64,192,29396,1,0,0:0:0:0:
64,192,29563,1,0,0:0:0:0:
64,192,29729,1,0,0:0:0:0:
64,192,29896,1,0,0:0:0:0:
448,192,29896,1,0,0:0:0:0:
320,192,30063,1,0,0:0:0:0:
192,192,30229,1,0,0:0:0:0:
448,192,30229,1,0,0:0:0:0:
320,192,30396,1,0,0:0:0:0:
64,192,30563,1,0,0:0:0:0:
448,192,30563,1,0,0:0:0:0:
192,192,30729,1,0,0:0:0:0:
64,192,30896,1,0,0:0:0:0:
320,192,30896,1,0,0:0:0:0:
192,192,31063,1,0,0:0:0:0:
64,192,31229,1,0,0:0:0:0:
448,192,31229,1,0,0:0:0:0:
192,192,31396,1,0,0:0:0:0:
448,192,31396,1,0,0:0:0:0:
64,192,31563,1,0,0:0:0:0:
320,192,31563,1,0,0:0:0:0:
320,192,31729,1,0,0:0:0:0:
448,192,31729,1,0,0:0:0:0:
64,192,31896,1,0,0:0:0:0:
448,192,31896,1,0,0:0:0:0:
192,192,32063,1,0,0:0:0:0:
448,192,32063,1,0,0:0:0:0:
64,192,32229,1,0,0:0:0:0:
320,192,32229,1,0,0:0:0:0:
192,192,32396,1,0,0:0:0:0:
448,192,32396,1,0,0:0:0:0:
64,192,32563,1,0,0:0:0:0:
448,192,32563,1,0,0:0:0:0:
192,192,32646,1,0,0:0:0:0:
320,192,32729,1,0,0:0:0:0:
448,192,32813,1,0,0:0:0:0:
320,192,32896,1,0,0:0:0:0:
192,192,32979,1,0,0:0:0:0:
64,192,32979,1,0,0:0:0:0:
448,192,33063,1,0,0:0:0:0:
320,192,33146,1,0,0:0:0:0:
448,192,33229,1,0,0:0:0:0:
320,192,33313,1,0,0:0:0:0:
192,192,33396,1,0,0:0:0:0:
448,192,33396,1,0,0:0:0:0:
64,192,33479,1,0,0:0:0:0:
192,192,33563,1,0,0:0:0:0:
448,192,33563,1,0,0:0:0:0:
64,192,33646,1,0,0:0:0:0:
320,192,33646,1,0,0:0:0:0:
192,192,33729,1,0,0:0:0:0:
448,192,33729,1,0,0:0:0:0:
64,192,33813,1,0,0:0:0:0:
320,192,33813,1,0,0:0:0:0:
192,192,33896,1,0,0:0:0:0:
448,192,33896,1,0,0:0:0:0:
64,192,33979,1,0,0:0:0:0:
192,192,34063,1,0,0:0:0:0:
320,192,34146,1,0,0:0:0:0:
448,192,34229,1,0,0:0:0:0:
320,192,34313,1,0,0:0:0:0:
192,192,34396,1,0,0:0:0:0:
64,192,34479,1,0,0:0:0:0:
448,192,34563,1,0,0:0:0:0:
448,192,34646,1,0,0:0:0:0:
192,192,34729,1,0,0:0:0:0:
320,192,34729,1,0,0:0:0:0:
64,192,34896,1,0,0:0:0:0:
448,192,34896,1,0,0:0:0:0:
192,192,35063,1,0,0:0:0:0:
448,192,35063,1,0,0:0:0:0:
320,192,35229,1,0,0:0:0:0:
320,192,35313,1,0,0:0:0:0:
64,192,35396,1,0,0:0:0:0:
192,192,35396,1,0,0:0:0:0:
192,192,35563,1,0,0:0:0:0:
448,192,35563,1,0,0:0:0:0:
320,192,35729,1,0,0:0:0:0:
448,192,35729,1,0,0:0:0:0:
64,192,35896,1,0,0:0:0:0:
448,192,35896,1,0,0:0:0:0:
192,192,36063,1,0,0:0:0:0:
320,192,36063,1,0,0:0:0:0:
64,192,36229,1,0,0:0:0:0:
320,192,36229,1,0,0:0:0:0:
192,192,36396,1,0,0:0:0:0:
192,192,36479,1,0,0:0:0:0:
448,192,36563,1,0,0:0:0:0:
64,192,36563,1,0,0:0:0:0:
64,192,36729,1,0,0:0:0:0:
320,192,36729,1,0,0:0:0:0:
448,192,36896,1,0,0:0:0:0:
192,192,36896,1,0,0:0:0:0:
448,192,37063,1,0,0:0:0:0:
320,192,37063,1,0,0:0:0:0:
64,192,37146,1,0,0:0:0:0:
192,192,37229,1,0,0:0:0:0:
320,192,37313,1,0,0:0:0:0:
448,192,37396,1,0,0:0:0:0:
320,192,37479,1,0,0:0:0:0:
192,192,37563,1,0,0:0:0:0:
64,192,37646,1,0,0:0:0:0:
192,192,37729,1,0,0:0:0:0:
320,192,37813,1,0,0:0:0:0:
448,192,37896,1,0,0:0:0:0:
64,192,37896,1,0,0:0:0:0:
192,192,38063,1,0,0:0:0:0:
448,192,38063,1,0,0:0:0:0:
64,192,38229,1,0,0:0:0:0:
320,192,38229,1,0,0:0:0:0:
448,192,38396,1,0,0:0:0:0:
448,192,38479,1,0,0:0:0:0:
64,192,38563,1,0,0:0:0:0:
192,192,38563,1,0,0:0:0:0:
320,192,38563,1,0,0:0:0:0:
320,192,38729,1,0,0:0:0:0:
320,192,38813,1,0,0:0:0:0:
64,192,38896,1,0,0:0:0:0:
448,192,38896,1,0,0:0:0:0:
192,192,38896,1,0,0:0:0:0:
320,192,39063,128,0,39396:0:0:0:0:
448,192,39063,128,0,39396:0:0:0:0:
64,192,39396,1,0,0:0:0:0:
192,192,39452,1,0,0:0:0:0:
320,192,39507,1,0,0:0:0:0:
448,192,39563,1,0,0:0:0:0:
320,192,39618,1,0,0:0:0:0:
192,192,39674,1,0,0:0:0:0:
64,192,39729,1,0,0:0:0:0:
192,192,39896,1,0,0:0:0:0:
448,192,39896,1,0,0:0:0:0:
192,192,40063,1,0,0:0:0:0:
448,192,40063,1,0,0:0:0:0:
64,192,40229,1,0,0:0:0:0:
448,192,40229,1,0,0:0:0:0:
192,192,40229,1,0,0:0:0:0:
320,192,40396,1,0,0:0:0:0:
64,192,40563,1,0,0:0:0:0:
448,192,40563,1,0,0:0:0:0:
192,192,40646,1,0,0:0:0:0:
320,192,40729,1,0,0:0:0:0:
448,192,40813,1,0,0:0:0:0:
320,192,40896,1,0,0:0:0:0:
192,192,40979,1,0,0:0:0:0:
448,192,40979,1,0,0:0:0:0:
64,192,41063,1,0,0:0:0:0:
192,192,41146,1,0,0:0:0:0:
320,192,41229,1,0,0:0:0:0:
64,192,41229,1,0,0:0:0:0:
448,192,41313,1,0,0:0:0:0:
320,192,41396,1,0,0:0:0:0:
64,192,41479,1,0,0:0:0:0:
192,192,41479,1,0,0:0:0:0:
320,192,41563,1,0,0:0:0:0:
448,192,41563,1,0,0:0:0:0:
64,192,41646,1,0,0:0:0:0:
192,192,41646,1,0,0:0:0:0:
320,192,41729,1,0,0:0:0:0:
448,192,41729,1,0,0:0:0:0:
64,192,41813,1,0,0:0:0:0:
192,192,41813,1,0,0:0:0:0:
448,192,41896,1,0,0:0:0:0:
320,192,41979,1,0,0:0:0:0:
64,192,42063,1,0,0:0:0:0:
64,192,42146,1,0,0:0:0:0:
320,192,42229,1,0,0:0:0:0:
448,192,42229,1,0,0:0:0:0:
320,192,42396,1,0,0:0:0:0:
320,192,42479,1,0,0:0:0:0:
192,192,42563,1,0,0:0:0:0:
448,192,42563,1,0,0:0:0:0:
64,192,42563,1,0,0:0:0:0:
192,192,42729,1,0,0:0:0:0:
320,192,42729,1,0,0:0:0:0:
448,192,42729,1,0,0:0:0:0:
192,192,42896,1,0,0:0:0:0:
320,192,42896,1,0,0:0:0:0:
448,192,42896,1,0,0:0:0:0:
64,192,43063,1,0,0:0:0:0:
192,192,43063,1,0,0:0:0:0:
320,192,43063,1,0,0:0:0:0:
192,192,43229,1,0,0:0:0:0:
64,192,43229,1,0,0:0:0:0:
320,192,43229,1,0,0:0:0:0:
448,192,43396,1,0,0:0:0:0:
320,192,43452,1,0,0:0:0:0:
192,192,43507,1,0,0:0:0:0:
64,192,43563,1,0,0:0:0:0:
192,192,43618,1,0,0:0:0:0:
320,192,43674,1,0,0:0:0:0:
448,192,43729,1,0,0:0:0:0:
64,192,43896,1,0,0:0:0:0:
192,192,43952,1,0,0:0:0:0:
320,192,44007,1,0,0:0:0:0:
448,192,44063,1,0,0:0:0:0:
320,192,44118,1,0,0:0:0:0:
192,192,44174,1,0,0:0:0:0:
64,192,44229,128,0,45729:0:0:0:0:
192,192,44563,1,0,0:0:0:0:
448,192,44563,1,0,0:0:0:0:
320,192,44729,1,0,0:0:0:0:
192,192,44896,1,0,0:0:0:0:
320,192,44896,1,0,0:0:0:0:
448,192,45063,1,0,0:0:0:0:
192,192,45229,1,0,0:0:0:0:
448,192,45229,1,0,0:0:0:0:
320,192,45396,1,0,0:0:0:0:
192,192,45563,1,0,0:0:0:0:
448,192,45563,1,0,0:0:0:0:
448,192,45729,1,0,0:0:0:0:
192,192,45729,1,0,0:0:0:0:
192,192,45896,1,0,0:0:0:0:
448,192,45896,1,0,0:0:0:0:
320,192,45896,1,0,0:0:0:0:
320,192,46063,1,0,0:0:0:0:
64,192,46229,1,0,0:0:0:0:
192,192,46229,1,0,0:0:0:0:
320,192,46229,1,0,0:0:0:0:
192,192,46396,1,0,0:0:0:0:
64,192,46563,1,0,0:0:0:0:
320,192,46563,1,0,0:0:0:0:
448,192,46563,1,0,0:0:0:0:
192,192,46729,1,0,0:0:0:0:
192,192,46896,1,0,0:0:0:0:
320,192,46896,1,0,0:0:0:0:
448,192,46896,1,0,0:0:0:0:
320,192,47063,1,0,0:0:0:0:
64,192,47229,1,0,0:0:0:0:
192,192,47229,1,0,0:0:0:0:
448,192,47229,1,0,0:0:0:0:
320,192,47396,1,0,0:0:0:0:
64,192,47563,1,0,0:0:0:0:
192,192,47563,1,0,0:0:0:0:
320,192,47563,1,0,0:0:0:0:
64,192,47729,1,0,0:0:0:0:
64,192,47896,1,0,0:0:0:0:
320,192,47896,1,0,0:0:0:0:
448,192,47896,1,0,0:0:0:0:
192,192,48063,1,0,0:0:0:0:
192,192,48229,1,0,0:0:0:0:
320,192,48229,1,0,0:0:0:0:
448,192,48229,1,0,0:0:0:0:
320,192,48396,1,0,0:0:0:0:
64,192,48563,1,0,0:0:0:0:
320,192,48563,1,0,0:0:0:0:
192,192,48563,1,0,0:0:0:0:
448,192,48646,1,0,0:0:0:0:
320,192,48729,1,0,0:0:0:0:
192,192,48813,1,0,0:0:0:0:
64,192,48896,1,0,0:0:0:0:
192,192,48979,1,0,0:0:0:0:
320,192,49063,1,0,0:0:0:0:
448,192,49146,1,0,0:0:0:0:
64,192,49229,1,0,0:0:0:0:
192,192,49229,1,0,0:0:0:0:
448,192,49313,1,0,0:0:0:0:
320,192,49396,1,0,0:0:0:0:
448,192,49479,1,0,0:0:0:0:
64,192,49563,1,0,0:0:0:0:
192,192,49646,1,0,0:0:0:0:
320,192,49729,1,0,0:0:0:0:
448,192,49813,1,0,0:0:0:0:
64,192,49896,1,0,0:0:0:0:
320,192,49896,1,0,0:0:0:0:
192,192,49979,1,0,0:0:0:0:
320,192,50063,1,0,0:0:0:0:
448,192,50146,1,0,0:0:0:0:
64,192,50229,1,0,0:0:0:0:
192,192,50229,1,0,0:0:0:0:
320,192,50313,1,0,0:0:0:0:
448,192,50313,1,0,0:0:0:0:
64,192,50396,1,0,0:0:0:0:
192,192,50396,1,0,0:0:0:0:
320,192,50479,1,0,0:0:0:0:
448,192,50479,1,0,0:0:0:0:
64,192,50563,1,0,0:0:0:0:
192,192,50563,1,0,0:0:0:0:
320,192,50646,1,0,0:0:0:0:
192,192,50729,1,0,0:0:0:0:
320,192,50813,1,0,0:0:0:0:
192,192,50896,1,0,0:0:0:0:
320,192,50979,1,0,0:0:0:0:
192,192,51063,1,0,0:0:0:0:
320,192,51146,1,0,0:0:0:0:
64,192,51229,1,0,0:0:0:0:
192,192,51229,1,0,0:0:0:0:
448,192,51229,1,0,0:0:0:0:
320,192,51396,1,0,0:0:0:0:
192,192,51563,1,0,0:0:0:0:
320,192,51563,1,0,0:0:0:0:
448,192,51563,1,0,0:0:0:0:
192,192,51729,1,0,0:0:0:0:
64,192,51896,1,0,0:0:0:0:
192,192,51896,1,0,0:0:0:0:
448,192,51896,1,0,0:0:0:0:
320,192,52063,1,0,0:0:0:0:
64,192,52229,1,0,0:0:0:0:
192,192,52229,1,0,0:0:0:0:
320,192,52229,1,0,0:0:0:0:
192,192,52396,1,0,0:0:0:0:
192,192,52563,1,0,0:0:0:0:
64,192,52563,1,0,0:0:0:0:
448,192,52563,1,0,0:0:0:0:
320,192,52729,1,0,0:0:0:0:
192,192,52896,1,0,0:0:0:0:
320,192,52896,1,0,0:0:0:0:
448,192,52896,1,0,0:0:0:0:
448,192,53063,1,0,0:0:0:0:
64,192,53229,1,0,0:0:0:0:
192,192,53229,1,0,0:0:0:0:
448,192,53229,1,0,0:0:0:0:
192,192,53396,1,0,0:0:0:0:
192,192,53563,1,0,0:0:0:0:
320,192,53563,1,0,0:0:0:0:
448,192,53563,1,0,0:0:0:0:
320,192,53729,1,0,0:0:0:0:
64,192,53896,1,0,0:0:0:0:
320,192,53896,1,0,0:0:0:0:
448,192,53896,1,0,0:0:0:0:
192,192,53979,1,0,0:0:0:0:
320,192,54063,1,0,0:0:0:0:
448,192,54146,1,0,0:0:0:0:
64,192,54146,1,0,0:0:0:0:
320,192,54229,1,0,0:0:0:0:
448,192,54313,1,0,0:0:0:0:
64,192,54396,1,0,0:0:0:0:
320,192,54396,1,0,0:0:0:0:
192,192,54479,1,0,0:0:0:0:
448,192,54479,1,0,0:0:0:0:
64,192,54563,1,0,0:0:0:0:
320,192,54563,1,0,0:0:0:0:
192,192,54646,1,0,0:0:0:0:
448,192,54646,1,0,0:0:0:0:
64,192,54729,1,0,0:0:0:0:
320,192,54729,1,0,0:0:0:0:
192,192,54813,1,0,0:0:0:0:
320,192,54896,1,0,0:0:0:0:
448,192,54979,1,0,0:0:0:0:
320,192,55063,1,0,0:0:0:0:
192,192,55146,1,0,0:0:0:0:
64,192,55229,1,0,0:0:0:0:
192,192,55313,1,0,0:0:0:0:
64,192,55396,1,0,0:0:0:0:
192,192,55479,1,0,0:0:0:0:
64,192,55563,1,0,0:0:0:0:
192,192,55646,1,0,0:0:0:0:
64,192,55729,128,0,57229:0:0:0:0:
448,192,55813,1,0,0:0:0:0:
320,192,55896,1,0,0:0:0:0:
448,192,55979,1,0,0:0:0:0:
320,192,56063,1,0,0:0:0:0:
448,192,56146,1,0,0:0:0:0:
320,192,56229,1,0,0:0:0:0:
192,192,56313,1,0,0:0:0:0:
320,192,56396,1,0,0:0:0:0:
448,192,56563,1,0,0:0:0:0:
320,192,56563,1,0,0:0:0:0:
192,192,56729,1,0,0:0:0:0:
448,192,56729,1,0,0:0:0:0:
320,192,56896,1,0,0:0:0:0:
192,192,57063,1,0,0:0:0:0:
448,192,57063,1,0,0:0:0:0:
320,192,57229,1,0,0:0:0:0:
192,192,57229,1,0,0:0:0:0:
320,192,57396,1,0,0:0:0:0:
192,192,57563,1,0,0:0:0:0:
448,192,57563,1,0,0:0:0:0:
320,192,57729,1,0,0:0:0:0:
448,192,57729,1,0,0:0:0:0:
64,192,57729,128,0,58063:0:0:0:0:
448,192,58063,1,0,0:0:0:0:
320,192,58146,1,0,0:0:0:0:
192,192,58229,1,0,0:0:0:0:
64,192,58313,1,0,0:0:0:0:
192,192,58396,1,0,0:0:0:0:
320,192,58479,1,0,0:0:0:0:
64,192,58563,1,0,0:0:0:0:
448,192,58563,1,0,0:0:0:0:
192,192,58563,1,0,0:0:0:0:
64,192,58813,128,0,58896:0:0:0:0:
320,192,58813,128,0,58896:0:0:0:0:
448,192,58813,128,0,58896:0:0:0:0:
192,192,59063,128,0,59146:0:0:0:0:
320,192,59063,128,0,59146:0:0:0:0:
448,192,59063,128,0,59146:0:0:0:0:
64,192,59229,1,0,0:0:0:0:
192,192,59285,1,0,0:0:0:0:
320,192,59341,1,0,0:0:0:0:
448,192,59396,1,0,0:0:0:0:
320,192,59452,1,0,0:0:0:0:
192,192,59507,1,0,0:0:0:0:
64,192,59563,128,0,60229:0:0:0:0:
320,192,59563,1,0,0:0:0:0:
192,192,59729,1,0,0:0:0:0:
448,192,59729,1,0,0:0:0:0:
320,192,59896,1,0,0:0:0:0:
192,192,60063,1,0,0:0:0:0:
448,192,60063,1,0,0:0:0:0:
192,192,60229,1,0,0:0:0:0:
320,192,60229,1,0,0:0:0:0:
448,192,60229,1,0,0:0:0:0:
320,192,60396,1,0,0:0:0:0:
192,192,60563,1,0,0:0:0:0:
448,192,60563,1,0,0:0:0:0:
64,192,60618,1,0,0:0:0:0:
192,192,60674,1,0,0:0:0:0:
320,192,60729,1,0,0:0:0:0:
448,192,60785,1,0,0:0:0:0:
320,192,60841,1,0,0:0:0:0:
192,192,60896,1,0,0:0:0:0:
64,192,60952,1,0,0:0:0:0:
320,192,60952,1,0,0:0:0:0:
448,192,61007,1,0,0:0:0:0:
320,192,61063,1,0,0:0:0:0:
64,192,61118,1,0,0:0:0:0:
192,192,61118,1,0,0:0:0:0:
320,192,61174,1,0,0:0:0:0:
448,192,61229,1,0,0:0:0:0:
320,192,61285,1,0,0:0:0:0:
192,192,61341,1,0,0:0:0:0:
64,192,61396,1,0,0:0:0:0:
192,192,61452,1,0,0:0:0:0:
448,192,61452,1,0,0:0:0:0:
320,192,61507,1,0,0:0:0:0:
448,192,61563,1,0,0:0:0:0:
320,192,61618,1,0,0:0:0:0:
192,192,61674,1,0,0:0:0:0:
64,192,61729,128,0,61896:0:0:0:0:
192,192,61896,1,0,0:0:0:0:
320,192,61896,1,0,0:0:0:0:
448,192,61896,1,0,0:0:0:0:
448,192,62063,1,0,0:0:0:0:
64,192,62229,1,0,0:0:0:0:
320,192,62229,1,0,0:0:0:0:
448,192,62229,1,0,0:0:0:0:
192,192,62396,1,0,0:0:0:0:
64,192,62563,1,0,0:0:0:0:
192,192,62563,1,0,0:0:0:0:
320,192,62563,1,0,0:0:0:0:
320,192,62729,1,0,0:0:0:0:
64,192,62896,1,0,0:0:0:0:
320,192,62896,1,0,0:0:0:0:
448,192,62896,1,0,0:0:0:0:
192,192,63063,1,0,0:0:0:0:
64,192,63229,1,0,0:0:0:0:
192,192,63229,1,0,0:0:0:0:
320,192,63229,1,0,0:0:0:0:
320,192,63396,1,0,0:0:0:0:
64,192,63563,1,0,0:0:0:0:
192,192,63563,1,0,0:0:0:0:
448,192,63563,1,0,0:0:0:0:
320,192,63729,1,0,0:0:0:0:
192,192,63896,1,0,0:0:0:0:
320,192,63896,1,0,0:0:0:0:
448,192,63896,1,0,0:0:0:0:
192,192,64063,1,0,0:0:0:0:
64,192,64063,1,0,0:0:0:0:
320,192,64063,1,0,0:0:0:0:
448,192,64229,1,0,0:0:0:0:
320,192,64285,1,0,0:0:0:0:
192,192,64341,1,0,0:0:0:0:
64,192,64396,1,0,0:0:0:0:
192,192,64452,1,0,0:0:0:0:
320,192,64507,1,0,0:0:0:0:
448,192,64563,128,0,66063:0:0:0:0:
64,192,64563,1,0,0:0:0:0:
192,192,64729,1,0,0:0:0:0:
320,192,64729,1,0,0:0:0:0:
64,192,64896,1,0,0:0:0:0:
192,192,64896,1,0,0:0:0:0:
192,192,65063,1,0,0:0:0:0:
320,192,65063,1,0,0:0:0:0:
192,192,65229,1,0,0:0:0:0:
320,192,65229,1,0,0:0:0:0:
64,192,65229,128,0,66063:0:0:0:0:
192,192,65729,1,0,0:0:0:0:
320,192,65896,1,0,0:0:0:0:
192,192,66063,1,0,0:0:0:0:
320,192,66063,1,0,0:0:0:0:
192,192,66229,1,0,0:0:0:0:
320,192,66229,1,0,0:0:0:0:
64,192,66396,1,0,0:0:0:0:
192,192,66396,1,0,0:0:0:0:
320,192,66396,1,0,0:0:0:0:
64,192,66563,1,0,0:0:0:0:
192,192,66563,1,0,0:0:0:0:
320,192,66563,1,0,0:0:0:0:
448,192,66563,1,0,0:0:0:0:
192,192,66729,128,0,67063:0:0:0:0:
448,192,66729,128,0,67063:0:0:0:0:
320,192,66729,128,0,67063:0:0:0:0:
64,192,67063,1,0,0:0:0:0:
192,192,67146,1,0,0:0:0:0:
320,192,67229,1,0,0:0:0:0:
448,192,67313,1,0,0:0:0:0:
320,192,67396,1,0,0:0:0:0:
192,192,67479,1,0,0:0:0:0:
64,192,67563,1,0,0:0:0:0:
320,192,67563,1,0,0:0:0:0:
448,192,67563,1,0,0:0:0:0:
192,192,67729,1,0,0:0:0:0:
320,192,67729,1,0,0:0:0:0:
64,192,67896,1,0,0:0:0:0:
192,192,67896,1,0,0:0:0:0:
320,192,67896,1,0,0:0:0:0:
64,192,68063,1,0,0:0:0:0:
320,192,68063,1,0,0:0:0:0:
64,192,68229,1,0,0:0:0:0:
192,192,68229,1,0,0:0:0:0:
448,192,68229,1,0,0:0:0:0:
448,192,68396,1,0,0:0:0:0:
64,192,68396,1,0,0:0:0:0:
192,192,68563,1,0,0:0:0:0:
320,192,68563,1,0,0:0:0:0:
448,192,68563,1,0,0:0:0:0:
192,192,68729,1,0,0:0:0:0:
320,192,68729,1,0,0:0:0:0:
64,192,68896,1,0,0:0:0:0:
320,192,68896,1,0,0:0:0:0:
448,192,68896,1,0,0:0:0:0:
192,192,69063,1,0,0:0:0:0:
448,192,69063,1,0,0:0:0:0:
64,192,69229,1,0,0:0:0:0:
192,192,69229,1,0,0:0:0:0:
320,192,69229,1,0,0:0:0:0:
192,192,69396,1,0,0:0:0:0:
320,192,69396,1,0,0:0:0:0:
448,192,69396,1,0,0:0:0:0:
320,192,69563,1,0,0:0:0:0:
320,192,69646,1,0,0:0:0:0:
64,192,69729,1,0,0:0:0:0:
192,192,69729,1,0,0:0:0:0:
448,192,69729,1,0,0:0:0:0:
320,192,69896,128,0,70563:0:0:0:0:
64,192,69896,1,0,0:0:0:0:
192,192,70063,1,0,0:0:0:0:
448,192,70229,1,0,0:0:0:0:
192,192,70396,1,0,0:0:0:0:
64,192,70563,1,0,0:0:0:0:
192,192,70729,1,0,0:0:0:0:
320,192,70729,1,0,0:0:0:0:
448,192,70896,1,0,0:0:0:0:
64,192,70896,1,0,0:0:0:0:
64,192,71063,1,0,0:0:0:0:
448,192,71063,1,0,0:0:0:0:
192,192,71118,1,0,0:0:0:0:
320,192,71174,1,0,0:0:0:0:
448,192,71229,1,0,0:0:0:0:
320,192,71285,1,0,0:0:0:0:
192,192,71341,1,0,0:0:0:0:
320,192,71396,1,0,0:0:0:0:
448,192,71452,128,0,72229:0:0:0:0:
64,192,71563,1,0,0:0:0:0:
64,192,71729,1,0,0:0:0:0:
320,192,71729,1,0,0:0:0:0:
192,192,71896,1,0,0:0:0:0:
192,192,72063,1,0,0:0:0:0:
320,192,72063,1,0,0:0:0:0:
64,192,72229,1,0,0:0:0:0:
320,192,72229,1,0,0:0:0:0:
192,192,72396,1,0,0:0:0:0:
192,192,72479,1,0,0:0:0:0:
64,192,72563,1,0,0:0:0:0:
320,192,72563,1,0,0:0:0:0:
448,192,72563,1,0,0:0:0:0:
448,192,72729,1,0,0:0:0:0:
64,192,72813,1,0,0:0:0:0:
448,192,72896,1,0,0:0:0:0:
192,192,72979,1,0,0:0:0:0:
320,192,73063,1,0,0:0:0:0:
448,192,73146,1,0,0:0:0:0:
320,192,73229,1,0,0:0:0:0:
192,192,73313,1,0,0:0:0:0:
64,192,73396,1,0,0:0:0:0:
192,192,73479,1,0,0:0:0:0:
320,192,73563,1,0,0:0:0:0:
448,192,73646,1,0,0:0:0:0:
192,192,73646,1,0,0:0:0:0:
64,192,73729,1,0,0:0:0:0:
192,192,73813,1,0,0:0:0:0:
448,192,73813,1,0,0:0:0:0:
320,192,73896,1,0,0:0:0:0:
192,192,73979,1,0,0:0:0:0:
64,192,74063,1,0,0:0:0:0:
448,192,74063,1,0,0:0:0:0:
192,192,74146,1,0,0:0:0:0:
320,192,74229,1,0,0:0:0:0:
192,192,74313,1,0,0:0:0:0:
320,192,74396,1,0,0:0:0:0:
448,192,74396,1,0,0:0:0:0:
192,192,74479,1,0,0:0:0:0:
64,192,74563,1,0,0:0:0:0:
448,192,74646,1,0,0:0:0:0:
64,192,74729,1,0,0:0:0:0:
448,192,74813,1,0,0:0:0:0:
64,192,74896,1,0,0:0:0:0:
192,192,74952,1,0,0:0:0:0:
320,192,75007,1,0,0:0:0:0:
448,192,75063,1,0,0:0:0:0:
320,192,75118,1,0,0:0:0:0:
192,192,75174,1,0,0:0:0:0:
64,192,75229,128,0,75563:0:0:0:0:
448,192,75229,128,0,75563:0:0:0:0:
192,192,75563,1,0,0:0:0:0:
320,192,75563,1,0,0:0:0:0:
192,192,75729,128,0,75979:0:0:0:0:
320,192,75729,128,0,75979:0:0:0:0:
64,192,76063,1,0,0:0:0:0:
448,192,76146,1,0,0:0:0:0:
64,192,76229,1,0,0:0:0:0:
448,192,76313,1,0,0:0:0:0:
64,192,76396,1,0,0:0:0:0:
192,192,76479,1,0,0:0:0:0:
320,192,76563,1,0,0:0:0:0:
448,192,76646,1,0,0:0:0:0:
320,192,76729,1,0,0:0:0:0:
192,192,76813,1,0,0:0:0:0:
64,192,76896,1,0,0:0:0:0:
448,192,76896,1,0,0:0:0:0:
192,192,76979,1,0,0:0:0:0:
320,192,77063,1,0,0:0:0:0:
448,192,77146,1,0,0:0:0:0:
64,192,77229,128,0,77396:0:0:0:0:
320,192,77396,128,0,77563:0:0:0:0:
192,192,77396,1,0,0:0:0:0:
192,192,77563,128,0,77729:0:0:0:0:
448,192,77563,1,0,0:0:0:0:
64,192,77729,128,0,77896:0:0:0:0:
448,192,77729,1,0,0:0:0:0:
448,192,77896,128,0,78063:0:0:0:0:
192,192,77896,1,0,0:0:0:0:
64,192,78063,1,0,0:0:0:0:
320,192,78063,1,0,0:0:0:0:
192,192,78146,1,0,0:0:0:0:
320,192,78229,1,0,0:0:0:0:
448,192,78313,1,0,0:0:0:0:
320,192,78396,1,0,0:0:0:0:
192,192,78479,1,0,0:0:0:0:
64,192,78563,1,0,0:0:0:0:
192,192,78646,1,0,0:0:0:0:
320,192,78729,1,0,0:0:0:0:
448,192,78785,1,0,0:0:0:0:
320,192,78841,1,0,0:0:0:0:
448,192,78896,1,0,0:0:0:0:
320,192,78952,1,0,0:0:0:0:
192,192,79007,1,0,0:0:0:0:
64,192,79063,1,0,0:0:0:0:
448,192,79063,1,0,0:0:0:0:
192,192,79229,1,0,0:0:0:0:
320,192,79396,1,0,0:0:0:0:
448,192,79563,1,0,0:0:0:0:
320,192,79729,1,0,0:0:0:0:
64,192,79896,1,0,0:0:0:0:
192,192,79896,1,0,0:0:0:0:
448,192,79979,1,0,0:0:0:0:
320,192,80063,1,0,0:0:0:0:
192,192,80146,1,0,0:0:0:0:
64,192,80229,1,0,0:0:0:0:
192,192,80313,1,0,0:0:0:0:
448,192,80313,1,0,0:0:0:0:
320,192,80396,1,0,0:0:0:0:
448,192,80479,1,0,0:0:0:0:
320,192,80563,1,0,0:0:0:0:
192,192,80646,1,0,0:0:0:0:
64,192,80729,1,0,0:0:0:0:
192,192,80813,1,0,0:0:0:0:
320,192,80896,1,0,0:0:0:0:
192,192,80979,1,0,0:0:0:0:
64,192,81063,1,0,0:0:0:0:
192,192,81146,1,0,0:0:0:0:
320,192,81229,1,0,0:0:0:0:
448,192,81313,1,0,0:0:0:0:
320,192,81396,1,0,0:0:0:0:
192,192,81452,1,0,0:0:0:0:
64,192,81507,1,0,0:0:0:0:
192,192,81563,1,0,0:0:0:0:
64,192,81618,1,0,0:0:0:0:
192,192,81674,1,0,0:0:0:0:
320,192,81729,1,0,0:0:0:0:
448,192,81729,1,0,0:0:0:0:
192,192,81896,1,0,0:0:0:0:
320,192,82063,1,0,0:0:0:0:
448,192,82229,1,0,0:0:0:0:
192,192,82396,1,0,0:0:0:0:
320,192,82396,1,0,0:0:0:0:
448,192,82479,1,0,0:0:0:0:
64,192,82479,1,0,0:0:0:0:
192,192,82563,1,0,0:0:0:0:
320,192,82563,1,0,0:0:0:0:
64,192,82646,1,0,0:0:0:0:
448,192,82646,1,0,0:0:0:0:
192,192,82729,1,0,0:0:0:0:
320,192,82729,1,0,0:0:0:0:
448,192,82813,1,0,0:0:0:0:
64,192,82813,1,0,0:0:0:0:
64,192,82896,1,0,0:0:0:0:
192,192,82896,1,0,0:0:0:0:
320,192,82896,1,0,0:0:0:0:
448,192,82896,1,0,0:0:0:0:
64,192,83229,1,0,0:0:0:0:
320,192,83229,1,0,0:0:0:0:
192,192,83396,1,0,0:0:0:0:
64,192,83563,1,0,0:0:0:0:
448,192,83563,1,0,0:0:0:0:
320,192,83729,1,0,0:0:0:0:
448,192,83896,1,0,0:0:0:0:
192,192,83896,1,0,0:0:0:0:
320,192,84063,1,0,0:0:0:0:
64,192,84063,1,0,0:0:0:0:
448,192,84063,1,0,0:0:0:0:
64,192,84229,1,0,0:0:0:0:
192,192,84229,1,0,0:0:0:0:
448,192,84229,1,0,0:0:0:0:
64,192,84396,1,0,0:0:0:0:
192,192,84396,1,0,0:0:0:0:
320,192,84396,1,0,0:0:0:0:
64,192,84563,1,0,0:0:0:0:
448,192,84563,1,0,0:0:0:0:
192,192,84729,1,0,0:0:0:0:
192,192,84896,1,0,0:0:0:0:
320,192,84896,1,0,0:0:0:0:
320,192,85063,1,0,0:0:0:0:
448,192,85118,1,0,0:0:0:0:
320,192,85174,1,0,0:0:0:0:
192,192,85229,1,0,0:0:0:0:
64,192,85285,1,0,0:0:0:0:
448,192,85396,1,0,0:0:0:0:
320,192,85563,1,0,0:0:0:0:
448,192,85563,1,0,0:0:0:0:
192,192,85729,1,0,0:0:0:0:
192,192,85813,1,0,0:0:0:0:
320,192,85896,1,0,0:0:0:0:
448,192,85896,1,0,0:0:0:0:
64,192,85896,1,0,0:0:0:0:
192,192,86063,1,0,0:0:0:0:
320,192,86229,1,0,0:0:0:0:
448,192,86396,1,0,0:0:0:0:
64,192,86563,1,0,0:0:0:0:
320,192,86563,1,0,0:0:0:0:
192,192,86729,1,0,0:0:0:0:
320,192,86813,1,0,0:0:0:0:
448,192,86896,1,0,0:0:0:0:
64,192,86979,1,0,0:0:0:0:
448,192,87063,1,0,0:0:0:0:
64,192,87146,1,0,0:0:0:0:
448,192,87229,1,0,0:0:0:0:
64,192,87313,1,0,0:0:0:0:
448,192,87396,1,0,0:0:0:0:
64,192,87479,1,0,0:0:0:0:
320,192,87563,1,0,0:0:0:0:
192,192,87646,1,0,0:0:0:0:
320,192,87729,1,0,0:0:0:0:
192,192,87813,1,0,0:0:0:0:
320,192,87896,1,0,0:0:0:0:
192,192,87979,1,0,0:0:0:0:
448,192,88063,1,0,0:0:0:0:
64,192,88063,1,0,0:0:0:0:
320,192,88063,1,0,0:0:0:0:
64,192,88229,1,0,0:0:0:0:
448,192,88229,1,0,0:0:0:0:
192,192,88229,1,0,0:0:0:0:
