osu file format v14

[General]
AudioFilename: killy killy Joker.mp3
AudioLeadIn: 0
PreviewTime: -1
Countdown: 1
SampleSet: Soft
StackLeniency: 0.7
Mode: 0
LetterboxInBreaks: 1
WidescreenStoryboard: 1

[Editor]
DistanceSpacing: 0.7
BeatDivisor: 4
GridSize: 4
TimelineZoom: 1

[Metadata]
Title:killy killy JOKER
TitleUnicode:killy killy JOKER
Artist:Wakeshima Kanon
ArtistUnicode:分島花音
Creator:toybot
Version:Insane
Source:selector infected WIXOSS
Tags:
BeatmapID:717392
BeatmapSetID:270747

[Difficulty]
HPDrainRate:6.5
CircleSize:4
OverallDifficulty:7
ApproachRate:9
SliderMultiplier:1.6
SliderTickRate:2

[Events]
//Background and Video events
0,0,"wixoss.jpg",0,0
//Break Periods
2,145825,155691
//Storyboard Layer 0 (Background)
//Storyboard Layer 1 (Fail)
//Storyboard Layer 2 (Pass)
//Storyboard Layer 3 (Foreground)
//Storyboard Sound Samples

[TimingPoints]
-1040,666.666666666667,4,2,1,20,1,0
959,-125,4,2,1,15,0,0
1459,-125,4,2,1,5,0,0
1626,-100,4,2,1,15,0,0
9626,-100,4,2,1,25,0,0
11626,-100,4,2,2,55,0,0
12292,333.333333333333,4,2,2,60,1,0
12292,-111.111111111111,4,2,2,70,0,0
16125,-99.9999999999999,4,2,2,70,0,0
21458,-90.9090909090909,4,2,2,70,0,0
22958,-133.333333333333,4,2,1,40,0,0
27791,-133.333333333333,4,2,2,50,0,0
28291,-111.111111111111,4,2,2,60,0,0
33625,-133.333333333333,4,2,1,60,0,0
33958,-133.333333333333,4,2,1,40,0,0
36958,-152.380952380952,4,2,1,40,0,0
38291,-152.380952380952,4,2,1,50,0,0
38958,-111.111111111111,4,2,1,60,0,0
44291,-166.666666666667,4,2,1,40,0,0
52291,-133.333333333333,4,2,1,45,0,0
53625,-117.647058823529,4,2,1,45,0,0
54958,-111.111111111111,4,2,1,60,0,0
58125,-100,4,2,1,60,0,0
64458,-90.9090909090909,4,2,1,60,0,0
64958,-90.9090909090909,4,2,1,70,0,0
65291,-90.9090909090909,4,2,2,70,0,0
65625,-90.9090909090909,4,2,3,70,0,1
68458,-90.9090909090909,4,2,30,70,0,1
68625,-90.9090909090909,4,2,3,70,0,1
76291,-100,4,2,3,70,0,1
80291,-90.9090909090909,4,2,3,70,0,1
81125,-90.9090909090909,4,2,3,60,0,0
81625,-90.9090909090909,4,2,3,70,0,1
92291,-100,4,2,3,70,0,1
97625,-90.9090909090909,4,2,3,70,0,0
102958,-111.111111111111,4,2,2,60,0,0
106791,-100,4,2,2,70,0,0
107958,-90.9090909090909,4,2,2,70,0,0
108291,-100,4,2,2,70,0,0
113625,-100,4,2,1,60,0,0
118291,-90.9090909090909,4,2,1,70,0,0
123625,-100,4,2,1,60,0,0
127791,-125,4,2,1,60,0,0
128125,-100,4,2,1,60,0,0
129625,-90.9090909090909,4,2,1,70,0,0
134958,-100,4,2,1,60,0,0
139291,-111.111111111111,4,2,1,60,0,0
140291,-100,4,2,1,60,0,0
145291,-83.3333333333333,4,2,1,60,0,0
156291,-100,4,3,4,60,0,0
158625,-100,4,1,3,60,0,0
158958,-100,4,3,4,60,0,0
161291,-100,4,1,3,60,0,0
161625,-100,4,3,4,60,0,0
163958,-100,4,1,3,60,0,0
164458,-100,4,2,3,50,0,0
166958,-133.333333333333,4,2,1,30,0,0
174958,-100,4,2,1,30,0,0
176291,-100,4,2,1,50,0,0
177625,-100,4,2,2,60,0,0
182458,-111.111111111111,4,2,2,60,0,0
182791,-111.111111111111,4,2,2,40,0,0
182958,-100,4,2,2,60,0,0
185625,-111.111111111111,4,2,2,60,0,0
188291,-142.857142857143,4,2,2,40,0,0
192125,-142.857142857143,4,2,2,30,0,0
198958,-142.857142857143,4,2,1,30,0,0
204291,-111.111111111111,4,1,1,20,0,0
204958,-105.263157894737,4,1,1,25,0,0
205625,-100,4,1,1,30,0,0
206291,-95.2380952380952,4,1,1,35,0,0
206958,-90.9090909090909,4,3,1,50,0,0
208958,-90.9090909090909,4,1,1,50,0,0
209625,-90.9090909090909,4,2,69,80,0,1
209791,-90.9090909090909,4,2,3,80,0,1
222291,-90.9090909090909,4,3,3,70,0,1
222958,-100,4,2,3,70,0,1
224291,-90.9090909090909,4,2,3,70,0,1
224958,-90.9090909090909,4,1,3,60,0,1
225125,-90.9090909090909,4,1,3,60,0,0
225625,-90.9090909090909,4,2,3,80,0,1

[Colours]
Combo1 : 131,131,131
Combo2 : 128,0,0
Combo3 : 160,68,168
Combo4 : 215,57,62

[HitObjects]
84,140,960,6,0,P|136:164|196:152,1,96
196,152,1626,6,0,P|188:196|196:244,2,80,2|0|0,0:0|0:0|0:0,0:0:0:0:
244,88,2626,1,0,0:0:0:0:
320,68,2959,6,0,L|404:64,1,80,2|0,0:0|0:0,0:0:0:0:
424,152,3626,2,0,L|344:148,1,80
284,212,4293,6,0,P|276:260|292:308,2,80,2|0|0,0:0|0:0|0:0,0:0:0:0:
344,148,5293,1,0,0:0:0:0:
260,124,5626,6,0,B|152:112|212:152|84:136,2,160,2|2|2,0:0|0:0|0:0,0:0:0:0:
356,252,7626,1,0,0:0:0:0:
356,252,8293,6,0,L|272:248,1,80,2|0,0:0|0:0,0:0:0:0:
168,324,8959,2,0,P|192:280|156:168,1,160,0|2,0:0|0:0,0:0:0:0:
256,192,9959,12,8,11626,0:0:0:0:
160,120,11959,5,0,0:0:0:0:
159,134,12043,1,0,0:0:0:0:
158,148,12126,1,0,0:0:0:0:
157,162,12209,1,0,0:0:0:0:
156,176,12293,6,0,B|210:173|210:173|244:184|244:184|303:181,1,143.999995605469,4|8,0:0|0:0,0:0:0:0:
376,144,12792,1,0,0:0:0:0:
412,260,12958,2,0,L|408:348,1,71.9999978027344,0|2,0:0|0:0,0:0:0:0:
328,288,13291,1,10,0:0:0:0:
492,296,13458,6,0,L|500:145,1,143.999995605469,2|0,0:0|0:0,0:0:0:0:
456,64,13958,1,8,0:0:0:0:
356,176,14125,2,0,B|302:173|302:173|268:184|268:184|209:181,1,143.999995605469,2|0,0:0|0:0,0:0:0:0:
116,240,14625,1,8,0:0:0:0:
118,261,14708,1,0,0:0:0:0:
120,282,14791,1,0,0:0:0:0:
122,303,14875,1,0,0:0:0:0:
125,324,14958,6,0,L|204:320,1,71.9999978027344,2|0,0:0|0:0,0:0:0:0:
328,348,15291,2,0,P|304:296|336:200,1,143.999995605469,8|0,0:0|0:0,0:0:0:0:
340,204,15708,1,0,0:0:0:0:
360,196,15791,2,0,L|424:200,1,35.9999989013672,2|0,0:0|0:0,0:0:0:0:
280,132,15958,2,0,L|240:136,1,35.9999989013672,8|0,0:0|0:0,0:0:0:0:
188,220,16125,6,0,P|128:236|36:176,1,160,4|0,1:0|0:0,0:0:0:0:
256,164,16625,2,0,P|276:216|260:268,1,80,14|0,0:0|0:0,0:0:0:0:
216,316,16958,1,0,0:0:0:0:
176,132,17125,2,0,L|180:48,1,80,6|8,0:0|0:0,0:0:0:0:
368,48,17458,1,0,0:0:0:0:
368,48,17541,1,0,0:0:0:0:
368,48,17625,6,0,P|400:84|380:196,2,160,4|10|2,1:0|0:0|0:0,0:0:0:0:
316,128,18458,1,0,0:0:0:0:
452,232,18625,1,8,0:0:0:0:
474,62,18791,1,0,0:0:0:0:
474,62,18875,1,0,0:0:0:0:
474,62,18958,6,0,L|372:56,1,80,2|0,0:0|0:0,0:0:0:0:
296,148,19291,1,8,0:0:0:0:
388,132,19458,2,0,P|352:72|252:64,1,160,2|2,0:0|0:0,0:0:0:0:
200,160,19958,1,8,0:0:0:0:
312,252,20125,1,0,0:0:0:0:
312,252,20208,1,0,0:0:0:0:
312,252,20291,6,0,B|360:248|360:248|424:260|424:260|476:256,2,160,2|10|2,0:0|0:0|0:0,0:0:0:0:
208,328,21125,2,0,L|204:380,2,40,0|0|8,0:0|0:0|0:0,0:0:0:0:
216,212,21458,6,0,L|212:72,1,132.00000402832,4|0,0:0|0:0,0:0:0:0:
212,56,21791,1,4,3:0:0:0:
128,172,21958,2,0,P|80:184|32:164,1,88.000002685547,8|0,0:0|0:0,0:0:0:0:
144,8,22291,1,0,1:0:0:0:
297,96,22458,5,4,3:0:0:0:
298,117,22541,1,0,3:0:0:0:
298,138,22625,1,0,3:0:0:0:
299,159,22708,1,0,3:0:0:0:
300,180,22792,1,0,3:0:0:0:
300,201,22875,1,0,3:0:0:0:
301,222,22959,5,6,0:0:0:0:
240,276,23291,1,2,0:3:0:0:
170,233,23625,1,2,0:3:0:0:
189,153,23958,1,2,0:3:0:0:
270,146,24291,6,0,L|399:151,1,120.000004577637,2|2,0:3|0:3,0:0:0:0:
448,212,24791,2,0,B|440:172|440:172|448:76,1,120.000004577637
416,16,25291,2,0,L|475:13,1,60.0000022888184,2|8,0:3|0:1,0:0:0:0:
344,56,25625,5,8,0:1:0:0:
264,24,25958,1,2,0:3:0:0:
208,90,26291,1,2,0:3:0:0:
253,162,26625,1,2,0:3:0:0:
338,142,26958,6,0,P|352:108|320:28,1,120.000004577637,2|2,0:3|0:3,0:0:0:0:
240,8,27458,2,0,L|120:12,1,120.000004577637,0|0,0:0|1:0,0:0:0:0:
32,116,27958,1,8,0:0:0:0:
32,116,28291,6,0,B|28:168|28:168|40:208|40:208|36:260,1,143.999995605469,4|10,0:0|0:0,0:0:0:0:
108,328,28791,1,0,0:0:0:0:
235,224,28958,2,0,L|164:228,2,71.9999978027344,0|0|0,0:0|1:0|0:0,0:0:0:0:
288,292,29458,6,0,P|316:256|292:160,1,143.999995605469,0|0,1:0|0:0,0:0:0:0:
212,116,29958,1,8,0:0:0:0:
308,72,30125,2,0,L|464:76,2,143.999995605469,0|0|0,0:0|1:0|0:0,0:0:0:0:
204,20,30958,6,0,L|128:24,1,71.9999978027344,2|0,0:0|0:0,0:0:0:0:
48,84,31291,1,8,0:0:0:0:
140,180,31458,1,0,0:0:0:0:
208,32,31625,2,0,L|116:36,1,71.9999978027344,0|8,0:0|1:2,0:0:0:0:
48,236,32125,6,0,L|192:240,1,143.999995605469,2|0,0:0|0:0,0:0:0:0:
264,184,32625,1,8,0:0:0:0:
308,276,32791,1,2,0:0:0:0:
403,196,32958,1,2,0:0:0:0:
385,198,33042,1,0,0:0:0:0:
368,200,33125,1,0,0:0:0:0:
388,336,33291,1,8,0:0:0:0:
272,252,33458,1,0,0:0:0:0:
272,252,33541,1,0,0:0:0:0:
272,252,33625,6,0,L|196:248,1,60.0000022888184,6|0,0:0|0:0,0:0:0:0:
120,244,33958,1,2,0:3:0:0:
92,160,34291,1,2,0:3:0:0:
131,80,34625,1,2,0:3:0:0:
215,52,34957,1,2,0:3:0:0:
295,91,35291,1,2,0:3:0:0:
323,175,35625,1,2,0:3:0:0:
323,175,35791,6,0,L|320:312,1,120.000004577637,8|0,1:0|0:0,0:0:0:0:
376,360,36291,5,2,1:3:0:0:
424,276,36625,1,2,0:3:0:0:
372,192,36958,2,0,B|344:168|304:160|268:168|244:212|244:212|248:176|240:128|212:108|168:100|168:100|128:128|124:168|136:200|176:200,1,420.000004005432,2|0,0:3|0:0,0:0:0:0:
156,196,38375,1,0,0:0:0:0:
156,196,38458,1,0,0:0:0:0:
156,196,38541,1,0,0:0:0:0:
172,212,38625,6,0,L|256:208,1,78.7500007510185,4|0,3:0|0:0,0:0:0:0:
280,192,38958,6,0,L|272:280,1,71.9999978027344,4|0,0:0|0:0,0:0:0:0:
224,348,39291,2,0,L|372:352,1,143.999995605469,10|0,0:0|0:0,0:0:0:0:
444,280,39791,1,8,1:2:0:0:
372,208,39958,1,0,0:0:0:0:
472,176,40125,6,0,P|480:132|460:88,1,71.9999978027344,2|0,0:0|0:0,0:0:0:0:
396,48,40458,2,0,L|312:52,1,71.9999978027344,2|8,0:0|0:0,0:0:0:0:
268,128,40791,2,0,L|156:124,1,107.999996704102
140,116,41125,1,2,0:0:0:0:
184,224,41291,1,8,0:0:0:0:
88,272,41458,1,0,0:0:0:0:
88,272,41541,1,0,0:0:0:0:
88,272,41625,6,0,L|4:268,2,71.9999978027344,0|0|8,0:0|0:0|0:0,0:0:0:0:
172,328,42125,2,0,P|224:304|320:332,1,143.999995605469
306,321,42625,1,8,0:0:0:0:
400,248,42791,6,0,P|420:208|384:100,1,143.999995605469,2|0,0:0|0:0,0:0:0:0:
264,184,43291,2,0,L|336:180,1,71.9999978027344,10|0,0:0|0:0,0:0:0:0:
480,92,43625,1,0,1:0:0:0:
320,64,43791,1,2,1:2:0:0:
320,64,44125,5,0,0:0:0:0:
256,128,44291,2,0,B|120:145|202:107|59:125,1,191.999994140625,2|0,0:0|0:0,0:0:0:0:
32,268,45625,2,0,P|96:308|208:276,1,191.999994140625,2|0,0:0|0:0,0:0:0:0:
280,144,46958,6,0,P|272:96|376:160,1,287.999991210938,2|0,0:0|0:0,0:0:0:0:
324,208,48125,1,0,0:0:0:0:
404,248,48291,6,0,L|504:244,1,95.9999970703126,2|0,0:0|0:0,0:0:0:0:
352,324,48958,2,0,L|240:316,1,95.9999970703126,2|0,0:0|0:0,0:0:0:0:
168,360,49625,6,0,P|212:328|200:196,1,191.999994140625,2|0,0:0|0:0,0:0:0:0:
68,136,50958,2,0,B|199:149|129:116|260:129,1,191.999994140625,2|0,0:0|0:0,0:0:0:0:
258,129,52291,6,0,L|262:213,1,60.0000022888184,0|2,0:0|0:0,0:0:0:0:
176,280,52625,2,0,L|184:208,1,60.0000022888184,2|0,0:0|0:0,0:0:0:0:
172,132,52958,2,0,L|100:120,1,60.0000022888184,2|0,0:0|0:0,0:0:0:0:
264,268,53291,2,0,L|336:264,1,60.0000022888184,2|0,0:0|0:0,0:0:0:0:
408,186,53625,5,8,0:1:0:0:
296,158,53791,1,8,0:1:0:0:
323,264,53958,1,8,0:0:0:0:
368,106,54125,6,0,P|336:78|232:94,1,136.000002593994,4|0,0:0|0:0,0:0:0:0:
200,180,54625,1,8,0:0:0:0:
276,280,54791,1,8,0:0:0:0:
192,176,54958,6,0,L|28:172,1,143.999995605469,4|8,0:0|0:0,0:0:0:0:
148,284,55458,2,0,P|208:256|300:280,1,143.999995605469,2|0,0:0|0:0,0:0:0:0:
352,328,55958,1,8,0:0:0:0:
392,228,56125,1,0,0:0:0:0:
392,228,56291,6,0,L|388:80,1,143.999995605469,2|8,0:0|0:0,0:0:0:0:
184,136,56791,2,0,P|224:160|328:140,1,143.999995605469,2|0,0:0|0:0,0:0:0:0:
200,32,57291,2,0,L|72:36,1,107.999996704102,8|0,0:0|0:0,0:0:0:0:
60,32,57625,5,2,0:0:0:0:
104,124,57791,2,0,P|116:176|104:224,1,71.9999978027344,0|8,0:0|0:0,0:0:0:0:
28,268,58125,6,0,P|96:236|188:264,1,160,4|0,0:0|0:0,0:0:0:0:
252,324,58625,1,8,0:0:0:0:
384,196,58791,6,0,P|320:160|216:204,1,160,4|0,0:0|0:0,0:0:0:0:
175,254,59291,1,8,0:0:0:0:
304,256,59458,6,0,B|308:200|308:200|296:156|296:156|300:88,2,160,4|10|0,0:0|1:2|0:0,0:0:0:0:
216,344,60291,6,0,L|128:348,1,80,4|0,0:0|0:0,0:0:0:0:
72,276,60625,1,8,0:0:0:0:
112,164,60791,1,0,0:0:0:0:
112,164,60875,1,0,0:0:0:0:
112,164,60958,1,2,0:0:0:0:
208,268,61125,2,0,L|287:264,1,80,2|8,0:0|0:0,0:0:0:0:
360,176,61458,6,0,B|308:172|308:172|256:184|256:184|196:180,1,160,6|0,0:0|0:0,0:0:0:0:
108,84,61958,2,0,L|110:128|112:172,1,80,8|0,0:0|0:0,0:0:0:0:
232,100,62291,2,0,P|230:62|228:12,1,80,2|0,0:0|0:0,0:0:0:0:
68,236,62625,2,0,P|107:237|164:240,1,80,8|0,0:0|0:0,0:0:0:0:
284,168,62958,5,2,1:2:0:0:
336,284,63125,1,8,0:0:0:0:
336,284,63208,1,0,0:0:0:0:
336,284,63291,2,0,L|332:340,2,40,8|0|0,1:2|1:0|1:0,0:0:0:0:
420,204,63625,1,0,1:0:0:0:
418,184,63708,1,0,1:0:0:0:
416,164,63791,1,0,1:0:0:0:
328,84,63958,2,0,L|232:88,1,80,8|0,0:0|1:0,0:0:0:0:
128,168,64291,5,0,1:0:0:0:
208,220,64458,2,0,P|223:167|147:73,1,176.000005371094,10|0,0:0|0:0,0:0:0:0:
136,72,64875,1,0,0:0:0:0:
116,72,64958,2,0,L|24:76,1,88.000002685547,10|0,0:0|0:0,0:0:0:0:
120,200,65291,1,8,0:0:0:0:
148,184,65375,1,0,0:0:0:0:
180,180,65458,1,0,0:0:0:0:
212,184,65541,1,0,0:0:0:0:
240,196,65625,6,0,P|268:268|260:304,1,88.000002685547,4|2,0:0|0:0,0:0:0:0:
312,144,65958,2,0,P|348:108|388:100,1,88.000002685547,8|2,1:2|0:0,0:0:0:0:
392,200,66291,1,0,0:0:0:0:
232,108,66458,1,2,0:0:0:0:
256,288,66625,2,0,P|248:344|220:380,1,88.000002685547,8|2,1:2|0:0,0:0:0:0:
211,201,66958,6,0,P|253:190|296:200,1,88.000002685547,0|2,0:2|0:0,0:0:0:0:
432,300,67291,2,0,L|344:303,1,88.000002685547,8|2,1:2|0:0,0:0:0:0:
136,316,67625,1,0,0:0:0:0:
148,152,67791,1,2,1:2:0:0:
256,288,67958,2,0,L|360:284,1,88.000002685547,8|2,1:2|0:0,0:0:0:0:
472,192,68291,6,0,B|408:160|348:200|348:200|352:144,1,176.000005371094,4|8,0:0|1:2,1:2:0:0:
468,96,68791,1,2,0:0:0:0:
416,268,68958,2,0,L|412:364,1,88.000002685547,0|2,0:0|0:0,0:0:0:0:
304,228,69291,2,0,L|296:132,1,88.000002685547,8|2,1:2|0:0,0:0:0:0:
328,52,69625,5,0,0:0:0:0:
216,196,69791,2,0,P|168:208|100:188,1,88.000002685547,2|8,0:0|1:2,0:0:0:0:
284,272,70125,2,0,P|352:256|444:316,1,176.000005371094,2|2,0:0|0:0,0:0:0:0:
208,328,70625,2,0,L|204:216,1,88.000002685547,8|2,1:2|0:0,0:0:0:0:
220,212,70875,1,0,0:0:0:0:
244,196,70958,6,0,L|340:200,1,88.000002685547,4|2,0:0|0:0,0:0:0:0:
408,92,71291,2,0,P|364:84|312:100,1,88.000002685547,8|2,1:2|0:0,0:0:0:0:
244,196,71625,1,0,0:0:0:0:
200,92,71791,1,2,0:0:0:0:
236,216,71958,2,0,L|232:312,1,88.000002685547,8|2,1:2|0:0,0:0:0:0:
52,208,72291,6,0,P|96:208|140:204,1,88.000002685547,0|2,0:0|0:0,0:0:0:0:
244,112,72625,2,0,P|200:92|140:108,1,88.000002685547,8|2,1:2|0:0,0:0:0:0:
52,208,72958,2,0,L|56:308,1,88.000002685547,0|2,0:0|1:2,0:0:0:0:
144,360,73291,1,8,1:2:0:0:
200,224,73458,1,0,1:0:0:0:
276,336,73625,6,0,B|320:344|320:344|352:332|352:332|392:356|456:336,1,176.000005371094,4|8,0:0|1:2,0:0:0:0:
404,244,74125,1,2,0:0:0:0:
492,168,74291,2,0,P|500:116|488:76,1,88.000002685547,0|2,0:0|0:0,0:0:0:0:
320,176,74625,2,0,L|324:276,1,88.000002685547,8|0,1:2|0:0,0:0:0:0:
416,128,74958,6,0,P|326:126|228:124,1,176.000005371094,0|8,0:0|1:2,0:0:0:0:
184,244,75458,1,2,0:0:0:0:
104,160,75625,1,0,3:0:0:0:
96,132,75708,1,0,3:0:0:0:
96,100,75791,1,2,3:0:0:0:
104,72,75875,1,0,3:0:0:0:
124,48,75958,1,8,3:2:0:0:
240,124,76125,1,2,0:0:0:0:
220,248,76291,6,0,B|172:240|172:240|112:284|56:252,1,160,4|8,0:0|1:2,0:0:0:0:
300,184,76791,2,0,P|272:248|320:336,1,160,4|0,0:0|0:0,0:0:0:0:
368,252,77291,1,8,1:2:0:0:
352,128,77458,6,0,P|263:131|184:132,1,160,4|0,0:0|0:0,0:0:0:0:
80,184,77958,2,0,P|140:192|176:224,1,80,8|0,1:2|0:0,0:0:0:0:
212,296,78291,6,0,B|255:292|255:292|284:302|284:302|332:299,1,120,8|4,1:3|1:3,0:0:0:0:
155,201,78791,1,4,3:0:0:0:
132,288,78958,6,0,P|188:284|244:192,1,160,0|12,0:0|0:0,0:0:0:0:
232,120,79458,1,2,0:0:0:0:
144,64,79625,2,0,L|48:60,1,80,0|2,0:0|0:0,0:0:0:0:
244,124,79958,2,0,L|324:120,1,80,8|2,1:2|0:0,0:0:0:0:
416,64,80291,6,0,B|392:112|416:160|416:160|412:208,1,132.00000402832,4|0,1:0|0:0,0:0:0:0:
404,208,80625,2,0,L|412:304,1,88.000002685547,12|2,0:0|0:0,0:0:0:0:
488,112,80958,1,4,1:0:0:0:
320,208,81125,1,0,1:0:0:0:
292,220,81208,1,0,1:0:0:0:
260,224,81291,1,0,1:0:0:0:
228,220,81375,1,0,1:0:0:0:
200,208,81458,1,0,1:0:0:0:
176,188,81541,1,0,1:0:0:0:
160,160,81625,6,0,L|156:68,1,88.000002685547,4|2,1:2|0:0,0:0:0:0:
256,116,81958,1,8,1:2:0:0:
184,260,82125,1,2,0:0:0:0:
0,136,82291,2,0,P|52:128|92:140,1,88.000002685547,0|2,0:0|0:0,0:0:0:0:
184,260,82625,2,0,P|132:268|92:256,1,88.000002685547,8|2,1:2|0:0,0:0:0:0:
4,128,82958,6,0,L|96:120,1,88.000002685547,0|2,0:0|0:0,0:0:0:0:
208,184,83291,2,0,L|196:80,1,88.000002685547,8|2,1:2|0:0,0:0:0:0:
136,16,83625,1,0,0:0:0:0:
120,200,83791,1,2,1:2:0:0:
268,88,83958,2,0,P|332:80|364:92,1,88.000002685547,8|2,1:2|0:0,0:0:0:0:
488,200,84291,6,0,B|361:179|438:220|299:198,1,176.000005371094,4|8,0:0|1:2,0:0:0:0:
256,96,84791,1,2,0:0:0:0:
204,220,84958,2,0,L|208:320,1,88.000002685547,0|2,0:0|0:0,0:0:0:0:
244,104,85291,1,8,1:2:0:0:
152,56,85458,1,2,0:0:0:0:
152,56,85541,1,0,0:0:0:0:
152,56,85625,6,0,L|92:52,1,44.0000013427735
24,32,85791,2,0,L|28:136,1,88.000002685547,2|8,0:0|1:2,0:0:0:0:
4,236,86125,2,0,P|88:216|176:284,1,176.000005371094,2|2,0:0|0:0,0:0:0:0:
208,360,86625,1,8,1:2:0:0:
268,244,86791,1,2,0:0:0:0:
268,244,86875,1,0,0:0:0:0:
268,244,86958,6,0,L|264:148,1,88.000002685547,4|2,0:0|0:0,0:0:0:0:
348,36,87291,2,0,B|360:80|360:80|348:152,1,88.000002685547,8|2,1:2|0:0,0:0:0:0:
180,192,87625,2,0,L|84:184,1,88.000002685547,0|2,0:0|0:0,0:0:0:0:
268,244,87958,1,8,1:2:0:0:
176,112,88125,1,2,0:0:0:0:
112,276,88291,6,0,P|113:321|116:368,1,88.000002685547
216,176,88625,2,0,P|220:130|224:76,1,88.000002685547,8|2,1:2|0:0,0:0:0:0:
248,304,88958,2,0,P|294:302|352:300,1,88.000002685547,0|2,0:0|1:2,0:0:0:0:
88,156,89291,2,0,P|43:151|-32:148,1,88.000002685547,8|2,1:2|1:2,0:0:0:0:
248,296,89625,6,0,P|314:292|388:288,1,132.00000402832,4|0,0:0|0:0,0:0:0:0:
412,308,89958,2,0,L|404:216,1,88.000002685547,8|2,1:2|0:0,0:0:0:0:
320,112,90291,2,0,P|308:156|336:212,1,88.000002685547,0|2,0:0|0:0,0:0:0:0:
440,136,90625,1,8,1:2:0:0:
360,36,90791,1,2,0:0:0:0:
360,36,90875,1,0,0:0:0:0:
360,36,90958,6,0,L|260:40,1,88.000002685547,4|0,0:0|0:0,0:0:0:0:
136,128,91291,2,0,L|224:132,1,88.000002685547,8|2,1:2|0:0,0:0:0:0:
388,220,91625,6,0,L|284:227,1,88.000002685547,0|2,0:0|0:0,0:0:0:0:
278,227,91875,1,0,0:0:0:0:
258,229,91958,1,8,1:2:0:0:
124,320,92125,1,2,0:0:0:0:
124,320,92208,1,0,0:0:0:0:
124,320,92291,6,0,L|300:328,1,160,4|8,0:0|1:2,0:0:0:0:
384,368,92791,2,0,P|376:308|392:264,1,80
456,224,93125,1,0,0:0:0:0:
360,160,93291,2,0,L|272:164,1,80,8|0,1:2|0:0,0:0:0:0:
128,236,93625,6,0,L|136:104,1,120,4|0,0:0|0:0,0:0:0:0:
140,44,93958,1,8,1:2:0:0:
48,192,94125,1,0,0:0:0:0:
216,108,94291,2,0,P|264:100|308:112,1,80
368,295,94625,2,0,L|376:176,1,120,8|0,1:2|0:0,0:0:0:0:
388,152,94958,5,0,1:0:0:0:
356,164,95041,1,0,1:0:0:0:
320,168,95125,1,0,1:0:0:0:
284,160,95208,1,0,1:0:0:0:
252,140,95291,1,0,1:0:0:0:
328,68,95458,5,0,1:0:0:0:
288,256,95791,1,0,1:0:0:0:
146,128,96125,2,0,P|100:104|-4:144,1,160,0|0,1:0|0:0,0:0:0:0:
80,272,96625,2,0,P|88:224|72:180,1,80,12|0,1:2|0:0,0:0:0:0:
4,232,96958,5,0,1:0:0:0:
88,356,97125,1,8,1:2:0:0:
111,354,97208,1,0,3:0:0:0:
134,352,97291,1,8,1:2:0:0:
157,350,97375,1,0,3:0:0:0:
180,348,97458,1,0,3:0:0:0:
203,346,97542,1,0,3:0:0:0:
225,344,97625,6,0,P|219:288|216:248,1,88.000002685547,4|2,1:0|0:0,0:0:0:0:
312,292,97958,1,8,1:2:0:0:
128,272,98125,2,0,P|133:178|140:96,1,176.000005371094,2|2,0:0|0:0,0:0:0:0:
256,152,98625,2,0,P|299:149|352:148,1,88.000002685547,8|2,1:2|0:0,0:0:0:0:
432,224,98958,5,0,0:0:0:0:
343,148,99125,2,0,L|339:60,1,88.000002685547,2|8,0:0|1:2,0:0:0:0:
264,236,99458,1,0,0:0:0:0:
264,236,99541,1,0,0:0:0:0:
264,236,99625,2,0,L|360:240,1,88.000002685547,0|2,0:0|0:0,0:0:0:0:
208,160,99958,1,8,1:2:0:0:
256,344,100125,1,2,0:0:0:0:
412,284,100291,6,0,P|424:232|404:184,1,88.000002685547,0|2,0:0|0:0,0:0:0:0:
316,132,100625,1,8,1:2:0:0:
240,248,100791,2,0,B|176:244|176:244|128:256|128:256|56:252,1,176.000005371094,2|2,0:0|0:0,0:0:0:0:
116,176,101291,1,8,1:2:0:0:
184,328,101458,1,2,0:0:0:0:
184,328,101625,6,0,L|292:332,1,88.000002685547,0|2,0:0|0:0,0:0:0:0:
376,240,101958,2,0,P|372:192|368:140,1,88.000002685547,8|2,1:2|0:0,0:0:0:0:
368,124,102208,1,0,0:0:0:0:
368,96,102291,5,8,1:2:0:0:
240,248,102458,1,8,1:2:0:0:
240,248,102958,6,0,L|88:244,1,143.999995605469,4|8,0:0|0:0,0:0:0:0:
60,144,103458,1,0,0:0:0:0:
140,96,103625,2,0,P|152:140|140:188,1,71.9999978027344,0|2,0:0|0:0,0:0:0:0:
12,216,103958,1,10,0:0:0:0:
68,56,104125,6,0,L|236:60,1,143.999995605469,2|0,0:0|0:0,0:0:0:0:
312,28,104625,1,8,0:0:0:0:
380,136,104791,2,0,P|328:120|236:168,1,143.999995605469,2|0,0:0|0:0,0:0:0:0:
212,248,105291,1,8,0:0:0:0:
214,269,105375,1,0,0:0:0:0:
216,290,105458,1,0,0:0:0:0:
218,311,105541,1,0,0:0:0:0:
221,332,105625,6,0,L|298:328,1,71.9999978027344,2|0,0:0|0:0,0:0:0:0:
368,272,105958,2,0,P|412:256|492:296,1,107.999996704102,8|0,0:0|0:0,0:0:0:0:
484,284,106291,2,0,L|480:192,1,71.9999978027344,0|2,0:0|0:0,0:0:0:0:
380,120,106625,1,8,0:0:0:0:
469,84,106791,6,0,P|473:141|386:215,1,160,4|0,1:0|0:0,0:0:0:0:
238,130,107291,2,0,P|285:97|393:135,1,160,4|0,0:0|0:0,0:0:0:0:
432,228,107791,1,12,1:2:0:0:
316,272,107958,2,0,P|305:229|313:186,1,88.000002685547,8|0,0:0|0:0,0:0:0:0:
376,80,108291,6,0,B|312:76|312:76|280:88|280:88|204:84,1,160,4|10,1:0|0:0,0:0:0:0:
80,192,108958,2,0,L|164:188,1,80,2|0,0:0|0:0,0:0:0:0:
240,140,109291,1,8,0:0:0:0:
292,288,109458,1,0,0:0:0:0:
292,288,109541,1,0,0:0:0:0:
292,288,109625,6,0,B|296:244|296:244|288:196,1,80,2|0,0:0|0:0,0:0:0:0:
240,140,109958,1,8,0:0:0:0:
48,272,110125,2,0,L|240:264,1,160,2|2,0:0|0:0,0:0:0:0:
308,196,110625,2,0,L|392:200,1,80,8|0,0:0|0:0,0:0:0:0:
408,212,110875,1,0,0:0:0:0:
408,212,110958,6,0,P|405:162|404:108,1,80,2|0,0:0|0:0,0:0:0:0:
456,52,111291,2,0,P|404:84|292:68,1,160,8|2,0:0|0:0,0:0:0:0:
184,32,111791,2,0,L|188:84,1,40,2|2,0:0|0:0,0:0:0:0:
144,144,111958,2,0,L|140:196,1,40,10|0,0:0|0:0,0:0:0:0:
204,240,112125,6,0,L|300:236,1,80,4|0,1:0|0:0,0:0:0:0:
368,192,112458,1,0,0:0:0:0:
232,116,112625,2,0,P|152:111|64:112,1,160,12|0,0:0|0:0,0:0:0:0:
136,312,113125,5,12,1:2:0:0:
240,256,113291,1,8,0:0:0:0:
139,193,113458,1,8,0:0:0:0:
136,312,113625,6,0,P|216:312|304:316,1,160,12|8,1:0|1:2,0:0:0:0:
388,360,114125,1,0,0:0:0:0:
416,220,114291,1,8,0:1:0:0:
408,204,114625,6,0,P|356:188|261:253,1,160,4|8,1:0|0:1,0:0:0:0:
352,280,115125,1,8,0:1:0:0:
396,120,115291,2,0,L|392:32,1,80,8|0,1:2|0:0,0:0:0:0:
300,120,115625,6,0,B|240:124|240:124|196:116|196:116|136:120,1,160,8|8,0:1|1:2,0:0:0:0:
224,208,116125,1,0,0:0:0:0:
140,119,116291,6,0,P|137:73|136:35,1,80,8|0,0:1|0:0,0:0:0:0:
64,192,116625,2,0,P|62:231|60:276,1,80,8|0,1:2|0:0,0:0:0:0:
144,324,116958,1,8,0:1:0:0:
260,256,117125,1,0,1:0:0:0:
272,264,117458,6,0,P|392:252|440:252,1,160,12|0,1:0|0:0,0:0:0:0:
352,352,117958,1,8,1:2:0:0:
200,316,118125,1,0,0:0:0:0:
200,316,118208,1,0,0:0:0:0:
200,316,118291,6,0,L|192:208,1,88.000002685547,8|2,0:1|0:0,0:0:0:0:
296,96,118625,2,0,L|292:188,1,88.000002685547,10|2,1:2|0:0,0:0:0:0:
200,316,118958,6,0,P|152:332|44:276,2,176.000005371094,12|8|8,1:0|1:2|0:1,0:0:0:0:
264,240,119791,1,0,0:0:0:0:
211,99,119958,6,0,P|138:140|140:224,1,176.000005371094,12|8,0:0|0:1,0:0:0:0:
200,316,120458,1,8,0:1:0:0:
280,264,120625,2,0,P|352:260|384:264,1,88.000002685547,8|0,1:2|0:0,0:0:0:0:
260,164,120958,2,0,P|212:172|108:172,1,132.00000402832,8|0,0:1|0:0,0:0:0:0:
108,168,121291,2,0,L|112:256,1,88.000002685547,8|0,1:2|0:0,0:0:0:0:
224,232,121625,6,0,P|184:172|272:88,1,176.000005371094,8|8,0:1|1:2,0:0:0:0:
336,164,122125,1,0,0:0:0:0:
304,276,122291,1,8,0:1:0:0:
148,224,122458,1,8,1:2:0:0:
136,236,122791,6,0,P|88:236|44:232,1,88.000002685547,4|8,1:0|0:1,0:0:0:0:
176,144,123125,1,0,0:0:0:0:
224,264,123291,2,0,P|221:309|220:360,1,88.000002685547,8|0,1:2|0:0,0:0:0:0:
220,351,123541,1,0,0:0:0:0:
220,351,123625,6,0,L|300:348,1,80,10|0,0:0|0:0,0:0:0:0:
392,260,123958,2,0,L|304:256,1,80,10|0,0:0|0:0,0:0:0:0:
200,172,124291,6,0,P|156:160|64:228,1,160,12|8,1:0|1:2,0:0:0:0:
252,240,124791,2,0,L|240:80,1,160,4|0,0:0|0:0,0:0:0:0:
288,12,125291,2,0,L|372:16,1,80,4|0,1:0|0:0,0:0:0:0:
412,148,125625,5,8,0:1:0:0:
412,148,125791,1,8,0:1:0:0:
504,68,125958,2,0,L|404:72,1,80,8|0,1:2|0:0,0:0:0:0:
332,168,126291,2,0,P|232:152|192:176,1,120,8|0,0:1|0:0,0:0:0:0:
208,168,126625,2,0,L|212:260,1,80,8|0,1:2|0:0,0:0:0:0:
160,356,126958,6,0,P|116:308|144:208,1,160,8|8,0:1|1:2,0:0:0:0:
208,168,127458,2,0,L|304:172,1,80,0|8,0:2|0:1,0:2:0:0:
360,252,127791,2,0,L|476:248,1,96,8|0,0:2|0:2,0:2:0:0:
480,260,128125,6,0,L|468:96,1,160,4|0,1:0|0:0,0:0:0:0:
404,32,128625,2,0,P|352:20|296:44,1,80,8|0,1:2|0:0,0:0:0:0:
316,180,128958,2,0,P|352:140|359:80,1,80,2|0,0:0|0:0,0:0:0:0:
232,30,129291,2,0,P|247:81|296:117,1,80,10|0,1:2|0:0,0:0:0:0:
408,196,129625,6,0,P|344:184|256:248,1,176.000005371094,4|8,1:2|1:2,0:0:0:0:
264,344,130125,2,0,B|144:327|210:364|51:341,1,176.000005371094,2|8,0:0|0:1,0:0:0:0:
64,220,130625,6,0,L|68:120,1,88.000002685547,4|0,1:0|0:0,0:0:0:0:
156,72,130958,1,8,0:1:0:0:
212,172,131125,1,8,0:1:0:0:
88,240,131291,2,0,L|-8:236,1,88.000002685547,8|0,1:2|0:0,0:0:0:0:
200,160,131625,6,0,L|340:164,1,132.00000402832,8|0,0:1|0:0,0:0:0:0:
356,176,131958,2,0,P|353:133|352:84,1,88.000002685547,8|0,1:2|0:0,0:0:0:0:
252,248,132291,6,0,L|248:340,1,88.000002685547,8|0,0:1|0:0,0:0:0:0:
336,304,132625,1,8,1:2:0:0:
168,272,132791,2,0,P|112:268|60:276,1,88.000002685547,0|8,0:0|0:1,0:0:0:0:
176,288,133125,6,0,P|208:240|188:160,1,132.00000402832,8|0,1:2|0:0,0:0:0:0:
136,128,133458,6,0,B|188:132|188:132|256:112|256:112|320:116,1,176.000005371094,4|8,1:0|0:1,0:0:0:0:
396,176,133958,2,0,L|400:296,1,117.333336914063,8|8,1:2|0:0,0:0:0:0:
376,320,134291,6,0,P|284:312|260:320,1,88.000002685547,8|0,0:1|0:0,0:0:0:0:
268,324,134541,1,0,0:0:0:0:
244,340,134625,1,0,1:0:0:0:
220,348,134708,1,0,1:0:0:0:
192,348,134791,1,0,1:0:0:0:
168,340,134875,1,0,1:0:0:0:
148,324,134958,6,0,L|144:160,1,160,4|8,0:0|1:2,0:0:0:0:
228,76,135458,1,0,0:0:0:0:
220,216,135625,2,0,P|152:252|60:208,2,160,2|8|2,0:0|1:2|0:0,0:0:0:0:
256,80,136458,5,0,0:0:0:0:
312,208,136625,2,0,L|308:296,1,80,8|0,1:2|0:0,0:0:0:0:
144,164,136958,2,0,L|148:76,1,80,2|0,0:0|0:0,0:0:0:0:
320,124,137291,2,0,L|408:120,1,80,8|0,1:2|0:0,0:0:0:0:
464,256,137625,6,0,L|292:264,1,160,2|8,0:0|1:2,0:0:0:0:
196,232,138125,2,0,L|200:336,1,80,0|2,0:0|0:0,0:0:0:0:
256,172,138458,1,0,0:0:0:0:
116,264,138625,1,8,1:2:0:0:
107,97,138791,5,4,0:0:0:0:
112,80,139125,1,0,0:0:0:0:
192,28,139291,2,0,L|268:32,1,71.9999978027344,8|0,1:2|0:0,0:0:0:0:
356,144,139625,2,0,L|268:148,1,71.9999978027344,2|0,0:0|0:0,0:0:0:0:
208,244,139958,2,0,L|280:248,1,71.9999978027344,8|0,1:2|0:0,0:0:0:0:
340,348,140291,6,0,L|264:352,2,53.3333333333333,2|0|0,0:0|0:0|0:0,0:0:0:0:
408,304,140625,2,0,P|432:248|388:152,1,160,8|2,1:2|0:0,0:0:0:0:
292,112,141125,1,0,0:0:0:0:
257,237,141291,6,0,P|296:242|336:236,1,80,12|0,1:2|0:0,0:0:0:0:
472,136,141625,1,2,0:0:0:0:
400,48,141791,1,0,0:0:0:0:
400,48,141875,1,0,0:0:0:0:
400,48,141958,2,0,L|316:44,1,80,8|0,1:2|0:0,0:0:0:0:
240,116,142291,2,0,L|248:204,1,80,2|0,0:0|0:0,0:0:0:0:
176,276,142625,2,0,L|92:272,1,80,8|0,1:2|0:0,0:0:0:0:
276,340,142958,6,0,P|328:316|432:340,1,160,2|8,0:0|1:2,0:0:0:0:
496,256,143458,2,0,L|492:168,1,80,2|0,0:0|0:0,0:0:0:0:
312,120,143791,1,0,0:0:0:0:
360,228,143958,1,8,1:2:0:0:
429,132,144125,6,0,L|424:40,1,80,6|0,0:0|0:0,0:0:0:0:
424,52,144458,1,0,0:0:0:0:
328,128,144625,1,8,1:2:0:0:
208,40,144791,1,0,0:0:0:0:
120,148,144958,2,0,P|108:196|136:252,1,80,2|0,0:0|0:0,0:0:0:0:
264,380,145291,6,0,P|288:328|240:220,1,143.999995605469,12|0,1:3|0:0,0:0:0:0:
220,192,145625,1,4,0:0:0:0:
120,76,156291,6,0,L|116:252,1,160,4|10,0:0|0:0,0:0:0:0:
280,172,156791,1,0,0:0:0:0:
280,172,156958,2,0,L|168:168,2,80,4|4|0,0:0|0:0|0:0,0:0:0:0:
372,148,157458,5,0,0:0:0:0:
276,256,157625,2,0,L|272:368,1,80,4|0,0:0|0:0,0:0:0:0:
372,148,157958,2,0,L|374:68,1,80,10|0,0:0|0:0,0:0:0:0:
200,169,158291,2,0,L|280:172,1,80,4|4,0:0|0:0,0:0:0:0:
104,164,158625,1,8,0:2:0:0:
375,307,158958,6,0,L|371:147,1,160,4|10,0:0|0:0,0:0:0:0:
280,216,159458,1,0,0:0:0:0:
464,252,159625,2,0,L|462:156,1,80,4|4,0:0|0:0,0:0:0:0:
368,72,159958,2,0,L|272:74,1,80,10|0,0:0|0:0,0:0:0:0:
120,212,160291,6,0,L|284:216,1,160,4|10,0:0|0:0,0:0:0:0:
28,252,160791,2,0,L|32:164,1,80,0|4,0:0|0:0,0:0:0:0:
188,108,161125,1,4,0:0:0:0:
128,328,161291,1,8,0:2:0:0:
320,112,161625,6,0,L|316:48,3,40,4|0|0|0,3:0|2:0|2:0|2:0,2:0:0:0:
252,200,161958,2,0,L|254:239,3,40,10|0|0|0,3:0|2:0|2:0|2:0,2:0:0:0:
168,136,162291,2,0,L|64:140,2,80,4|4|0,0:0|0:0|0:0,0:0:0:0:
340,232,162791,5,0,0:0:0:0:
244,108,162958,2,0,L|240:12,1,80,4|0,0:0|0:0,0:0:0:0:
184,248,163291,2,0,L|188:344,1,80
392,152,163625,2,0,L|292:148,1,80,4|4,0:0|0:0,0:0:0:0:
128,136,163958,1,8,0:2:0:0:
298,286,164291,5,4,1:2:0:0:
256,192,164458,12,0,166291,0:0:0:0:
132,224,166958,6,0,L|84:220,4,30.0000011444092,2|0|0|0|8,0:0|0:0|0:0|0:0|0:1,0:0:0:0:
232,204,167458,1,0,0:0:0:0:
232,204,167541,1,0,0:0:0:0:
232,204,167625,6,0,L|229:256,3,30.0000011444092,8|0|0|0,0:1|0:0|0:0|0:0,0:0:0:0:
298,286,167958,2,0,L|337:285,3,30.0000011444092,8|0|0|0,0:1|0:0|0:0|0:0,0:0:0:0:
400,228,168291,5,8,0:1:0:0:
399,212,168375,1,0,0:0:0:0:
398,196,168458,1,0,0:0:0:0:
398,180,168541,1,0,0:0:0:0:
397,164,168625,2,0,L|399:107,3,30.0000011444092,8|0|0|0,0:1|0:0|0:0|0:0,0:0:0:0:
336,80,168958,5,8,0:1:0:0:
320,81,169042,1,0,0:0:0:0:
304,82,169125,1,0,0:0:0:0:
288,82,169208,1,0,0:0:0:0:
272,83,169292,2,0,L|215:80,3,30.0000011444092,8|0|0|0,0:1|0:0|0:0|0:0,0:0:0:0:
168,136,169625,6,0,L|164:176,3,30.0000011444092,8|0|0|0,0:1|0:0|0:0|0:0,0:0:0:0:
232,212,169958,2,0,L|234:241,3,30.0000011444092,8|0|0|0,0:1|0:0|0:0|0:0,0:0:0:0:
152,284,170291,2,0,L|149:313,3,30.0000011444092,8|0|0|0,0:1|0:0|0:0|0:0,0:0:0:0:
240,344,170625,2,0,L|242:373,3,30.0000011444092,8|0|0|0,0:1|0:0|0:0|0:0,0:0:0:0:
316,304,170958,6,0,L|452:308,1,120.000004577637,8|8,0:1|0:1,0:0:0:0:
504,228,171458,1,0,0:0:0:0:
504,228,171541,1,0,0:0:0:0:
504,228,171625,2,0,L|500:184,3,30.0000011444092,8|0|0|0,0:1|0:0|0:0|0:0,0:0:0:0:
416,168,171958,2,0,L|418:197,3,30.0000011444092,8|0|0|0,0:1|0:0|0:0|0:0,0:0:0:0:
340,208,172291,6,0,L|260:204,1,60.0000022888184,8|0,0:1|0:0,0:0:0:0:
198,161,172625,1,8,0:1:0:0:
183,162,172708,1,0,0:0:0:0:
168,163,172791,1,0,0:0:0:0:
152,163,172875,1,0,0:0:0:0:
137,164,172958,6,0,L|88:160,3,30.0000011444092,8|0|0|0,0:1|0:0|0:0|0:0,0:0:0:0:
180,84,173291,2,0,L|176:32,3,30.0000011444092,8|0|0|0,0:1|0:0|0:0|0:0,0:0:0:0:
280,140,173625,6,0,L|276:184,3,30.0000011444092,8|0|0|0,0:1|0:0|0:0|0:0,0:0:0:0:
376,184,173958,2,0,L|392:216,3,30.0000011444092,8|0|0|0,0:1|0:0|0:0|0:0,0:0:0:0:
304,264,174291,5,8,0:1:0:0:
283,265,174375,1,0,0:0:0:0:
263,267,174458,1,0,0:0:0:0:
242,268,174541,1,0,0:0:0:0:
222,270,174625,1,8,0:1:0:0:
202,271,174708,1,0,0:0:0:0:
181,273,174791,1,0,0:0:0:0:
161,274,174875,1,0,0:0:0:0:
141,276,174958,6,0,L|144:176,1,80,0|2,0:0|0:0,0:0:0:0:
192,104,175291,2,0,L|100:100,1,80
244,192,175625,2,0,L|323:195,1,80
392,168,175875,1,0,0:0:0:0:
392,168,175958,2,0,P|400:128|384:80,1,80
276,44,176291,5,8,3:0:0:0:
216,208,176458,2,0,L|220:296,1,80,0|4,3:0|1:3,0:0:0:0:
452,240,176791,6,0,P|396:196|292:220,1,160,4|8,0:0|1:3,0:0:0:0:
219,287,177291,1,8,1:3:0:0:
168,140,177458,1,8,1:3:0:0:
311,205,177625,6,0,L|403:201,1,80,4|0,0:0|0:0,0:0:0:0:
476,136,177958,1,8,0:0:0:0:
336,56,178125,2,0,B|276:44|232:64|232:64|268:64|292:72,1,160,2|0,0:0|0:0,0:0:0:0:
404,100,178625,2,0,P|416:56|400:12,1,80,8|0,0:0|0:0,0:0:0:0:
244,144,178958,6,0,L|248:236,1,80,2|0,0:0|0:0,0:0:0:0:
344,252,179291,1,8,0:0:0:0:
271,71,179458,2,0,P|195:80|168:152,1,160,2|0,0:0|0:0,0:0:0:0:
176,180,179875,1,0,0:0:0:0:
192,200,179958,2,0,L|292:204,1,80,8|0,0:0|0:0,0:0:0:0:
372,180,180291,5,2,0:0:0:0:
140,284,180458,2,0,P|100:292|36:288,1,80,0|8,0:0|0:0,0:0:0:0:
248,328,180791,6,0,P|220:280|248:160,1,160,4|0,1:0|0:0,0:0:0:0:
328,124,181291,1,8,0:0:0:0:
464,279,181458,6,0,P|401:233|324:244,1,160,4|0,0:0|0:0,0:0:0:0:
248,328,181958,1,8,0:0:0:0:
152,168,182125,1,2,1:2:0:0:
164,152,182458,2,0,L|168:8,1,143.999995605469,2|0,0:0|0:0,0:0:0:0:
80,84,182958,6,0,B|195:100|121:62|264:80,1,160,4|8,1:0|0:0,0:0:0:0:
332,152,183458,1,0,0:0:0:0:
332,152,183541,1,0,0:0:0:0:
332,152,183625,1,2,0:0:0:0:
228,276,183791,1,2,0:0:0:0:
173,124,183958,1,8,0:0:0:0:
336,256,184125,6,0,L|440:252,1,80,4|0,0:0|0:0,0:0:0:0:
316,360,184458,1,0,0:0:0:0:
228,276,184625,2,0,P|225:228|224:176,1,80,8|0,0:0|0:0,0:0:0:0:
356,92,184958,2,0,P|358:131|360:176,1,80,0|2,0:0|0:0,0:0:0:0:
152,252,185291,2,0,L|64:248,1,80,10|0,0:0|0:0,0:0:0:0:
20,136,185625,6,0,P|96:100|176:136,1,143.999995605469,4|12,1:2|3:0,0:0:0:0:
248,252,186125,2,0,P|300:276|400:244,1,143.999995605469,4|12,1:2|3:0,0:0:0:0:
472,160,186625,6,0,L|468:76,1,71.9999978027344,4|0,1:2|0:0,0:0:0:0:
390,35,186958,2,0,P|326:63|270:55,1,95.9999970703126,2|0,0:0|0:0,0:0:0:0:
216,54,187291,6,0,P|181:47|151:53,2,47.9999985351563,8|8|8,0:0|0:0|0:0,0:0:0:0:
250,132,187625,2,0,P|262:164|281:187,2,47.9999985351563,8|8|8,3:0|3:0|3:0,0:0:0:0:
300,62,187958,2,0,P|322:35|332:6,2,47.9999985351563,4|4|4,3:0|3:0|3:0,0:0:0:0:
167,122,188291,5,4,0:0:0:0:
239,304,189625,5,2,0:0:0:0:
361,149,190958,5,2,0:0:0:0:
352,132,192125,6,0,P|297:129|240:128,1,111.999996582031,2|0,0:0|0:0,0:0:0:0:
172,208,192791,2,0,P|178:263|184:328,1,111.999996582031,2|0,0:0|0:0,0:0:0:0:
80,160,193625,5,2,0:0:0:0:
371,55,194958,5,2,0:0:0:0:
256,192,195625,1,2,0:0:0:0:
316,360,196291,5,2,0:0:0:0:
336,368,197125,6,0,P|366:366|404:364,2,55.9999982910157
260,324,197625,2,0,P|204:320|124:320,1,111.999996582031,2|0,0:0|0:0,0:0:0:0:
76,196,198291,2,0,P|130:193|208:188,1,111.999996582031,2|0,0:0|0:0,0:0:0:0:
320,128,198958,6,0,L|316:248,1,111.999996582031,2|0,0:0|0:0,0:0:0:0:
392,292,199458,1,0,0:0:0:0:
476,212,199625,2,0,P|452:168|384:156,1,111.999996582031
320,212,200125,1,8,0:1:0:0:
248,160,200291,6,0,L|192:156,1,55.9999982910157,8|0,0:1|0:0,0:0:0:0:
132,224,200625,2,0,L|136:288,1,55.9999982910157,8|0,0:1|0:0,0:0:0:0:
60,320,200958,2,0,L|52:184,1,111.999996582031
101,98,201625,6,0,B|211:78|154:118|273:98,1,167.999994873047,8|0,0:1|0:0,0:0:0:0:
344,56,202291,2,0,L|340:172,1,111.999996582031
400,220,202791,1,8,0:1:0:0:
441,154,202958,6,0,P|388:141|340:167,1,111.999996582031,8|8,0:1|0:1,0:0:0:0:
312,328,203625,1,0,0:0:0:0:
168,280,203958,1,0,0:0:0:0:
168,280,204125,1,0,0:0:0:0:
168,280,204291,6,0,L|108:284,7,35.9999989013672
88,196,204958,6,0,L|64:136,7,37.9999989852906
143,93,205625,6,0,L|192:52,7,40
257,113,206291,6,0,L|312:148,7,41.9999987182618
273,227,206958,6,0,L|252:336,1,88.000002685547,4|0,3:0|0:0,0:0:0:0:
368,192,207291,2,0,P|268:195|188:196,1,176.000005371094,8|4,1:2|3:0,0:0:0:0:
43,174,207791,2,0,P|95:146|199:218,1,176.000005371094,4|12,3:0|3:0,0:0:0:0:
112,232,208291,5,4,1:2:0:0:
200,96,208458,2,0,P|268:84|300:96,2,88.000002685547,2|2|2,1:2|1:2|1:2,0:0:0:0:
112,232,208958,5,2,0:2:0:0:
128,256,209041,1,2,0:2:0:0:
156,272,209125,1,2,0:2:0:0:
184,280,209208,1,0,0:0:0:0:
216,280,209291,2,0,L|276:276,3,44.0000013427735
296,256,209625,6,0,L|304:168,1,88.000002685547,6|2,1:0|0:0,0:0:0:0:
176,68,209958,2,0,P|168:120|192:172,1,88.000002685547,8|2,0:0|0:0,0:0:0:0:
372,132,210291,1,0,0:0:0:0:
248,108,210458,1,2,0:0:0:0:
320,216,210625,2,0,L|324:308,1,88.000002685547,8|2,0:0|0:0,0:0:0:0:
192,348,210958,6,0,L|100:344,1,88.000002685547,0|2,0:0|0:0,0:0:0:0:
76,236,211291,2,0,L|164:240,1,88.000002685547,8|2,0:0|0:0,0:0:0:0:
292,360,211625,1,0,0:0:0:0:
260,184,211791,1,2,1:2:0:0:
192,348,211958,1,8,1:2:0:0:
384,312,212125,1,0,0:0:0:0:
384,312,212208,1,0,0:0:0:0:
384,312,212291,6,0,B|432:304|460:316|460:316|488:280|460:220,1,176.000005371094,4|8,0:0|0:0,0:0:0:0:
388,136,212791,1,2,0:0:0:0:
296,232,212958,2,0,P|206:233|108:236,1,176.000005371094,0|8,0:0|0:0,0:0:0:0:
40,168,213458,1,2,0:0:0:0:
156,100,213625,6,0,P|200:96|252:104,2,88.000002685547,0|2|8,0:0|0:0|0:0,0:0:0:0:
36,180,214125,2,0,P|37:226|40:272,1,88.000002685547,2|0,0:0|0:0,0:0:0:0:
232,340,214458,1,2,0:0:0:0:
128,232,214625,1,8,0:0:0:0:
308,188,214791,1,2,0:0:0:0:
308,188,214875,1,0,0:0:0:0:
308,188,214958,6,0,P|357:189|408:192,1,88.000002685547,4|2,0:0|0:0,0:0:0:0:
184,96,215291,2,0,P|130:97|92:84,1,88.000002685547,8|2,0:0|0:0,0:0:0:0:
324,96,215625,2,0,P|377:97|416:84,1,88.000002685547,0|2,0:0|0:0,0:0:0:0:
204,188,215958,2,0,P|154:189|104:192,1,88.000002685547,8|2,0:0|0:0,0:0:0:0:
256,272,216291,5,0,0:0:0:0:
256,56,216458,1,2,0:0:0:0:
132,152,216625,2,0,P|124:196|148:252,1,88.000002685547,8|2,0:0|0:0,0:0:0:0:
375,236,216958,2,0,P|388:194|380:152,1,88.000002685547,0|2,0:0|1:2,0:0:0:0:
216,64,217291,1,8,1:2:0:0:
308,188,217458,1,2,1:2:0:0:
352,40,217625,6,0,P|412:16|504:52,1,132.00000402832,4|0,0:0|0:0,0:0:0:0:
496,44,217958,2,0,L|492:136,1,88.000002685547,8|2,0:0|0:0,0:0:0:0:
344,320,218291,2,0,L|352:144,1,176.000005371094,0|8,0:0|0:0,0:0:0:0:
432,272,218791,1,2,0:0:0:0:
264,184,218958,6,0,B|204:172|144:192|144:192|172:136,1,176.000005371094,4|8,0:0|0:0,0:0:0:0:
288,84,219458,1,2,0:0:0:0:
212,272,219625,2,0,L|112:276,1,88.000002685547,0|2,0:0|0:0,0:0:0:0:
300,172,219958,2,0,L|404:176,1,88.000002685547,8|2,0:0|0:0,0:0:0:0:
256,344,220291,6,0,L|64:352,1,176.000005371094,4|8,1:0|0:0,0:0:0:0:
332,296,220791,2,0,P|348:348|336:388,1,88.000002685547,4|0,0:0|0:0,0:0:0:0:
184,264,221125,2,0,L|188:168,1,88.000002685547,0|8,0:0|0:0,0:0:0:0:
320,212,221458,5,4,0:0:0:0:
332,216,221791,1,0,0:0:0:0:
224,108,221958,1,8,0:0:0:0:
184,255,222125,1,0,0:0:0:0:
328,120,222291,6,0,B|377:123|377:123|408:112|408:112|468:116,1,132.00000402832,8|4,0:0|0:0,0:0:0:0:
284,28,222791,1,8,0:0:0:0:
224,176,222958,6,0,P|296:156|372:216,1,160,0|12,0:0|0:0,0:0:0:0:
392,332,223458,1,2,0:0:0:0:
288,324,223625,2,0,L|284:240,1,80,0|2,0:0|0:0,0:0:0:0:
392,140,223958,2,0,L|400:228,1,80,8|2,0:0|0:0,0:0:0:0:
296,336,224291,6,0,L|200:332,1,88.000002685547,4|2,1:0|0:0,0:0:0:0:
136,200,224625,1,8,0:0:0:0:
120,372,224791,1,0,0:0:0:0:
220,248,224958,5,0,0:0:0:0:
232,217,225041,1,0,0:0:0:0:
232,183,225125,1,0,0:0:0:0:
221,151,225208,1,0,0:0:0:0:
198,126,225291,2,0,L|124:120,1,44.0000013427735,0|0,1:0|1:0,1:0:0:0:
272,56,225458,2,0,L|340:52,1,44.0000013427735,0|0,1:0|1:0,1:0:0:0:
392,140,225625,6,0,P|400:188|384:252,1,88.000002685547,4|2,1:0|0:0,0:0:0:0:
332,284,225875,1,0,0:0:0:0:
332,284,225958,2,0,L|236:280,1,88.000002685547,8|2,0:0|0:0,0:0:0:0:
84,232,226291,1,0,0:0:0:0:
144,352,226458,1,2,0:0:0:0:
188,208,226625,2,0,L|184:116,1,88.000002685547,8|2,0:0|0:0,0:0:0:0:
128,28,226958,6,0,L|28:24,1,88.000002685547,0|2,0:0|0:0,0:0:0:0:
184,120,227291,2,0,P|230:118|284:116,1,88.000002685547,8|2,0:0|0:0,0:0:0:0:
388,68,227625,2,0,P|380:124|396:172,1,88.000002685547,0|2,0:0|1:2,0:0:0:0:
444,316,227958,2,0,P|452:260|436:212,1,88.000002685547,8|2,1:2|0:0,0:0:0:0:
312,160,228291,6,0,L|144:164,1,132.00000402832,4|0,0:0|0:0,0:0:0:0:
132,216,228625,2,0,B|112:212|96:204|96:204|112:244|100:272,1,88.000002685547,8|2,0:0|0:0,0:0:0:0:
232,352,228958,2,0,P|260:292|224:212,1,132.00000402832
224,212,229291,1,8,0:0:0:0:
256,92,229458,1,2,0:0:0:0:
328,204,229625,5,0,0:0:0:0:
168,120,229791,2,0,P|124:112|80:128,1,88.000002685547,2|8,0:0|0:0,0:0:0:0:
56,276,230125,2,0,B|111:273|134:243|134:243|120:336,1,176.000005371094,2|2,0:0|0:0,0:0:0:0:
256,360,230625,1,8,0:0:0:0:
216,256,230791,1,2,0:0:0:0:
216,256,230875,1,0,0:0:0:0:
216,256,230958,6,0,P|212:206|212:164,1,88.000002685547,4|2,0:0|0:0,0:0:0:0:
339,68,231291,2,0,P|338:112|336:156,1,88.000002685547,8|2,0:0|0:0,0:0:0:0:
392,264,231625,2,0,P|346:260|296:256,1,88.000002685547,0|2,0:0|0:0,0:0:0:0:
184,100,231958,2,0,P|138:100|80:104,1,88.000002685547,8|2,0:0|0:0,0:0:0:0:
40,276,232291,6,0,P|100:284|140:268,1,88.000002685547,0|2,0:0|0:0,0:0:0:0:
236,144,232625,2,0,P|199:191|192:234,1,88.000002685547,8|2,0:0|0:0,0:0:0:0:
252,379,232958,2,0,P|228:323|195:296,1,88.000002685547,0|2,0:0|1:2,0:0:0:0:
84,204,233291,1,8,1:2:0:0:
288,228,233458,1,0,0:0:0:0:
288,228,233541,1,0,0:0:0:0:
288,228,233625,6,0,P|353:224|424:224,1,132.00000402832,4|0,0:0|0:0,0:0:0:0:
448,240,233958,2,0,L|444:144,1,88.000002685547,8|2,0:0|0:0,0:0:0:0:
