osu file format v14

[General]
AudioFilename: killy killy Joker.mp3
AudioLeadIn: 0
PreviewTime: -1
Countdown: 1
SampleSet: Soft
StackLeniency: 0.7
Mode: 0
LetterboxInBreaks: 1
WidescreenStoryboard: 1

[Editor]
Bookmarks: 12305,22971,33638,44304,54971,65638,81638,102971,113638,124304,134971,145638,156304,166971,177638,188304,198971,209638,225638,248304,258971
DistanceSpacing: 1.7
BeatDivisor: 4
GridSize: 4
TimelineZoom: 1.1

[Metadata]
Title:killy killy JOKER
TitleUnicode:killy killy JOKER
Artist:Wakeshima Kanon
ArtistUnicode:分島花音
Creator:toybot
Version:Eternal
Source:selector infected WIXOSS
Tags:
BeatmapID:717391
BeatmapSetID:270747

[Difficulty]
HPDrainRate:6
CircleSize:4
OverallDifficulty:8
ApproachRate:9.4
SliderMultiplier:1.8
SliderTickRate:2

[Events]
//Background and Video events
0,0,"wixoss.jpg",0,0
//Break Periods
//Storyboard Layer 0 (Background)
//Storyboard Layer 1 (Fail)
//Storyboard Layer 2 (Pass)
//Storyboard Layer 3 (Foreground)
//Storyboard Sound Samples

[TimingPoints]
-1040,666.666666666667,4,2,1,20,1,0
-940,-133.333333333333,4,2,1,20,0,0
12292,333.333333333333,4,2,1,50,1,0
22958,-133.333333333333,4,2,1,40,0,0
28291,-133.333333333333,4,2,2,50,0,0
32625,-66.6666666666667,4,2,2,50,0,0
32958,-133.333333333333,4,2,2,40,0,0
33625,-133.333333333333,4,2,1,40,0,0
38958,-133.333333333333,4,2,2,50,0,0
44291,-200,4,2,1,50,0,0
50291,-181.818181818182,4,2,1,50,0,0
50958,-166.666666666667,4,2,1,50,0,0
51625,-153.846153846154,4,2,1,50,0,0
52291,-142.857142857143,4,2,1,50,0,0
54958,-133.333333333333,4,2,1,50,0,0
57541,-111.111111111111,4,2,1,50,0,0
60291,-111.111111111111,4,2,2,50,0,0
61458,-100,4,2,2,50,0,0
64458,-90.9090909090909,4,2,1,50,0,0
65625,-100,4,2,3,80,0,1
76291,-111.111111111111,4,2,3,80,0,1
78291,-90.9090909090909,4,2,3,80,0,1
78541,-83.3333333333333,4,2,3,80,0,1
78791,-76.9230769230769,4,2,3,80,0,1
78958,-125,4,2,3,80,0,1
79291,-100,4,2,3,80,0,1
81125,-100,4,2,1,70,0,0
81625,-100,4,2,3,80,0,1
97625,-100,4,2,3,80,0,0
102958,-100,4,2,2,60,0,0
107291,-90.9090909090909,4,2,2,60,0,0
107791,-83.3333333333333,4,2,2,60,0,0
108291,-100,4,2,2,60,0,0
113625,-100,4,2,1,70,0,0
118958,-90.9090909090909,4,2,1,75,0,0
124291,-100,4,2,1,70,0,0
127791,-125,4,2,1,70,0,0
128125,-100,4,2,1,70,0,0
129625,-90.9090909090909,4,2,1,75,0,0
134291,-90.9090909090909,4,2,1,65,0,0
134958,-100,4,2,1,65,0,0
144125,-90.9090909090909,4,2,1,65,0,0
145291,-83.3333333333333,4,2,1,70,0,0
145625,-111.111111111111,4,3,0,50,0,0
156291,-99.9999999999999,4,3,4,55,0,0
158625,-99.9999999999999,4,2,3,55,0,0
158791,-99.9999999999999,4,3,4,55,0,0
161291,-99.9999999999999,4,2,3,55,0,0
161625,-99.9999999999999,4,3,4,55,0,0
163958,-99.9999999999999,4,2,3,55,0,0
164125,-99.9999999999999,4,3,4,55,0,0
164291,-99.9999999999999,4,1,4,65,0,0
164458,-99.9999999999999,4,2,2,35,0,0
164958,-99.9999999999999,4,2,2,30,0,0
165291,-99.9999999999999,4,2,2,25,0,0
165625,-99.9999999999999,4,2,2,20,0,0
166291,-133.333333333333,4,2,1,30,0,0
174958,-100,4,2,2,50,0,0
175291,-105.263157894737,4,2,2,45,0,0
175625,-111.111111111111,4,2,2,40,0,0
175958,-125,4,2,2,35,0,0
176291,-100,4,2,2,50,0,0
177625,-100,4,2,2,60,0,0
182458,-111.111111111111,4,2,2,60,0,0
182958,-111.111111111111,4,2,1,70,0,0
185625,-111.111111111111,4,3,1,60,0,0
188291,-166.666666666667,4,2,2,40,0,0
192125,-166.666666666667,4,2,2,30,0,0
192291,-166.666666666667,4,2,2,20,0,0
192458,-166.666666666667,4,2,2,30,0,0
192625,-166.666666666667,4,2,2,20,0,0
192791,-166.666666666667,4,2,2,30,0,0
193625,-166.666666666667,4,2,2,40,0,0
195625,-166.666666666667,4,2,2,30,0,0
196291,-166.666666666667,4,2,2,40,0,0
197125,-166.666666666667,4,2,2,30,0,0
198625,-166.666666666667,4,2,1,30,0,0
198958,-273.333333333333,4,2,1,40,0,0
199041,-273.333333333333,4,2,1,5,0,0
199208,-273.333333333333,4,2,1,50,0,0
199375,-273.333333333333,4,2,1,5,0,0
199875,-273.333333333333,4,2,1,50,0,0
200041,-273.333333333333,4,2,1,5,0,0
200541,-273.333333333333,4,2,1,50,0,0
200708,-273.333333333333,4,2,1,5,0,0
201208,-273.333333333333,4,2,1,50,0,0
201375,-273.333333333333,4,2,1,5,0,0
201875,-273.333333333333,4,2,1,50,0,0
202041,-273.333333333333,4,2,1,5,0,0
202541,-273.333333333333,4,2,1,50,0,0
202708,-273.333333333333,4,2,1,5,0,0
203208,-273.333333333333,4,2,1,50,0,0
203375,-273.333333333333,4,2,1,5,0,0
203625,-273.333333333333,4,2,1,35,0,0
204291,-133.333333333333,4,1,1,20,0,0
205958,-133.333333333333,4,1,1,25,0,0
206291,-133.333333333333,4,1,1,30,0,0
206625,-133.333333333333,4,1,1,35,0,0
206958,-100,4,1,1,60,0,0
207291,-100,4,2,1,60,0,0
208458,-83.3333333333333,4,1,1,60,0,0
209625,-100,4,1,69,80,0,1
209791,-100,4,2,3,80,0,1
222291,-90.9090909090909,4,2,1,80,0,1
222625,-83.3333333333333,4,2,1,80,0,1
222958,-100,4,2,1,70,0,1
223291,-100,4,2,3,80,0,1
225125,-100,4,2,1,70,0,0
225625,-83.3333333333333,4,2,3,80,0,1
236291,-90.9090909090909,4,2,3,80,0,1
239458,-111.111111111111,4,2,3,80,0,1
240125,-100,4,2,3,80,0,1
240958,-100,4,2,1,70,0,1
241625,-100,4,2,3,70,0,0
246208,-100,4,2,3,50,0,0
248291,-100,4,2,3,70,0,0
269625,-100,4,2,3,80,0,0
276291,-100,4,2,0,5,0,0

[Colours]
Combo1 : 131,131,131
Combo2 : 128,0,0
Combo3 : 160,68,168
Combo4 : 215,57,62

[HitObjects]
160,184,960,6,0,P|176:151|130:65,1,135.000005149842,0|2,0:0|0:0,0:0:0:0:
100,237,1960,2,0,L|113:313,1,67.5000025749208
284,220,2627,1,0,0:0:0:0:
256,348,2960,2,0,P|222:351|189:344,1,67.5000025749208,2|0,0:0|0:0,0:0:0:0:
244,105,3627,2,0,P|280:98|314:103,1,67.5000025749208
467,231,4294,6,0,L|463:152,1,67.5000025749208,2|0,0:0|0:0,0:0:0:0:
386,29,4961,1,0,0:0:0:0:
509,93,5294,1,0,0:0:0:0:
306,223,5627,2,0,P|273:166|287:102,1,135.000005149842,2|2,0:0|0:0,0:0:0:0:
504,304,6961,6,0,P|440:303|344:319,1,135.000005149842,2|0,0:0|0:0,0:0:0:0:
164,72,8294,2,0,P|210:67|240:70,1,67.5000025749208,2|0,0:0|0:3,0:3:0:0:
95,283,8961,2,0,P|62:235|80:142,1,135.000005149842,0|2,0:3|0:0,0:3:0:0:
256,192,9793,12,8,11626,0:0:0:0:
212,55,11961,5,2,0:0:0:0:
194,61,12044,5,2,0:0:0:0:
175,78,12127,5,2,0:0:0:0:
155,105,12211,5,2,0:0:0:0:
153,153,12293,6,0,L|156:260,1,90,4|0,0:0|0:0,0:0:0:0:
402,80,12626,2,0,P|350:61|296:62,1,90,8|0,0:0|0:0,0:0:0:0:
255,225,12959,1,0,0:0:0:0:
62,161,13126,1,2,0:0:0:0:
31,279,13292,1,10,0:0:0:0:
239,142,13459,1,2,0:0:0:0:
256,351,13626,6,0,P|173:380|93:344,1,180,0|8,0:0|0:0,0:0:0:0:
353,278,14126,2,0,L|334:369,2,90,2|0|0,0:0|0:0|0:0,0:0:0:0:
239,142,14626,1,8,0:0:0:0:
224,126,14709,5,0,0:0:0:0:
196,113,14792,5,0,0:0:0:0:
156,108,14876,5,0,0:0:0:0:
95,132,14959,6,0,P|65:173|75:241,1,90
160,200,15292,2,0,P|170:110|155:22,1,180,8|0,0:0|0:0,0:0:0:0:
402,18,15792,5,2,0:0:0:0:
440,31,15876,5,0,0:0:0:0:
473,67,15959,5,8,0:0:0:0:
477,125,16042,5,0,0:0:0:0:
445,193,16126,6,0,P|435:259|443:297,1,90,4|0,1:0|0:0,0:0:0:0:
482,346,16459,1,0,0:0:0:0:
397,104,16626,2,0,P|344:62|307:50,1,90,12|0,0:0|0:0,0:0:0:0:
292,51,16876,1,0,0:0:0:0:
261,59,16959,1,0,0:0:0:0:
322,361,17126,2,0,P|384:336|413:310,1,90,4|8,3:2|0:3,0:3:0:0:
106,166,17626,6,0,P|91:243|138:340,1,180,4|10,1:0|0:0,0:3:0:0:
29,323,18126,1,0,0:0:0:0:
168,112,18292,2,0,P|164:60|152:20,1,90,2|0,0:0|0:0,0:0:0:0:
84,0,18626,1,8,0:0:0:0:
185,191,18792,1,0,0:0:0:0:
185,191,18876,1,0,0:0:0:0:
185,191,18959,2,0,P|242:198|289:184,1,90,2|0,0:0|0:0,0:0:0:0:
346,123,19292,1,8,0:0:0:0:
333,288,19459,2,0,L|325:384,1,90,2|0,0:0|0:0,0:0:0:0:
438,76,19792,2,0,P|383:29|252:68,1,180
178,104,20209,1,0,0:0:0:0:
167,111,20292,6,0,P|168:66|184:25,1,90,2|0,0:0|0:0,0:0:0:0:
119,192,20626,2,0,P|90:157|76:114,1,90,10|0,0:0|0:0,0:0:0:0:
143,290,20959,2,0,P|98:289|56:273,1,90,2|0,0:0|0:0,0:0:0:0:
209,217,21292,1,8,0:0:0:0:
355,348,21459,2,0,P|314:277|243:316,1,180,4|0,1:0|0:0,0:0:0:0:
477,221,21959,2,0,L|465:109,1,90,12|0,0:0|0:0,0:0:0:0:
450,2,22292,5,8,1:0:0:0:
423,7,22376,5,0,3:0:0:0:
390,13,22459,5,8,3:3:0:0:
350,20,22542,5,0,3:0:0:0:
302,28,22626,5,0,3:0:0:0:
244,37,22709,5,0,3:0:0:0:
174,47,22792,5,0,3:0:0:0:
90,58,22876,5,0,3:0:0:0:
4,78,22958,5,6,0:0:0:0:
4,78,23291,2,0,P|3:130|6:169,1,67.5000025749208,2|0,0:3|0:0,0:0:0:0:
73,228,23625,1,2,0:3:0:0:
73,228,23791,2,0,P|74:280|71:319,1,67.5000025749208,0|2,0:0|0:3,0:0:0:0:
28,355,24126,1,0,0:0:0:0:
159,271,24292,2,0,P|210:274|252:290,1,67.5000025749208,2|0,0:3|0:0,0:0:0:0:
285,322,24626,1,2,0:3:0:0:
416,231,24792,2,0,P|356:215|286:256,1,135.000005149842
426,150,25292,2,0,L|432:83,1,67.5000025749208,2|8,0:3|0:1,0:0:0:0:
433,69,25542,1,0,0:0:0:0:
435,55,25626,5,8,0:1:0:0:
110,138,25958,1,2,0:3:0:0:
29,130,26125,1,0,0:0:0:0:
133,49,26292,2,0,P|172:44|214:75,1,67.5000025749208,2|0,0:3|0:0,0:0:0:0:
257,109,26626,1,2,0:3:0:0:
257,189,26792,1,0,0:0:0:0:
191,236,26959,6,0,P|154:255|102:255,1,67.5000025749208,2|0,0:3|0:0,0:0:0:0:
50,238,27292,1,2,0:3:0:0:
262,266,27459,2,0,P|296:287|323:332,1,67.5000025749208,0|2,0:3|0:3,0:3:0:0:
327,334,27709,5,0,0:0:0:0:
351,351,27792,5,8,0:1:0:0:
387,357,27876,5,0,0:0:0:0:
428,344,27959,5,8,1:2:0:0:
450,299,28042,5,0,0:0:0:0:
424,254,28126,1,0,0:0:0:0:
422,203,28209,1,0,0:0:0:0:
454,164,28292,6,0,P|462:126|459:81,1,67.5000025749208,4|0,0:0|0:0,0:0:0:0:
433,29,28626,1,8,0:0:0:0:
283,144,28792,2,0,L|206:144,1,67.5000025749208
375,118,29126,2,0,P|356:83|325:51,1,67.5000025749208,8|0,1:2|0:0,0:0:0:0:
262,266,29459,2,0,B|220:296|167:275|167:275|204:240,1,135.000005149842
344,215,29959,1,8,0:0:0:0:
164,347,30126,2,0,P|108:315|114:224,1,135.000005149842
104,99,30626,1,8,0:0:0:0:
32,46,30792,1,0,0:0:0:0:
145,179,30959,6,0,P|177:170|220:176,1,67.5000025749208
391,126,31292,2,0,L|323:123,1,67.5000025749208,8|0,0:0|0:0,0:0:0:0:
170,274,31626,1,0,0:0:0:0:
367,364,31792,1,8,1:2:0:0:
253,6,32126,2,0,B|233:30|235:85|246:116|246:116|269:78,1,135.000005149842
453,46,32626,6,0,L|304:53,1,135.000005149842,8|8,0:0|0:0,0:0:0:0:
310,198,32959,6,0,L|377:201,1,67.5000025749208,2|2,0:0|0:0,0:0:0:0:
432,282,33292,1,8,0:0:0:0:
234,193,33459,2,0,L|187:190,1,33.7500012874604,0|0,0:0|0:3,0:0:0:0:
125,188,33626,1,2,0:0:0:0:
270,263,33959,6,0,B|286:309|266:358|266:358|260:316,1,135.000005149842,2|2,0:3|0:3,0:0:0:0:
278,129,34459,2,0,P|287:93|284:36,1,67.5000025749208,0|2,0:0|0:3,0:0:0:0:
231,0,34792,1,0,0:0:0:0:
435,208,34959,6,0,P|375:224|296:184,1,135.000005149842,2|2,0:3|0:3,0:0:0:0:
381,56,35459,2,0,L|378:142,1,67.5000025749208,0|2,0:0|0:3,0:0:0:0:
133,123,35792,2,0,L|131:56,1,67.5000025749208,8|0,0:1|0:0,0:0:0:0:
257,241,36292,6,0,B|258:272|258:272|174:249|161:234,1,135.000005149842,8|2,0:1|0:3,0:0:0:0:
330,299,36959,1,2,0:3:0:0:
330,299,37126,2,0,P|306:231|254:242,1,135.000005149842
330,299,37626,2,0,P|361:233|254:158,1,202.500007724762,2|0,0:3|0:0,0:0:0:0:
145,162,38292,5,2,0:0:0:0:
125,167,38376,5,2,0:0:0:0:
105,186,38459,5,2,0:0:0:0:
89,216,38542,5,2,0:0:0:0:
37,234,38626,5,8,0:1:0:0:
47,182,38709,1,0,0:0:0:0:
76,137,38792,1,0,0:0:0:0:
121,107,38876,1,0,0:0:0:0:
208,105,38959,6,0,L|351:125,1,135.000005149842,4|8,0:0|0:0,0:0:0:0:
378,202,39459,2,0,P|354:218|338:175,1,67.5000025749208
323,39,39792,1,0,0:0:0:0:
323,39,39959,1,10,0:0:0:0:
509,241,40126,2,0,L|432:234,1,67.5000025749208
252,297,40459,2,0,L|320:304,1,67.5000025749208,0|8,0:0|0:0,0:0:0:0:
443,157,40792,2,0,P|388:121|326:141,1,135.000005149842
236,200,41292,1,8,0:0:0:0:
131,171,41459,1,0,0:0:0:0:
52,251,41626,6,0,P|42:298|44:326,1,67.5000025749208
58,123,41959,1,8,0:0:0:0:
251,296,42126,2,0,P|187:284|130:318,1,135.000005149842
83,384,42626,1,8,0:0:0:0:
323,239,42792,6,0,P|332:193|320:151,1,67.5000025749208
183,173,43126,2,0,P|180:206|189:239,1,67.5000025749208,0|8,0:0|0:0,0:0:0:0:
256,20,43459,1,0,0:0:0:0:
56,92,43626,1,8,0:0:0:0:
456,92,43792,1,8,0:0:0:0:
456,92,44126,1,0,0:0:0:0:
456,92,44292,6,0,P|459:143|447:193,1,90,4|0,0:1|0:0,0:0:0:0:
323,239,44959,2,0,P|280:234|233:231,1,90,2|0,0:0|0:0,0:0:0:0:
98,337,45626,6,0,P|157:350|215:301,1,135,2|0,0:0|0:0,0:0:0:0:
140,230,46292,2,0,L|145:291,1,45,2|0,0:0|0:0,0:0:0:0:
62,228,46626,2,0,P|65:206|75:186,1,45
146,149,46959,6,0,P|100:143|49:32,1,180,2|2,0:0|0:0,0:0:0:0:
256,156,47959,1,0,0:0:0:0:
256,156,48126,2,0,L|256:182,2,22.5,0|0|2,0:0|0:0|0:0,0:0:0:0:
256,156,48959,6,0,P|301:138|349:151,1,90,2|0,0:0|0:0,0:0:0:0:
176,370,49626,6,0,P|158:325|171:277,1,90,2|0,0:0|0:3,0:3:0:0:
329,319,50292,6,0,L|432:328,1,99.0000030212403,2|0,0:0|0:0,0:0:0:0:
192,192,50959,6,0,L|74:202,1,107.999996704102,2|0,0:0|0:0,0:0:0:0:
323,97,51626,6,0,L|440:107,1,116.999994644165,2|0,0:0|0:0,0:0:0:0:
256,16,52292,5,2,0:0:0:0:
323,97,52459,1,2,0:0:0:0:
192,192,52626,1,2,0:0:0:0:
329,319,52792,1,0,0:0:0:0:
256,16,52959,5,2,0:0:0:0:
189,97,53126,1,0,0:0:0:0:
320,192,53291,1,2,0:0:0:0:
183,319,53459,1,0,0:0:0:0:
96,192,53626,5,8,1:0:0:0:
416,192,53792,2,0,P|413:149|396:118,1,62.9999980773926,0|8,1:0|0:0,0:0:0:0:
183,319,54126,2,0,P|237:344|309:326,1,125.999996154785,4|8,0:0|0:3,0:0:0:0:
96,192,54626,1,8,0:0:0:0:
96,192,54792,1,8,0:0:0:0:
96,192,54959,6,0,P|88:141|94:96,1,67.5000025749208,4|0,0:0|0:0,0:0:0:0:
116,56,55292,1,8,0:0:0:0:
0,276,55459,2,0,P|36:270|67:270,1,67.5000025749208,2|0,0:0|0:0,0:0:0:0:
286,306,55792,2,0,L|218:311,1,67.5000025749208,2|8,0:0|0:0,0:0:0:0:
96,192,56126,1,0,0:0:0:0:
265,91,56292,6,0,B|273:50|264:8|264:8|234:26|208:54,1,135.000005149842,2|8,0:0|0:0,0:0:0:0:
149,254,56792,1,2,0:0:0:0:
149,254,56876,1,0,0:0:0:0:
149,254,56959,2,0,P|135:297|135:331,1,67.5000025749208
249,371,57292,2,0,P|229:343|219:312,1,67.5000025749208,8|0,0:0|0:3,0:3:0:0:
378,322,57626,6,0,P|336:318|298:304,1,80.9999975280763,2|0,0:0|0:3,0:3:0:0:
252,240,57959,1,8,0:0:0:0:
454,147,58126,2,0,P|457:188|452:237,1,80.9999975280763,4|0,0:0|0:0,0:0:0:0:
294,128,58459,2,0,L|296:41,1,80.9999975280763,2|8,0:0|0:0,0:0:0:0:
148,249,58792,2,0,P|137:322|207:377,1,161.999995056153,4|0,0:0|0:0,0:0:0:0:
209,174,59292,1,8,0:0:0:0:
9,283,59459,2,0,L|11:364,1,80.9999975280763,2|0,0:0|0:0,0:0:0:0:
120,32,59792,2,0,B|114:11|120:-7|120:-7|146:-6|188:38|188:38|183:77|183:77|161:103,1,161.999995056153,2|0,0:0|0:0,0:0:0:0:
84,200,60292,6,0,L|0:196,1,80.9999975280763,4|0,1:0|0:0,0:0:0:0:
120,32,60626,1,8,0:0:0:0:
169,294,60792,1,0,0:0:0:0:
169,294,60959,2,0,P|167:335|175:378,1,80.9999975280763,2|2,0:0|0:0,0:0:0:0:
447,126,61292,1,8,0:0:0:0:
483,350,61459,6,0,P|413:370|324:318,1,180,6|0,0:0|0:0,0:0:0:0:
55,290,61959,2,0,P|72:341|94:372,1,90,8|0,0:0|0:0,0:0:0:0:
305,149,62292,2,0,P|303:171|296:192,3,45,0|0|2|2,0:3|0:3|0:3|0:3,0:3:0:0:
182,50,62626,1,10,0:0:0:0:
142,79,62709,1,2,0:0:0:0:
139,128,62792,1,2,0:0:0:0:
177,159,62876,1,2,0:0:0:0:
225,149,62959,6,0,L|215:49,1,90,8|8,0:0|0:0,0:0:0:0:
368,110,63209,1,0,0:0:0:0:
385,165,63292,1,0,1:0:0:0:
372,222,63376,1,0,1:0:0:0:
325,257,63459,1,0,1:0:0:0:
425,47,63626,5,8,0:0:0:0:
452,113,63709,1,8,0:0:0:0:
462,183,63792,1,8,0:0:0:0:
444,253,63876,1,0,0:0:0:0:
392,302,63959,1,8,0:0:0:0:
0,214,64125,1,0,1:2:0:0:
492,32,64459,6,0,L|474:363,1,297.000009063721,12|0,0:0|1:0,0:0:0:0:
43,57,65292,1,6,1:2:0:0:
88,36,65376,1,2,0:0:0:0:
136,32,65459,1,2,0:0:0:0:
184,44,65542,1,2,0:0:0:0:
240,92,65626,6,0,L|248:216,1,90,4|2,1:0|0:0,0:0:0:0:
132,356,65959,2,0,P|116:296|136:240,1,90,8|2,0:0|0:0,0:0:0:0:
368,264,66292,1,0,0:0:0:0:
208,308,66459,1,2,0:0:0:0:
328,164,66626,1,8,0:0:0:0:
304,356,66792,1,2,0:0:0:0:
180,212,66959,6,0,L|84:208,1,90,0|2,0:0|0:0,0:0:0:0:
256,124,67292,1,8,0:0:0:0:
288,272,67459,1,2,0:0:0:0:
140,128,67626,2,0,P|128:76|140:28,1,90,0|2,0:0|1:2,0:0:0:0:
377,40,67959,2,0,P|383:84|372:128,1,90,8|2,0:0|0:0,0:0:0:0:
180,212,68292,6,0,B|111:208|111:208|77:239|28:226,1,135,4|0,0:0|0:0,0:0:0:0:
56,156,68626,2,0,P|44:112|60:60,1,90,8|2,0:0|0:0,0:0:0:0:
112,20,68876,1,0,0:0:0:0:
112,20,68959,2,0,L|232:24,1,90,0|2,0:0|0:0,0:0:0:0:
336,176,69292,2,0,L|340:64,1,90,8|2,0:0|0:0,0:0:0:0:
228,136,69626,5,0,0:0:0:0:
372,264,69792,1,2,0:0:0:0:
410,75,69959,1,8,0:0:0:0:
260,240,70126,2,0,B|204:248|204:248|144:232|144:232|72:244,1,180,2|2,0:0|0:0,0:0:0:0:
336,176,70626,1,8,0:0:0:0:
356,216,70709,1,0,0:0:0:0:
356,260,70792,1,2,0:0:0:0:
340,304,70876,1,0,0:0:0:0:
304,328,70959,6,0,L|208:324,1,90,4|2,0:0|0:0,0:0:0:0:
96,204,71292,2,0,P|139:199|200:200,1,90,8|2,0:0|0:0,0:0:0:0:
400,256,71626,2,0,L|396:352,1,90,0|2,0:0|0:0,0:0:0:0:
272,144,71959,2,0,P|252:100|256:40,1,90,8|2,0:0|0:0,0:0:0:0:
348,80,72292,5,0,0:0:0:0:
300,260,72459,1,2,0:0:0:0:
176,120,72626,1,8,0:0:0:0:
304,272,72792,1,2,0:0:0:0:
356,68,72959,6,0,L|452:64,1,90,0|2,0:0|1:2,0:0:0:0:
308,284,73292,1,8,1:2:0:0:
164,108,73459,1,2,1:2:0:0:
164,108,73542,1,0,0:0:0:0:
164,108,73626,6,0,P|108:64|36:84,1,135,4|0,1:0|0:0,0:0:0:0:
4,140,73959,2,0,P|48:156|92:140,1,90,8|2,0:0|0:0,0:0:0:0:
208,36,74292,1,0,0:0:0:0:
188,236,74459,1,2,0:0:0:0:
320,148,74626,2,0,L|416:144,1,90,8|2,0:0|0:0,0:0:0:0:
480,192,74876,1,0,0:0:0:0:
500,224,74959,6,0,P|504:268|476:316,1,90,4|2,0:0|0:0,0:0:0:0:
272,276,75292,1,8,0:0:0:0:
428,252,75459,1,2,0:0:0:0:
260,352,75626,5,0,1:2:0:0:
211,322,75709,1,0,1:2:0:0:
195,265,75792,1,2,1:2:0:0:
227,214,75876,1,0,1:2:0:0:
285,201,75959,5,8,3:2:0:0:
312,180,76042,1,0,3:2:0:0:
324,148,76126,1,2,3:2:0:0:
324,112,76209,1,0,3:2:0:0:
304,80,76292,6,0,L|132:76,1,161.999995056153,4|8,0:0|0:0,0:0:0:0:
8,204,76792,2,0,P|76:224|164:184,1,161.999995056153,4|0,0:0|0:0,0:0:0:0:
204,76,77292,1,8,0:0:0:0:
244,272,77459,1,4,0:0:0:0:
248,288,77792,5,0,0:0:0:0:
346,146,77959,1,8,0:0:0:0:
173,131,78126,1,0,0:0:0:0:
400,284,78292,6,0,P|452:292|504:264,1,99.0000030212403,8|0,1:3|0:0,0:0:0:0:
352,212,78542,2,0,P|319:253|324:328,1,107.999996704102,8|0,1:3|0:0,0:0:0:0:
440,208,78792,2,0,L|436:112,1,58.4999973220826,8|0,3:0|0:0,0:0:0:0:
384,76,78959,6,0,L|256:72,1,108
240,60,79292,6,0,P|244:108|244:168,1,90,12|2,0:0|0:0,0:0:0:0:
120,312,79626,1,0,0:0:0:0:
148,136,79792,1,2,0:0:0:0:
248,276,79959,1,8,0:0:0:0:
284,288,80042,1,0,0:0:0:0:
320,288,80126,1,2,0:0:0:0:
356,280,80209,1,0,0:0:0:0:
384,260,80292,6,0,L|388:200,1,45,4|0,1:0|0:0,0:0:0:0:
328,88,80459,1,2,0:2:0:0:
320,100,80542,1,0,0:0:0:0:
312,112,80626,2,0,L|252:108,1,45,8|0,0:0|0:0,0:0:0:0:
96,216,80792,2,0,L|164:212,1,45,2|0,1:2|0:0,0:0:0:0:
190,50,80958,5,0,1:0:0:0:
145,47,81041,1,0,1:0:0:0:
101,60,81125,1,0,1:0:0:0:
69,92,81208,1,0,1:0:0:0:
60,136,81291,5,0,1:0:0:0:
104,135,81375,1,0,1:0:0:0:
148,136,81458,1,0,1:0:0:0:
192,133,81541,1,0,1:0:0:0:
258,180,81625,6,0,P|313:184|372:173,1,90,4|2,1:0|0:0,0:0:0:0:
478,55,81958,2,0,P|447:100|427:157,1,90,8|2,0:0|0:0,0:3:0:0:
433,309,82291,1,0,0:0:0:0:
319,99,82458,1,2,0:0:0:0:
500,197,82625,1,8,0:0:0:0:
406,9,82791,1,2,0:0:0:0:
350,280,82958,6,0,P|347:332|353:379,1,90,0|2,0:0|0:0,0:0:0:0:
512,337,83291,1,8,0:0:0:0:
276,246,83458,2,0,L|231:249,1,45,2|0,0:0|0:0,0:0:0:0:
344,195,83625,2,0,P|400:189|440:195,1,90,0|2,0:0|1:2,0:0:0:0:
252,43,83958,2,0,P|299:13|338:2,1,90,8|2,1:2|0:0,0:0:0:0:
211,295,84291,6,0,P|160:311|71:215,1,180,4|8,0:0|0:0,0:0:0:0:
115,12,84791,1,2,0:0:0:0:
242,166,84958,2,0,B|316:139|374:194|374:194|345:199|320:187,1,180,0|8,0:3|0:0,0:0:0:0:
159,226,85458,1,2,0:0:0:0:
365,73,85625,5,0,0:0:0:0:
326,289,85791,2,0,P|319:339|333:382,1,90,2|8,0:0|0:0,0:0:0:0:
154,134,86125,2,0,B|22:141|22:141|79:166,1,180,2|2,0:0|0:0,0:0:0:0:
232,179,86625,1,8,0:0:0:0:
241,135,86708,1,0,0:0:0:0:
230,91,86791,1,2,0:0:0:0:
201,56,86875,1,0,0:0:0:0:
157,45,86958,6,0,L|286:52,1,90,4|2,0:0|0:0,0:0:0:0:
421,210,87291,2,0,P|376:218|292:217,1,90,8|2,0:0|0:0,0:0:0:0:
154,134,87625,1,0,0:0:0:0:
152,309,87791,1,2,0:0:0:0:
59,192,87958,1,8,0:0:0:0:
300,319,88125,1,2,0:0:0:0:
80,365,88291,6,0,P|65:325|70:276,1,90,0|2,0:0|0:0,0:0:0:0:
276,72,88624,1,8,0:0:0:0:
247,245,88791,1,2,0:0:0:0:
131,26,88958,1,0,0:0:0:0:
57,199,89124,1,2,1:2:0:0:
366,128,89291,1,8,1:2:0:0:
214,6,89458,1,2,1:2:0:0:
306,200,89625,6,0,P|369:236|441:207,1,135,4|0,0:0|0:0,0:0:0:0:
478,162,89958,1,8,0:0:0:0:
512,0,90125,1,2,0:0:0:0:
377,151,90291,6,0,P|397:243|390:321,1,135
375,357,90625,1,8,0:0:0:0:
512,278,90791,1,2,0:0:0:0:
301,104,90958,6,0,P|222:66|140:97,1,180,4|8,0:0|0:0,0:0:0:0:
140,96,91458,1,2,0:0:0:0:
87,254,91625,2,0,B|59:265|16:254|3:205|3:205|72:212,1,180,0|8,0:0|0:0,0:0:0:0:
219,165,92125,1,2,0:0:0:0:
461,294,92291,6,0,P|465:346|460:387,1,90,4|0,0:0|0:0,0:0:0:0:
318,220,92625,2,0,P|277:238|240:264,1,90,8|0,0:0|0:0,0:0:0:0:
330,84,92958,2,0,P|293:57|252:39,1,90
119,78,93291,1,8,0:0:0:0:
119,78,93458,1,0,0:0:0:0:
394,217,93625,6,0,P|444:182|451:64,1,180,4|8,0:0|0:0,0:0:0:0:
272,283,94125,1,0,0:0:0:0:
272,283,94291,2,0,P|266:336|272:373,1,90
284,148,94625,2,8,P|241:116|206:102,1,90,8|0,0:0|0:0,0:0:0:0:
414,349,94958,5,4,1:2:0:0:
412,336,95291,5,8,1:2:0:0:
102,270,95458,1,4,1:2:0:0:
103,286,95791,5,0,1:0:0:0:
212,357,95958,1,8,0:0:0:0:
127,182,96125,6,0,B|3:189|3:189|57:206,1,180,4|0,0:0|0:0,0:0:0:0:
265,105,96625,2,0,P|282:47|266:-21,1,90,8|0,0:0|0:0,0:0:0:0:
264,264,96958,1,8,0:0:0:0:
264,264,97125,5,0,1:0:0:0:
299,290,97208,1,0,1:0:0:0:
342,301,97291,1,0,1:0:0:0:
387,296,97375,1,0,1:0:0:0:
427,277,97458,1,0,1:0:0:0:
450,238,97541,1,0,1:0:0:0:
445,179,97625,6,0,L|470:286,1,90,4|2,1:0|0:0,0:0:0:0:
265,105,97958,1,8,0:0:0:0:
177,320,98125,2,0,P|127:329|75:317,1,90,2|0,0:0|0:0,0:0:0:0:
134,144,98458,1,2,0:0:0:0:
353,201,98625,1,8,0:0:0:0:
410,4,98791,1,2,0:0:0:0:
410,4,98958,6,0,P|361:-3|292:30,1,90,0|2,0:0|0:0,0:0:0:0:
134,144,99291,2,0,L|234:139,1,90,8|2,0:0|0:0,0:0:0:0:
123,12,99625,1,0,0:0:0:0:
35,258,99791,2,0,L|216:249,1,180,2|2,0:0|0:0,0:0:0:0:
469,112,100291,6,0,B|428:122|388:110|388:110|338:94|288:125,1,180,4|8,0:0|0:0,0:0:0:0:
233,170,100791,1,2,0:0:0:0:
432,341,100958,2,0,P|454:286|447:240,1,90,0|2,0:0|0:0,0:0:0:0:
213,318,101291,2,0,L|210:365,1,45,8|0,0:0|0:0,0:0:0:0:
303,363,101458,2,0,L|300:318,1,45,0|0,3:0|3:0,3:0:0:0:
146,264,101625,5,0,1:0:0:0:
113,294,101708,1,0,1:0:0:0:
69,305,101791,1,0,1:0:0:0:
26,290,101875,1,0,1:0:0:0:
7,249,101958,5,8,3:2:0:0:
27,204,102041,1,0,3:0:0:0:
47,159,102125,1,4,3:0:0:0:
67,114,102207,1,4,3:0:0:0:
87,69,102291,1,12,1:2:0:0:
340,222,102458,1,8,1:2:0:0:
356,204,102958,6,0,B|360:140|360:140|348:88|348:88|352:20,1,180,4|8,1:0|0:0,0:0:0:0:
440,84,103458,1,0,0:0:0:0:
268,160,103625,2,0,L|172:156,1,90,0|2,0:0|0:0,0:0:0:0:
288,152,103958,5,8,0:0:0:0:
196,272,104125,2,0,L|200:376,1,90,2|0,0:0|0:1,0:0:0:0:
288,280,104458,1,0,0:0:0:0:
112,192,104625,1,8,0:0:0:0:
196,112,104791,2,0,L|200:8,1,90,2|0,0:0|0:0,0:0:0:0:
116,212,105125,5,0,0:0:0:0:
284,132,105291,1,8,0:0:0:0:
320,128,105375,1,0,0:0:0:0:
356,132,105458,1,0,0:0:0:0:
388,148,105541,1,0,0:0:0:0:
416,172,105625,6,0,P|416:220|420:272,1,90,6|0,0:0|0:0,0:0:0:0:
268,336,105958,2,0,P|313:335|368:332,1,90,8|0,0:0|0:0,0:0:0:0:
432,156,106291,2,0,L|476:158,1,45,2|0,0:0|0:0,0:0:0:0:
324,82,106458,2,0,L|240:90,1,45
196,194,106625,2,0,L|188:262,1,45,8|0,0:0|0:0,0:0:0:0:
108,102,106791,6,0,L|100:2,1,90,4|0,1:0|0:0,0:0:0:0:
212,120,107125,1,0,0:0:0:0:
108,236,107291,6,0,L|0:232,1,99.0000030212403,12|0,0:0|0:0,0:0:0:0:
9,232,107541,1,0,0:0:0:0:
9,232,107625,1,8,0:3:0:0:
200,332,107791,6,0,P|264:300|336:320,1,107.999996704102,4|8,0:0|0:0,0:0:0:0:
340,316,108041,1,0,3:0:0:0:
384,312,108125,1,0,3:0:0:0:
424,292,108208,1,0,3:0:0:0:
444,256,108291,6,0,L|440:144,1,90,4|0,1:0|0:0,0:0:0:0:
488,24,108625,2,0,L|360:32,1,90,10|0,0:0|0:0,0:0:0:0:
160,136,108958,2,0,L|268:140,1,90,2|0,0:0|0:0,0:0:0:0:
360,144,109291,1,8,0:0:0:0:
256,248,109458,5,0,0:0:0:0:
256,248,109541,1,0,0:0:0:0:
256,248,109625,1,2,0:0:0:0:
148,120,109791,2,0,L|152:20,1,90,2|8,0:0|0:0,0:0:0:0:
320,200,110125,2,0,B|252:196|252:196|212:208|212:208|136:204,1,180,2|2,0:0|0:0,0:0:0:0:
48,164,110625,1,8,0:0:0:0:
196,320,110791,5,0,0:0:0:0:
196,320,110875,1,0,0:0:0:0:
196,320,110958,2,0,P|236:272|216:172,1,135,4|0,0:0|0:0,0:0:0:0:
188,144,111291,2,0,L|88:148,1,90,10|0,0:0|0:0,0:0:0:0:
256,256,111625,1,2,0:0:0:0:
288,268,111708,1,0,0:0:0:0:
324,272,111791,1,0,0:0:0:0:
360,268,111875,1,0,0:0:0:0:
392,252,111958,1,8,0:0:0:0:
420,228,112041,1,0,0:0:0:0:
436,200,112125,6,0,L|432:104,1,90,4|0,1:0|0:0,0:0:0:0:
328,168,112458,1,0,0:0:0:0:
456,304,112625,5,12,0:0:0:0:
496,84,112791,1,0,3:0:0:0:
496,84,112875,1,8,3:0:0:0:
496,84,112958,1,4,3:0:0:0:
312,216,113125,6,0,L|244:212,1,45,4|0,0:0|0:0,0:0:0:0:
148,192,113291,2,0,L|178:252,1,45,8|0,0:0|0:0,0:0:0:0:
209,346,113458,2,0,L|246:289,1,45,8|0,0:0|0:0,0:0:0:0:
320,192,113625,6,0,L|308:92,1,90,4|0,1:0|0:0,0:0:0:0:
204,28,113958,1,8,1:2:0:0:
164,168,114125,1,0,0:0:0:0:
308,88,114291,2,0,P|348:84|412:84,1,90,8|8,0:1|0:1,0:0:0:0:
408,272,114625,6,0,B|208:289|332:236|124:252,1,270,12|8,1:2|0:1,0:0:0:0:
40,320,115291,1,8,1:2:0:0:
204,356,115458,1,0,0:0:0:0:
188,160,115625,2,0,L|180:60,1,90,8|8,0:1|0:1,0:0:0:0:
88,168,115958,5,8,1:2:0:0:
204,344,116125,1,0,0:0:0:0:
284,144,116291,2,0,P|340:132|416:160,1,135,8|0,0:1|0:0,0:0:0:0:
424,168,116625,2,0,L|420:68,1,90,8|0,1:2|0:0,0:0:0:0:
340,240,116958,1,8,0:1:0:0:
468,332,117125,1,8,1:2:0:0:
484,328,117458,6,0,B|416:324|416:324|372:336|372:336|296:332,1,180,4|8,1:0|0:1,0:0:0:0:
192,204,117958,1,8,1:2:0:0:
191,367,118125,5,0,0:0:0:0:
191,367,118208,1,0,0:0:0:0:
191,367,118291,1,8,0:1:0:0:
276,144,118458,1,8,0:1:0:0:
77,275,118625,1,8,1:2:0:0:
315,285,118791,1,8,1:2:0:0:
129,138,118958,6,0,L|4:132,1,99.0000030212403,4|0,1:0|0:0,0:0:0:0:
232,236,119291,1,8,1:2:0:0:
248,24,119458,1,0,0:0:0:0:
124,152,119625,2,0,L|128:260,1,99.0000030212403,8|8,0:1|0:1,0:0:0:0:
428,128,119958,6,0,P|352:88|288:104,1,148.50000453186,12|0,1:2|0:0,0:0:0:0:
280,120,120291,2,0,L|276:12,1,99.0000030212403,8|8,0:1|0:1,0:0:0:0:
124,152,120625,2,0,L|128:256,1,99.0000030212403,8|0,1:2|0:0,0:0:0:0:
272,340,120958,6,0,P|316:280|308:208,1,148.50000453186,8|0,0:1|0:0,0:0:0:0:
292,188,121291,1,8,1:2:0:0:
112,112,121458,1,0,0:0:0:0:
224,256,121625,6,0,L|340:260,1,99.0000030212403,8|0,0:1|0:0,0:0:0:0:
464,176,121958,2,0,P|408:160|348:184,1,99.0000030212403,8|0,1:2|0:0,0:0:0:0:
264,348,122291,1,8,0:1:0:0:
208,128,122458,1,8,1:2:0:0:
196,112,122791,6,0,P|152:84|20:152,1,198.000006042481,4|8,0:0|0:1,0:0:0:0:
119,182,123291,2,0,P|131:229|116:276,1,99.0000030212403,0|0,1:0|0:0,0:0:0:0:
100,292,123541,1,0,0:0:0:0:
84,304,123625,2,0,L|200:300,1,99.0000030212403,8|0,0:1|0:0,0:0:0:0:
296,200,123958,1,0,1:0:0:0:
176,100,124125,2,0,L|116:104,1,49.5000015106202,0|0,1:0|1:0,1:0:0:0:
248,48,124291,6,0,B|312:52|312:52|364:40|364:40|432:44,1,180,12|8,1:0|1:2,0:0:0:0:
248,212,124791,2,0,P|192:228|148:120,1,180,4|8,0:0|0:1,0:0:0:0:
332,168,125291,6,0,P|344:232|320:276,1,90,12|0,1:0|0:0,0:0:0:0:
240,324,125625,2,0,L|136:320,1,90,8|8,0:1|0:1,0:0:0:0:
340,364,125958,1,8,1:2:0:0:
248,212,126125,1,0,0:0:0:0:
408,288,126291,6,0,L|512:284,1,90,8|8,0:1|0:1,0:0:0:0:
248,212,126625,2,0,L|158:215,1,90,8|0,1:2|0:0,0:0:0:0:
424,184,126958,6,0,P|460:132|440:44,1,135,8|0,0:1|0:0,0:0:0:0:
400,12,127291,1,8,1:2:0:0:
300,200,127458,2,0,L|152:192,1,135,8|0,0:1|0:0,0:0:0:0:
152,184,127791,2,0,L|156:280,1,72,8|0,1:2|0:0,0:0:0:0:
52,328,128125,6,0,B|72:284|64:248|64:248|24:196|64:128,1,180,4|8,1:0|0:1,0:0:0:0:
60,140,128541,1,0,0:0:0:0:
72,128,128625,1,8,1:2:0:0:
216,264,128791,1,0,0:0:0:0:
192,36,128958,5,8,0:1:0:0:
128,236,129125,1,8,0:1:0:0:
328,300,129291,1,8,1:2:0:0:
392,100,129458,1,0,1:0:0:0:
200,132,129625,6,0,L|60:136,1,99.0000030212403,12|0,1:0|0:0,0:0:0:0:
264,244,129958,1,8,1:2:0:0:
304,72,130125,2,0,B|372:68|372:68|436:80|436:80|512:76,1,198.000006042481,4|8,0:0|0:1,0:0:0:0:
256,252,130625,6,0,L|56:248,1,198.000006042481,12|0,1:0|0:0,0:0:0:0:
200,132,131125,1,8,0:1:0:0:
336,220,131291,2,0,P|340:276|312:320,1,99.0000030212403,8|0,1:2|0:0,0:0:0:0:
196,120,131625,2,0,L|200:16,1,99.0000030212403,8|8,0:1|0:1,0:0:0:0:
320,108,131958,1,8,1:2:0:0:
192,264,132125,1,0,0:0:0:0:
336,108,132291,6,0,L|440:112,1,99.0000030212403,8|0,0:1|0:0,0:0:0:0:
364,272,132625,1,8,1:2:0:0:
192,128,132791,1,8,0:1:0:0:
176,132,133125,2,0,L|60:128,1,99.0000030212403,8|0,1:2|1:0,0:0:0:0:
264,76,133458,6,0,B|288:140|260:188|260:188|264:240,1,148.50000453186,4|0,1:2|0:0,0:0:0:0:
272,236,133791,1,2,0:0:0:0:
64,244,133958,2,0,B|124:220|124:220|196:240,1,132.00000402832,8|0,1:2|0:0,0:0:0:0:
296,304,134291,5,8,1:2:0:0:
328,316,134375,1,8,1:2:0:0:
364,316,134458,1,8,1:2:0:0:
396,308,134541,1,8,1:2:0:0:
428,292,134625,1,8,1:2:0:0:
452,268,134708,1,8,1:2:0:0:
464,236,134791,1,8,1:2:0:0:
468,200,134875,1,8,1:2:0:0:
468,164,134958,6,0,P|465:113|464:64,1,90,4|0,1:0|0:0,0:0:0:0:
356,240,135291,2,0,P|358:188|364:144,1,90,8|0,1:2|0:0,0:0:0:0:
208,256,135625,2,0,P|232:216|256:168,1,90,2|0,0:0|0:0,0:0:0:0:
352,36,135958,2,0,P|278:38|188:40,1,135,8|0,1:2|0:0,0:0:0:0:
188,36,136291,1,2,0:0:0:0:
64,144,136458,5,0,0:0:0:0:
124,276,136625,1,8,1:2:0:0:
208,158,136791,1,0,0:0:0:0:
20,276,136958,5,2,0:0:0:0:
245,91,137125,1,0,0:0:0:0:
40,70,137291,1,8,1:2:0:0:
224,296,137458,1,0,0:0:0:0:
224,296,137541,1,0,0:0:0:0:
224,296,137625,6,0,B|320:280|264:316|400:295,1,135,2|0,0:0|0:0,0:0:0:0:
424,264,137958,1,8,1:2:0:0:
344,140,138125,2,0,P|288:128|212:216,1,180,2|0,0:0|0:0,0:0:0:0:
300,216,138625,1,8,1:2:0:0:
328,16,138791,5,4,0:0:0:0:
320,28,139125,1,0,0:0:0:0:
192,84,139291,2,0,P|140:84|80:80,1,90,8|0,1:2|0:0,0:0:0:0:
296,160,139625,2,0,P|340:159|388:156,1,90,2|0,0:0|0:0,0:0:0:0:
184,212,139958,2,0,P|178:261|176:312,1,90,8|0,1:2|0:0,0:0:0:0:
308,360,140291,6,0,P|340:300|320:224,1,120,2|0,0:0|0:0,0:0:0:0:
280,176,140625,2,0,L|152:172,1,90,8|0,1:2|0:0,0:0:0:0:
92,220,140958,1,2,0:0:0:0:
244,280,141125,1,0,1:0:0:0:
228,56,141291,1,12,1:2:0:0:
216,68,141625,6,0,L|104:64,1,90,2|0,0:0|0:0,0:0:0:0:
344,24,141958,2,0,L|348:128,1,90,8|0,1:2|0:0,0:0:0:0:
290,355,142291,1,2,0:0:0:0:
268,180,142458,1,0,0:0:0:0:
390,308,142625,1,0,1:0:0:0:
216,276,142791,1,0,0:0:0:0:
376,200,142958,6,0,P|388:156|368:96,1,90,2|0,0:0|0:0,0:0:0:0:
364,96,143208,1,0,0:0:0:0:
344,84,143291,1,8,1:2:0:0:
116,188,143458,6,0,L|120:288,1,90,2|0,0:0|0:0,0:0:0:0:
224,216,143791,1,0,0:0:0:0:
60,64,143958,1,8,1:2:0:0:
126,320,144125,6,0,L|120:172,1,148.50000453186,6|0,0:0|0:0,0:0:0:0:
116,136,144458,1,8,0:1:0:0:
236,32,144625,1,8,1:2:0:0:
236,240,144791,1,0,1:0:0:0:
104,12,144958,5,2,1:2:0:0:
296,160,145125,1,2,1:2:0:0:
32,192,145291,2,0,P|12:136|28:84,1,107.999996704102,4|0,1:2|0:0,0:0:0:0:
168,220,145625,6,0,L|151:380,1,161.999995056153,4|2,0:0|0:0,0:0:0:0:
178,135,146291,2,0,P|175:86|157:50,1,80.9999975280763,2|8,0:0|0:0,0:0:0:0:
244,188,146625,2,0,P|287:209|395:170,1,161.999995056153,4|4,0:0|0:0,0:0:0:0:
306,27,147291,6,0,P|303:78|314:121,1,80.9999975280763,2|0,0:0|0:0,0:0:0:0:
480,229,147625,1,2,0:0:0:0:
480,229,147958,2,0,P|482:182|472:135,1,80.9999975280763,8|0,0:0|0:0,0:0:0:0:
336,280,148291,6,0,L|168:272,2,161.999995056153,4|2|2,0:0|0:0|0:0,0:0:0:0:
297,208,149125,1,8,0:0:0:0:
216,203,149291,1,4,0:0:0:0:
174,272,149458,1,0,0:0:0:0:
93,277,149625,6,0,L|114:21,1,242.999992584229,4|0,0:0|0:0,0:0:0:0:
182,75,150291,1,2,0:0:0:0:
263,70,150458,1,8,0:0:0:0:
323,15,150625,1,12,0:0:0:0:
342,93,150791,1,0,0:0:0:0:
394,158,150958,6,0,P|448:181|483:179,1,80.9999975280763,4|0,0:0|0:0,0:0:0:0:
313,169,151291,2,0,P|320:227|339:256,1,80.9999975280763,2|0,0:0|0:0,0:0:0:0:
234,148,151625,2,8,P|187:183|171:214,1,80.9999975280763,2|8,0:0|0:0,0:0:0:0:
137,319,151958,1,4,0:0:0:0:
123,320,152291,6,0,L|307:312,1,161.999995056153,4|2,0:0|0:0,0:0:0:0:
365,307,152791,1,0,0:0:0:0:
419,246,152958,2,0,P|433:198|422:152,1,80.9999975280763,2|8,0:0|0:0,0:0:0:0:
440,324,153291,2,0,P|474:360|519:373,1,80.9999975280763,12|0,0:0|0:0,0:0:0:0:
341,227,153625,6,0,P|272:191|182:256,2,161.999995056153,4|2|2,0:0|0:0|0:0,0:0:0:0:
269,276,154458,1,8,0:0:0:0:
200,222,154625,2,0,L|196:127,1,80.9999975280763
73,23,154958,6,0,L|64:224,1,161.999995056153,4|2,0:0|0:0,0:0:0:0:
229,47,155458,2,0,P|189:44|151:57,1,80.9999975280763,2|0,0:0|0:0,0:0:0:0:
289,97,155791,1,2,0:0:0:0:
369,88,155958,1,12,0:0:0:0:
400,13,156125,1,8,0:0:0:0:
418,152,156291,6,0,L|412:276,1,90,4|0,0:0|0:0,0:0:0:0:
98,241,156625,2,0,L|94:152,1,90,10|0,0:0|0:0,0:0:0:0:
48,84,156875,1,0,0:0:0:0:
48,84,156958,2,0,P|96:72|144:88,1,90,4|4,0:0|0:0,0:0:0:0:
256,256,157291,1,0,0:0:0:0:
256,136,157458,1,0,0:0:0:0:
212,336,157625,6,0,B|256:344|256:344|328:332,1,90,4|0,0:0|0:0,0:0:0:0:
413,241,157958,2,0,L|418:152,1,90,10|0,0:0|0:0,0:0:0:0:
463,83,158208,1,0,0:0:0:0:
463,83,158291,2,0,P|421:71|377:82,1,90,4|4,0:0|0:0,0:0:0:0:
256,256,158625,1,8,1:2:0:0:
460,308,158791,5,0,0:0:0:0:
460,308,158875,1,0,0:0:0:0:
460,308,158958,2,0,P|488:268|452:172,1,135,4|0,0:0|0:0,0:0:0:0:
404,156,159291,2,0,L|296:164,1,90,10|0,0:0|0:0,0:0:0:0:
172,280,159625,1,4,0:0:0:0:
108,156,159791,2,0,L|216:164,1,90,4|0,0:0|0:0,0:0:0:0:
340,280,160125,1,4,0:0:0:0:
256,92,160291,6,0,L|256:0,1,90,4|0,0:0|0:0,0:0:0:0:
212,204,160625,2,0,P|260:216|316:192,1,90,10|0,0:0|0:0,0:0:0:0:
348,148,160875,1,0,0:0:0:0:
348,148,160958,1,4,0:0:0:0:
176,80,161125,1,4,0:0:0:0:
40,188,161291,2,0,P|20:250|52:308,1,135,8|0,1:2|0:0,0:0:0:0:
128,332,161625,5,4,3:0:0:0:
160,328,161708,1,0,2:0:0:0:
192,324,161791,1,0,2:0:0:0:
224,320,161875,1,0,2:0:0:0:
256,316,161958,1,10,3:0:0:0:
288,320,162041,1,0,2:0:0:0:
320,324,162125,1,0,2:0:0:0:
352,328,162208,1,0,2:0:0:0:
384,332,162291,6,0,L|440:328,1,45,4|0,0:0|0:0,0:0:0:0:
464,232,162458,2,0,B|468:168|468:168|448:120|448:120|452:52,1,180,4|0,0:0|0:0,0:0:0:0:
352,196,162958,2,0,L|252:200,1,90,4|0,0:0|0:0,0:0:0:0:
164,96,163291,2,0,L|253:92,1,90,10|0,0:0|0:0,0:0:0:0:
420,152,163625,2,0,P|432:208|412:256,1,90,4|4,0:0|0:0,0:0:0:0:
88,238,163958,2,0,P|79:194|92:152,1,90,8|0,1:2|0:0,0:0:0:0:
256,16,164291,5,4,0:2:0:0:
316,64,164625,1,0,0:0:0:0:
292,136,164958,1,0,0:0:0:0:
220,136,165291,1,0,0:0:0:0:
196,64,165625,1,0,0:0:0:0:
196,64,166291,6,0,B|264:60|264:60|328:77|328:77|416:72,1,202.500007724762
488,40,166958,5,2,0:0:0:0:
472,64,167041,1,0,0:0:0:0:
464,92,167125,1,0,0:0:0:0:
464,124,167208,1,0,0:0:0:0:
472,152,167291,1,8,0:1:0:0:
480,180,167375,1,0,0:0:0:0:
480,212,167458,1,0,0:0:0:0:
472,240,167541,1,0,0:0:0:0:
456,268,167625,5,8,0:1:0:0:
432,284,167708,1,0,0:0:0:0:
404,288,167791,1,0,0:0:0:0:
372,284,167875,1,0,0:0:0:0:
344,272,167958,1,8,0:1:0:0:
324,248,168041,1,0,0:0:0:0:
312,220,168125,1,0,0:0:0:0:
312,188,168208,1,0,0:0:0:0:
324,160,168291,5,8,0:1:0:0:
292,172,168375,1,0,0:0:0:0:
260,172,168458,1,0,0:0:0:0:
228,160,168541,1,0,0:0:0:0:
204,136,168625,1,8,0:1:0:0:
176,116,168708,1,0,0:0:0:0:
144,108,168791,1,0,0:0:0:0:
112,108,168875,1,0,0:0:0:0:
80,120,168958,6,0,P|72:144|72:160,3,33.7500012874604,8|0|0|0,0:1|0:0|0:0|0:0,0:0:0:0:
128,240,169291,2,0,P|136:216|136:200,3,33.7500012874604,8|0|0|0,0:1|0:0|0:0|0:0,0:0:0:0:
80,328,169625,5,8,0:1:0:0:
106,326,169708,1,0,0:0:0:0:
132,325,169791,1,0,0:0:0:0:
159,323,169875,1,0,0:0:0:0:
185,321,169958,1,8,0:1:0:0:
211,320,170041,1,0,0:0:0:0:
238,318,170125,1,0,0:0:0:0:
264,317,170208,1,0,0:0:0:0:
291,315,170292,5,8,0:1:0:0:
268,292,170375,1,0,0:0:0:0:
256,260,170458,1,0,0:0:0:0:
256,228,170541,1,0,0:0:0:0:
272,196,170625,1,8,0:1:0:0:
300,176,170708,1,0,0:0:0:0:
332,172,170791,1,0,0:0:0:0:
364,176,170875,1,0,0:0:0:0:
392,196,170958,6,0,L|396:252,3,33.7500012874604,8|0|0|0,0:1|0:0|0:0|0:0,0:0:0:0:
472,116,171291,2,0,L|469:82,3,33.7500012874604,8|0|0|0,0:1|0:0|0:0|0:0,0:0:0:0:
354,34,171625,6,0,L|388:32,3,33.7500012874604,8|0|0|0,0:1|0:0|0:0|0:0,0:0:0:0:
296,132,171958,2,0,L|300:188,1,33.7500012874604,8|0,0:1|0:0,0:0:0:0:
220,72,172125,2,0,L|217:38,1,33.7500012874604
135,109,172291,5,2,0:0:0:0:
112,124,172375,1,0,0:0:0:0:
96,144,172458,1,0,0:0:0:0:
84,168,172541,1,0,0:0:0:0:
80,196,172625,1,8,0:1:0:0:
84,224,172708,1,0,0:0:0:0:
92,248,172791,1,0,0:0:0:0:
108,272,172875,1,0,0:0:0:0:
128,288,172958,5,8,0:1:0:0:
152,280,173041,1,0,0:0:0:0:
180,276,173125,1,0,0:0:0:0:
208,276,173208,1,0,0:0:0:0:
236,280,173291,1,8,0:1:0:0:
260,288,173375,1,0,0:0:0:0:
284,300,173458,1,0,0:0:0:0:
304,316,173541,1,0,0:0:0:0:
324,336,173625,5,2,0:0:0:0:
356,316,173708,1,0,0:0:0:0:
380,288,173791,1,0,0:0:0:0:
392,252,173875,1,0,0:0:0:0:
392,216,173958,1,8,0:1:0:0:
380,180,174041,1,0,0:0:0:0:
360,148,174125,1,0,0:0:0:0:
332,124,174208,1,0,0:0:0:0:
292,106,174291,5,2,0:0:0:0:
276,66,174375,1,0,0:0:0:0:
289,25,174458,1,0,0:0:0:0:
325,2,174541,1,0,0:0:0:0:
368,7,174624,1,8,0:1:0:0:
397,38,174708,1,0,0:0:0:0:
399,81,174791,1,0,0:0:0:0:
374,115,174875,1,0,0:0:0:0:
332,124,174958,6,0,P|281:122|224:120,1,90,0|2,0:0|0:0,0:0:0:0:
84,196,175291,2,0,P|127:196|190:200,1,85.4999977169037,0|2,0:0|0:0,0:0:0:0:
324,288,175625,2,0,P|279:288|229:285,1,80.9999975280763,0|2,0:0|0:0,0:0:0:0:
104,360,175958,2,0,P|139:360|187:362,1,72,0|2,0:0|0:0,0:0:0:0:
351,288,176291,5,0,1:0:0:0:
61,199,176458,1,8,1:3:0:0:
61,199,176541,1,0,0:0:0:0:
61,199,176625,1,12,1:3:0:0:
360,104,176791,2,0,P|404:108|476:112,1,90,4|0,1:2|0:0,0:0:0:0:
296,164,177125,5,4,0:3:0:0:
208,116,177291,1,4,0:3:0:0:
108,128,177458,1,4,0:3:0:0:
36,228,177625,6,0,P|36:280|32:328,1,90,4|0,0:0|0:0,0:0:0:0:
192,368,177958,1,8,0:0:0:0:
144,284,178125,2,0,P|139:195|136:96,1,180,2|0,0:0|0:0,0:0:0:0:
304,196,178625,2,0,P|256:195|200:192,1,90,8|0,0:0|0:0,0:0:0:0:
72,60,178958,6,0,P|120:28|200:56,1,135,2|0,0:0|0:0,0:0:0:0:
204,64,179291,1,8,0:0:0:0:
112,212,179458,2,0,P|66:209|16:208,1,90,2|0,0:0|0:0,0:0:0:0:
208,160,179791,2,0,P|209:215|212:284,1,90,2|8,0:0|0:0,0:0:0:0:
216,344,180125,1,0,0:0:0:0:
216,344,180208,1,0,0:0:0:0:
216,344,180291,5,4,1:0:0:0:
356,244,180458,1,0,0:0:0:0:
256,104,180625,1,8,0:0:0:0:
116,208,180791,2,0,L|16:204,1,90,4|0,0:0|0:0,0:0:0:0:
296,312,181125,5,0,0:0:0:0:
256,104,181291,1,8,0:0:0:0:
120,220,181458,2,0,L|20:216,1,90,4|0,0:0|0:0,0:0:0:0:
300,324,181791,5,0,0:0:0:0:
260,112,181958,1,8,0:0:0:0:
124,232,182125,2,0,L|24:228,1,90,4|0,0:0|0:0,0:0:0:0:
168,312,182458,2,0,P|204:272|176:156,1,161.999995056153,10|0,0:0|0:0,0:0:0:0:
96,88,182958,6,0,L|276:96,1,161.999995056153,4|8,1:0|0:0,0:0:0:0:
380,28,183458,1,0,0:0:0:0:
380,28,183541,1,0,0:0:0:0:
380,28,183625,1,2,0:0:0:0:
312,216,183791,1,2,0:0:0:0:
232,12,183958,1,10,0:0:0:0:
392,164,184125,6,0,L|388:280,1,80.9999975280763,4|0,0:0|0:0,0:0:0:0:
216,336,184458,1,0,0:0:0:0:
160,256,184625,2,0,P|216:236|253:248,1,80.9999975280763,8|0,0:0|0:0,0:0:0:0:
364,344,184958,2,0,L|456:340,1,80.9999975280763
264,144,185291,1,8,0:0:0:0:
216,336,185458,1,0,0:0:0:0:
332,96,185625,6,0,P|256:100|180:100,1,121.499996292114,4|0,1:2|0:0,0:0:0:0:
136,88,185958,1,4,0:0:0:0:
301,305,186125,6,0,P|332:240|373:172,1,121.499996292114,4|0,1:2|0:0,0:0:0:0:
406,140,186458,1,4,0:0:0:0:
134,174,186625,6,0,P|176:236|214:303,1,121.499996292114,4|0,1:2|0:0,0:0:0:0:
224,352,186958,1,0,0:0:0:0:
112,296,187180,6,0,L|36:300,2,53.9999983520508,8|8|0,0:2|0:2|1:0,0:0:0:0:
216,208,187514,1,0,1:0:0:0:
240,236,187625,6,0,L|236:316,1,53.9999983520508,8|4,0:0|0:0,0:0:0:0:
120,180,187847,2,0,L|122:126,1,53.9999983520508,4|8,0:0|0:0,0:0:0:0:
276,32,188069,2,0,L|273:85,1,53.9999983520508,4|4,0:0|0:0,0:0:0:0:
160,272,188291,5,4,0:2:0:0:
384,208,189625,5,2,0:0:0:0:
216,46,190958,5,2,0:0:0:0:
204,56,192125,6,0,L|132:52,1,53.9999983520508,2|0,0:0|0:0,0:0:0:0:
96,120,192458,2,0,L|104:184,1,53.9999983520508,2|0,0:0|0:0,0:0:0:0:
156,248,192791,2,0,L|44:240,1,107.999996704102,2|0,0:0|0:0,0:0:0:0:
28,244,193625,5,2,0:0:0:0:
272,24,194958,5,2,0:0:0:0:
276,40,195625,1,2,0:0:0:0:
341,346,196291,5,2,0:0:0:0:
336,360,197125,6,0,L|272:356,1,53.9999983520508
220,316,197458,1,0,0:0:0:0:
148,348,197625,2,0,L|144:232,1,107.999996704102,2|0,0:0|0:0,0:0:0:0:
380,104,198291,6,0,L|378:176,1,53.9999983520508,2|0,0:0|0:0,0:0:0:0:
377,236,198625,1,2,0:3:0:0:
377,236,198958,6,0,B|316:276|268:264|215:248|207:238|224:136|212:120|172:96|96:120|56:108|20:144|5:171|-11:204|16:224|-16:284|8:328|68:356|148:332|176:336|200:304|196:272|208:256|232:252|260:184|280:120|236:44,1,921.951185200345,2|0,0:0|0:0,0:0:0:0:
160,12,204125,1,0,3:0:0:0:
160,12,204208,1,0,3:0:0:0:
160,12,204291,6,0,L|104:8,3,33.7500012874604,8|0|0|0,0:1|0:0|0:0|0:0,0:0:0:0:
56,80,204625,2,0,L|52:136,3,33.7500012874604,8|0|0|0,0:1|0:0|0:0|0:0,0:0:0:0:
124,184,204958,2,0,L|180:188,3,33.7500012874604,8|0|0|0,0:1|0:0|0:0|0:0,0:0:0:0:
224,116,205291,2,0,L|228:60,3,33.7500012874604,8|0|0|0,0:1|0:0|0:0|0:0,0:0:0:0:
296,40,205625,5,8,0:0:0:0:
328,32,205708,1,0,0:0:0:0:
360,32,205791,1,0,0:0:0:0:
392,40,205875,1,0,0:0:0:0:
424,56,205958,1,8,0:0:0:0:
448,80,206041,1,0,0:0:0:0:
464,112,206125,1,0,0:0:0:0:
472,144,206208,1,0,0:0:0:0:
468,176,206291,5,8,0:0:0:0:
424,152,206375,1,0,0:0:0:0:
374,161,206458,1,0,0:0:0:0:
342,200,206541,1,0,0:0:0:0:
342,250,206624,1,8,0:0:0:0:
375,287,206708,1,0,0:0:0:0:
425,296,206791,1,0,0:0:0:0:
468,270,206874,1,0,0:0:0:0:
485,223,206957,5,4,0:0:0:0:
284,104,207291,2,0,L|168:108,1,90,8|8,0:0|0:3,0:0:0:0:
48,84,207625,1,8,3:0:0:0:
136,324,207791,2,0,P|168:248|116:152,1,180,4|0,3:0|3:0,0:0:0:0:
52,248,208291,5,4,1:2:0:0:
240,328,208458,2,0,P|258:305|283:286,1,53.9999983520508,2|0,0:2|0:0,0:0:0:0:
406,209,208625,2,0,P|377:204|348:192,1,53.9999983520508,2|0,0:2|0:0,0:0:0:0:
219,124,208791,2,0,P|229:150|233:182,1,53.9999983520508,2|0,0:2|0:0,0:0:0:0:
167,317,208958,5,0,0:0:0:0:
130,307,209041,1,0,0:0:0:0:
97,284,209125,1,0,0:0:0:0:
74,252,209208,1,0,0:0:0:0:
64,214,209292,1,0,0:0:0:0:
66,175,209375,1,0,0:0:0:0:
83,139,209459,1,0,0:0:0:0:
110,110,209542,1,0,0:0:0:0:
146,94,209626,5,6,0:0:0:0:
166,209,209791,1,2,0:0:0:0:
366,94,209958,1,8,0:0:0:0:
346,209,210123,1,2,0:0:0:0:
256,12,210291,5,0,0:0:0:0:
443,115,210458,1,2,0:0:0:0:
223,90,210625,1,8,0:0:0:0:
417,37,210791,1,2,0:0:0:0:
339,20,210958,5,0,0:0:0:0:
428,209,211125,1,2,0:0:0:0:
439,108,211291,1,8,0:0:0:0:
421,315,211458,1,2,0:0:0:0:
247,210,211625,5,0,0:0:0:0:
428,209,211791,1,2,1:2:0:0:
244,322,211958,1,8,1:2:0:0:
421,315,212125,1,2,0:0:0:0:
167,269,212291,6,0,B|101:258|49:295|49:295|100:315|136:315,1,180,4|8,0:0|0:0,0:0:0:0:
258,316,212791,1,2,0:0:0:0:
74,187,212958,2,0,P|63:129|71:79,1,90,0|2,0:0|0:0,0:0:0:0:
118,42,213291,1,8,0:0:0:0:
194,40,213458,1,2,0:0:0:0:
247,95,213625,5,0,0:0:0:0:
388,66,213791,2,0,P|432:38|454:3,1,90,2|8,0:0|0:0,0:0:0:0:
339,197,214125,2,0,P|316:241|361:361,1,180,2|2,0:0|0:0,0:0:0:0:
313,41,214625,1,8,0:0:0:0:
298,25,214708,5,0,0:0:0:0:
270,12,214791,5,2,0:0:0:0:
230,7,214875,5,0,0:0:0:0:
169,31,214958,5,4,0:0:0:0:
104,194,215125,1,2,0:0:0:0:
105,75,215291,5,8,0:0:0:0:
170,238,215458,1,2,0:0:0:0:
198,124,215625,5,0,0:0:0:0:
98,276,215792,1,2,0:0:0:0:
240,279,215958,1,8,0:0:0:0:
39,151,216125,1,2,0:0:0:0:
156,356,216291,5,0,0:0:0:0:
170,238,216458,1,2,0:0:0:0:
356,356,216625,5,8,0:0:0:0:
342,238,216792,1,2,0:0:0:0:
256,384,216958,5,0,0:0:0:0:
254,154,217125,1,2,1:2:0:0:
76,359,217291,1,8,1:2:0:0:
436,359,217458,1,2,1:2:0:0:
326,69,217625,6,0,B|326:39|331:16|331:16|351:9|424:24|424:24|388:41,1,180,4|8,0:0|0:0,0:0:0:0:
256,384,218125,1,2,0:0:0:0:
186,69,218291,2,0,B|185:39|181:16|181:16|161:9|88:24|88:24|124:41,1,180,0|8,0:0|0:0,0:0:0:0:
352,172,218791,1,2,0:0:0:0:
160,303,218958,6,0,B|96:309|45:280|45:280|75:272|105:268,1,180,0|8,0:0|0:0,0:0:0:0:
256,248,219458,1,2,0:0:0:0:
352,303,219625,2,0,B|416:309|467:280|467:280|437:272|407:268,1,180,0|8,0:0|0:0,0:0:0:0:
256,368,220125,1,2,0:0:0:0:
80,192,220291,5,4,0:0:0:0:
71,205,220625,5,8,0:0:0:0:
330,63,220791,1,6,0:0:0:0:
325,77,221125,5,2,0:0:0:0:
423,226,221291,1,8,0:0:0:0:
173,74,221458,1,6,0:0:0:0:
178,88,221791,5,2,0:0:0:0:
424,340,221958,1,8,0:0:0:0:
88,340,222125,1,2,0:0:0:0:
256,100,222291,6,0,L|256:0,1,99.0000030212403,0|0,1:0|0:0,0:0:0:0:
352,152,222541,6,0,P|369:199|352:252,1,99.0000030212403,8|0,1:3|0:0,0:0:0:0:
256,372,222791,6,0,L|256:318,1,53.9999983520508,12|0,3:0|0:0,0:0:0:0:
80,192,222958,6,0,L|252:192,1,135,2|0,0:0|0:0,0:0:0:0:
127,266,223291,2,0,P|86:276|31:266,1,90,12|2,0:0|0:0,0:0:0:0:
87,103,223625,1,0,0:0:0:0:
185,320,223791,1,2,0:0:0:0:
402,222,223958,1,8,0:0:0:0:
415,201,224041,1,0,0:0:0:0:
421,176,224125,1,2,0:0:0:0:
418,151,224208,1,0,0:0:0:0:
408,128,224291,2,0,L|333:124,1,45,4|0,0:0|0:3,0:3:0:0:
208,128,224458,5,2,0:0:0:0:
185,89,224541,1,0,0:0:0:0:
193,44,224625,1,8,0:0:0:0:
228,17,224708,1,0,0:0:0:0:
272,23,224791,1,8,0:0:0:0:
301,57,224875,1,0,0:0:0:0:
296,101,224958,2,0,L|292:157,1,45
204,296,225125,1,2,1:2:0:0:
139,311,225207,1,0,1:0:0:0:
78,280,225291,5,0,1:0:0:0:
141,236,225375,1,0,1:0:0:0:
216,224,225458,1,0,1:0:0:0:
285,254,225541,1,0,1:0:0:0:
343,304,225625,5,4,1:0:0:0:
500,137,225791,1,2,0:0:0:0:
276,180,225958,1,8,0:0:0:0:
482,278,226125,1,2,0:0:0:0:
373,77,226291,5,0,0:0:0:0:
284,288,226458,1,2,0:0:0:0:
412,164,226625,1,8,0:0:0:0:
196,248,226791,1,2,0:0:0:0:
380,252,226958,5,0,0:0:0:0:
287,54,227125,1,2,0:0:0:0:
162,233,227291,1,8,0:0:0:0:
288,36,227458,1,2,0:0:0:0:
388,268,227625,5,0,0:0:0:0:
232,128,227791,1,2,1:2:0:0:
300,348,227958,1,8,1:2:0:0:
440,180,228125,1,2,1:2:0:0:
336,40,228291,6,0,B|248:48|248:48|212:28|164:40,1,161.999995056153,4|0,0:0|0:0,0:0:0:0:
200,116,228625,2,0,P|212:196|188:248,1,107.999996704102,8|2,0:0|0:0,0:0:0:0:
192,232,228875,1,0,0:0:0:0:
180,240,228958,2,0,L|300:236,1,107.999996704102,0|2,0:0|0:0,0:0:0:0:
96,168,229291,1,8,0:0:0:0:
260,336,229458,1,2,0:0:0:0:
284,104,229625,5,0,0:0:0:0:
128,304,229791,2,0,L|-8:300,1,107.999996704102,2|8,0:0|0:0,0:0:0:0:
260,112,230125,2,0,P|341:115|436:116,1,161.999995056153,2|0,0:0|0:0,0:0:0:0:
488,80,230458,2,0,P|496:128|480:168,1,53.9999983520508,2|0,0:0|0:0,0:0:0:0:
316,264,230625,2,0,P|308:216|324:176,1,53.9999983520508,8|0,0:0|0:0,0:0:0:0:
428,228,230791,1,2,0:0:0:0:
428,228,230875,1,0,0:0:0:0:
428,228,230958,5,4,0:0:0:0:
212,303,231125,1,2,0:0:0:0:
342,115,231291,1,8,0:0:0:0:
348,344,231458,1,2,0:0:0:0:
208,162,231625,5,0,0:0:0:0:
108,240,231791,1,2,0:0:0:0:
312,232,231958,1,8,0:0:0:0:
203,59,232125,1,0,0:0:0:0:
152,288,232291,5,0,0:0:0:0:
277,52,232458,1,2,0:0:0:0:
334,312,232625,1,8,0:0:0:0:
136,136,232791,1,2,0:0:0:0:
400,162,232958,5,0,0:0:0:0:
127,221,233125,1,2,1:2:0:0:
293,328,233291,1,8,1:2:0:0:
234,55,233458,1,2,1:2:0:0:
234,55,233541,1,0,0:0:0:0:
234,55,233625,6,0,L|120:52,1,107.999996704102,4|2,0:0|0:0,0:0:0:0:
16,136,233958,2,0,P|0:188|28:252,1,107.999996704102,8|2,0:0|0:0,0:0:0:0:
220,300,234291,1,0,0:0:0:0:
80,184,234458,1,2,0:0:0:0:
144,344,234625,1,8,0:0:0:0:
276,184,234791,1,0,0:0:0:0:
276,184,234875,1,0,0:0:0:0:
276,184,234958,6,0,B|336:160|404:192|404:192|400:148,1,161.999995056153,4|0,0:0|0:0,0:0:0:0:
356,104,235291,2,0,P|340:56|356:0,1,107.999996704102,8|2,0:0|0:0,0:0:0:0:
480,168,235625,1,0,0:0:0:0:
336,292,235791,1,2,0:0:0:0:
336,292,235875,1,0,0:0:0:0:
336,292,235958,2,0,L|208:288,1,107.999996704102,8|2,0:0|0:0,0:0:0:0:
92,368,236291,6,0,P|86:268|80:152,1,198.000006042481,4|8,1:0|0:0,0:0:0:0:
380,192,236791,2,0,B|237:164|330:225|151:196,1,198.000006042481,2|2,0:0|0:0,0:0:0:0:
336,292,237291,1,8,0:0:0:0:
220,100,237458,1,2,0:0:0:0:
112,228,237625,6,0,L|0:224,1,99.0000030212403,4|2,0:0|0:0,0:0:0:0:
196,304,237958,1,8,0:0:0:0:
276,148,238125,2,0,L|280:20,1,99.0000030212403,2|0,0:0|0:0,0:0:0:0:
160,136,238458,1,2,0:0:0:0:
296,248,238625,1,8,0:0:0:0:
340,264,238708,1,0,1:0:0:0:
384,264,238791,1,0,1:0:0:0:
428,248,238875,1,0,1:0:0:0:
460,216,238958,6,0,L|452:68,1,148.50000453186,4|0,1:0|0:0,0:0:0:0:
460,48,239291,1,8,0:0:0:0:
204,200,239458,2,0,P|136:208|108:196,1,80.9999975280763,0|0,1:0|0:0,0:0:0:0:
224,184,239791,6,0,P|264:228|264:312,1,121.499996292114,0|0,1:0|0:0,0:0:0:0:
256,308,240125,6,0,B|312:304|312:304|376:316|376:316|456:312,1,180,4|0,0:0|0:0,0:0:0:0:
356,200,240625,1,8,0:0:0:0:
448,104,240791,2,0,L|444:40,1,45,0|0,1:0|1:0,1:0:0:0:
320,40,240958,5,2,1:2:0:0:
328,64,241041,1,2,1:2:0:0:
332,96,241125,1,2,1:2:0:0:
320,132,241208,1,0,1:0:0:0:
292,160,241291,1,0,1:0:0:0:
248,176,241375,1,0,1:0:0:0:
200,168,241458,1,0,1:0:0:0:
160,132,241541,1,0,1:0:0:0:
148,60,241625,6,0,P|192:64|248:64,1,90,4|2,1:0|0:0,0:0:0:0:
381,152,241958,2,0,P|340:156|292:160,1,90,8|2,0:0|0:0,0:0:0:0:
176,224,242291,2,0,P|173:270|172:328,1,90,0|2,0:0|0:0,0:0:0:0:
320,368,242625,1,8,0:0:0:0:
308,248,242791,1,2,0:0:0:0:
172,313,242958,6,0,P|124:311|64:309,1,90,0|2,0:0|0:0,0:0:0:0:
268,172,243291,2,0,P|315:173|376:176,1,90,8|2,0:0|0:0,0:0:0:0:
364,304,243625,1,0,0:0:0:0:
192,216,243791,2,0,P|180:168|196:120,1,90,2|8,0:0|0:0,0:0:0:0:
336,64,244125,1,0,0:0:0:0:
260,268,244291,6,0,P|185:266|96:264,1,135,4|0,0:0|0:0,0:0:0:0:
56,296,244625,2,0,L|48:184,1,90,8|2,0:0|0:0,0:0:0:0:
288,80,244958,2,0,L|284:192,1,90,0|2,0:0|0:0,0:0:0:0:
4,28,245291,2,0,P|52:26|132:24,1,90,8|2,0:0|0:0,0:0:0:0:
316,8,245625,5,4,0:0:0:0:
152,192,245791,1,0,1:0:0:0:
168,240,245875,1,0,1:0:0:0:
202,276,245958,1,0,1:0:0:0:
249,294,246041,1,0,1:0:0:0:
298,291,246125,2,0,P|326:288|372:284,1,45,0|0,1:0|0:0,0:0:0:0:
256,192,246791,12,8,247958,0:0:0:0:
96,104,248291,6,0,P|120:168|32:220,1,180,4|8,0:0|0:0,0:0:0:0:
11,101,248791,1,2,0:0:0:0:
194,237,248958,2,0,P|246:241|289:227,1,90,0|2,0:0|0:0,0:0:0:0:
273,106,249291,2,0,L|265:-2,1,90,8|2,0:0|0:0,0:0:0:0:
436,141,249625,6,0,P|446:195|407:252,1,90,0|2,0:0|0:0,0:0:0:0:
358,291,249958,1,8,0:0:0:0:
262,263,250125,1,2,0:0:0:0:
172,303,250291,2,0,L|76:299,1,90,0|2,0:0|0:0,0:0:0:0:
14,208,250625,2,0,L|103:211,1,90,8|2,0:0|0:0,0:0:0:0:
225,103,250958,6,0,P|157:81|62:138,1,180,0|8,0:0|0:0,0:0:0:0:
14,208,251458,1,2,0:0:0:0:
257,30,251625,2,0,L|353:22,1,90,0|2,0:0|0:0,0:0:0:0:
460,141,251958,2,0,L|370:133,1,90,8|2,0:0|0:0,0:0:0:0:
144,262,252291,6,0,B|217:258|217:258|256:242|256:242|351:235,1,180,0|8,0:0|0:0,0:0:0:0:
177,163,252791,1,2,0:0:0:0:
159,352,252958,2,0,P|117:349|73:315,1,90,0|2,0:0|0:0,0:0:0:0:
294,314,253291,2,0,L|387:313,1,90,8|2,0:0|0:0,0:0:0:0:
339,153,253625,6,0,B|335:121|347:77|347:77|314:108|295:153|324:203,1,180,4|8,0:0|0:0,0:0:0:0:
391,229,254125,1,2,0:0:0:0:
274,41,254291,2,0,P|223:31|177:57,1,90,0|2,0:0|0:0,0:0:0:0:
422,131,254625,2,0,L|513:122,1,90,8|2,0:0|0:0,0:0:0:0:
301,232,254958,6,0,P|255:235|191:124,1,180,0|8,0:0|0:0,0:0:0:0:
211,38,255458,1,2,0:0:0:0:
84,128,255625,2,0,L|92:232,1,90,0|2,0:0|0:0,0:0:0:0:
18,73,255958,2,0,P|52:47|102:44,1,90,8|2,0:0|0:0,0:0:0:0:
342,210,256291,6,0,L|144:189,1,180,4|8,0:0|0:0,0:0:0:0:
88,185,256791,1,2,0:0:0:0:
219,340,256958,2,0,P|268:349|308:330,1,90,0|2,0:0|0:0,0:0:0:0:
331,94,257291,2,8,P|295:69|251:68,1,90,8|2,0:0|0:0,0:0:0:0:
342,210,257625,5,0,0:0:0:0:
425,222,257791,1,2,0:0:0:0:
259,198,257958,1,8,0:0:0:0:
413,101,258125,1,2,0:0:0:0:
362,309,258291,2,0,B|346:338|355:370|355:370|405:347|454:349|454:349|435:364|406:366,1,180,0|8,0:0|0:0,0:0:0:0:
256,384,258791,1,10,0:0:0:0:
84,316,258958,5,4,0:0:0:0:
71,297,259041,1,0,0:0:0:0:
64,275,259125,1,2,0:0:0:0:
64,252,259208,1,0,0:0:0:0:
68,229,259291,5,8,0:0:0:0:
82,200,259375,1,0,0:0:0:0:
90,169,259458,1,2,0:0:0:0:
84,138,259541,1,0,0:0:0:0:
63,113,259625,5,0,0:0:0:0:
22,94,259708,1,0,0:0:0:0:
8,51,259791,1,2,0:0:0:0:
30,11,259875,1,0,0:0:0:0:
73,1,259958,5,8,0:0:0:0:
115,25,260041,1,0,0:0:0:0:
162,39,260125,1,2,0:0:0:0:
211,37,260208,1,0,0:0:0:0:
259,29,260291,6,0,L|306:15,3,45,0|0|2|0,0:0|0:0|0:0|0:0,0:0:0:0:
324,93,260625,2,0,L|281:106,1,45,8|0,0:0|0:0,0:0:0:0:
216,172,260791,2,0,L|169:158,5,45,2|0|0|0|2|0,0:0|0:0|0:0|0:0|0:0|0:0,0:0:0:0:
359,225,261291,2,0,L|406:239,1,45,8|0,0:0|0:0,0:0:0:0:
378,320,261458,2,0,L|421:332,1,45,2|0,0:0|0:0,0:0:0:0:
294,360,261625,6,0,P|297:302|281:256,1,90,4|2,0:0|0:0,0:0:0:0:
97,186,261958,2,0,P|54:199|18:226,1,90,8|2,0:0|0:0,0:0:0:0:
216,172,262291,1,0,0:0:0:0:
282,86,262458,1,2,0:0:0:0:
196,20,262625,2,0,L|78:26,1,90,8|2,0:0|0:0,0:0:0:0:
308,174,262958,6,0,L|426:180,1,90,0|2,0:0|0:0,0:0:0:0:
189,300,263291,2,0,L|71:306,1,90,8|2,0:0|0:0,0:0:0:0:
145,226,263625,1,0,0:0:0:0:
234,226,263791,1,2,0:0:0:0:
276,305,263958,1,8,0:0:0:0:
231,383,264125,1,2,0:0:0:0:
362,307,264291,6,0,P|446:288|510:355,1,180,4|8,0:0|0:0,0:0:0:0:
422,376,264791,1,2,0:0:0:0:
321,227,264958,2,0,P|329:175|325:128,1,90,0|2,0:0|0:0,0:0:0:0:
220,192,265291,1,8,0:0:0:0:
136,160,265458,1,2,0:0:0:0:
304,73,265625,6,0,B|373:68|373:68|417:76|417:76|484:71,1,180,4|8,0:0|0:0,0:0:0:0:
428,0,266125,1,2,0:0:0:0:
212,72,266291,2,0,L|116:64,1,90,4|2,0:0|0:0,0:0:0:0:
321,227,266625,2,0,L|410:234,1,90,8|2,0:0|0:0,0:0:0:0:
183,307,266958,6,0,P|137:332|51:225,1,180,4|8,0:0|0:0,0:0:0:0:
47,173,267458,1,2,0:0:0:0:
145,167,267625,2,0,P|138:224|123:258,1,90,0|2,0:0|0:0,0:0:0:0:
87,92,267958,2,0,P|79:52|74:2,1,90,8|2,0:0|0:0,0:0:0:0:
237,178,268291,5,0,0:0:0:0:
145,167,268458,1,2,0:0:0:0:
282,102,268625,1,8,3:2:0:0:
301,121,268708,1,0,3:0:0:0:
317,153,268791,1,2,3:2:0:0:
317,198,268875,1,0,3:0:0:0:
287,243,268958,2,0,L|232:248,1,45,2|0,3:0|0:0,0:0:0:0:
187,299,269125,2,0,L|142:294,1,45,2|0,3:0|0:0,0:0:0:0:
45,270,269291,5,0,1:0:0:0:
103,320,269375,1,0,1:0:0:0:
172,350,269458,1,0,1:0:0:0:
248,346,269541,1,0,1:0:0:0:
315,308,269625,6,0,P|352:296|406:302,1,90,4|0,1:2|0:0,0:0:0:0:
503,220,269958,2,0,P|466:208|412:214,1,90,4|0,1:2|0:0,0:0:0:0:
237,278,270291,1,0,1:0:0:0:
300,92,270458,1,0,1:0:0:0:
392,348,270625,1,0,1:0:0:0:
145,86,270791,1,4,1:0:0:0:
256,192,270958,12,0,276458,0:0:0:0:
