osu file format v9

[General]
AudioFilename: still doll.mp3
AudioLeadIn: 0
PreviewTime: 60432
Countdown: 0
SampleSet: Soft
StackLeniency: 0.7
Mode: 0
LetterboxInBreaks: 1

[Editor]
DistanceSpacing: 1.01
BeatDivisor: 4
GridSize: 8

[Metadata]
Title:Still Doll
Artist:Wakeshima Kanon
Creator:eveless
Version:Insane
Source:Vampire Knight
Tags:Pokie LKs Neethime Colin Hou

[Difficulty]
HPDrainRate:6
CircleSize:4
OverallDifficulty:5
ApproachRate:8
SliderMultiplier:1.8
SliderTickRate:1

[Events]
//Background and Video events
0,0,"BG.jpg"
//Break Periods
2,42840,44940
2,48942,51042
2,85043,90194
//Storyboard Layer 0 (Background)
//Storyboard Layer 1 (Fail)
//Storyboard Layer 2 (Pass)
//Storyboard Layer 3 (Foreground)
//Storyboard Sound Samples
//Background Colour Transformations
3,100,163,162,255

[TimingPoints]
3488,508.474576271186,3,2,1,40,1,0
8826,-100,3,2,1,20,0,0
9335,-100,3,2,1,39,0,0
12386,-100,3,1,1,20,0,0
12767,-100,3,2,1,40,0,0
14928,-100,3,2,1,25,0,0
15691,-100,3,2,1,40,0,0
21157,-100,3,2,1,30,0,0
21793,-100,3,2,1,40,0,0
24462,-100,3,2,1,20,0,0
25351,-80,3,2,1,35,0,0
25859,-66.6666666666667,3,2,1,50,0,0
26369,-66.6666666666667,3,2,1,61,0,0
26876,-80,3,2,1,50,0,0
27385,-100,3,2,1,50,0,0
28911,508.474576271186,3,2,1,50,1,0
45943,-100,3,2,1,20,0,0
46198,-100,3,2,1,50,0,0
52045,-100,3,2,1,26,0,0
52299,-100,3,2,1,50,0,0
58911,508.474576271186,3,2,1,50,1,0
90942,-100,3,2,1,30,0,0
111793,508.474576271186,3,2,1,40,1,0
113318,-100,3,2,1,50,0,0
136705,-100,3,1,1,20,0,0
137086,-100,3,2,1,50,0,0
137725,-100,3,2,1,60,0,0

[Colours]
Combo1 : 240,5,5
Combo2 : 123,0,0
Combo3 : 255,132,135

[HitObjects]
48,192,3488,2,0,B|112:208|136:136|224:152,1,180,0|2
266,78,4250,1,0
353,96,4504,1,2
371,184,4759,1,0
287,217,5013,2,0,B|281:276|205:322|131:290,2,180,0|2|2
414,344,6538,6,0,B|377:272|401:207|484:172,1,180,0|2
512,123,7301,1,0
448,59,7555,2,0,B|392:72|348:35,1,90,2|0
304,120,8064,2,0,B|256:88|208:96|160:120|152:184,2,180,0|2|0
256,296,9589,6,0,B|208:328|152:320,1,90
184,232,10098,2,0,B|128:240|88:224,1,90,2|0
144,152,10606,2,0,B|168:112|232:120,1,90,2|2
256,40,11115,6,0,B|304:56|320:112|288:168,1,135,0|0
295,152,11623,1,2
376,192,11877,1,0
464,176,12132,1,2
376,192,12386,5,0
376,192,12513,1,0
376,192,12640,1,0
298,251,12894,2,0,B|352:256|388:306,1,90,0|2
438,364,13403,2,0,B|491:360|514:317,2,90,0|2|0
312,363,14165,2,0,B|209:369|144:283,1,180,0|2
152,64,15182,6,0,B|120:64|80:32,2,60,2|0|2
216,72,15691,2,0,B|312:32|408:104,1,180,0|2
451,153,16454,1,0
364,177,16708,1,2
451,153,16962,1,0
432,240,17216,6,0,B|408:280|368:288|328:272|304:240,1,135
316,253,17725,1,2
256,320,17979,1,0
195,253,18233,2,0,B|184:272|149:294|64:304|48:200,1,180,2|0
136,187,18996,5,0
136,187,19123,1,0
136,187,19250,1,2
216,144,19504,1,0
292,191,19759,2,0,B|352:176|402:203,1,90,2|0
444,257,20267,2,0,B|485:232|496:171|456:112,1,135
452,117,20776,1,2
184,53,21284,6,0,B|192:80|224:99,2,60,2|0|2
120,56,21793,2,0,B|128:168|16:208,1,180,0|2
112,248,22555,1,0
200,216,22810,1,2
256,288,23064,1,0
348,307,23318,6,0,B|395:202|346:119,1,180,0|2
256,32,24208,1,0
256,32,24335,2,0,B|232:72|240:128,1,90,2|0
248,160,24716,1,0
264,200,24843,6,0,B|280:256,3,45
216,240,25352,2,0,B|224:304,3,56.2499991618097
160,264,25860,2,0,B|152:336,3,67.4999979883433
152,200,26369,2,0,B|136:136,3,67.4999979883433
208,173,26877,2,0,B|205:99,3,56.2499991618097
260,153,27386,2,0,B|276:113,3,45
304,192,27894,5,0
339,192,28021,1,0
375,192,28149,1,0
410,192,28276,1,0
408,224,28403,5,0
372,224,28530,1,0
336,224,28657,1,0
300,224,28784,1,0
272,208,28911,6,0,B|232:232|224:304,1,90
212,316,29292,1,0
186,341,29419,2,0,B|138:301|90:309,2,90,2|0|2
295,320,30182,1,0
401,353,30436,6,0,B|392:272|464:224,1,135
450,234,30944,1,2
424,128,31199,1,0
320,104,31453,1,2
256,192,31707,1,0
320,280,31961,2,0,B|352:192,2,90,0|0|2
136,320,32978,6,0,B|94:309|40:344,1,90,2|0
225,332,33487,2,0,B|241:260|329:236,1,135
315,240,33995,1,2
346,323,34249,1,0
433,305,34504,2,0,B|475:224|444:128,1,180,2|0
256,80,35394,5,0
256,80,35521,1,2
283,165,35775,1,0
256,250,36029,1,2
169,272,36283,1,0
88,304,36538,6,0,B|128:368|256:352,2,180,0|2|2
56,216,37809,1,0
96,136,38063,6,0,B|144:80|232:88,1,135
261,95,38572,1,2
344,128,38826,1,0
424,88,39080,2,0,B|464:136|392:216|448:280,1,180,2|0
336,337,39843,5,0
336,337,39970,1,0
336,337,40097,2,0,B|263:372|181:350,1,135,2|0
164,334,40605,2,0,B|124:307|131:232,1,90,2|0
216,112,41114,5,0
228,136,41241,1,0
240,160,41368,2,0,B|256:224|240:272,1,90,2|2
376,296,41877,1,0
368,272,42004,1,0
368,245,42131,2,0,B|358:192|400:157,1,90,2|0
470,110,42639,5,0
176,240,45690,6,0,B|224:304|328:272,2,135,0|0|0
255,197,46707,2,0,B|306:134|256:66,1,135,0|0
224,40,47216,5,0
422,163,47724,1,2
210,264,48233,1,2
281,156,48741,5,0
336,240,51792,6,0,B|288:304|184:272,2,135
257,197,52809,2,0,B|206:134|256:66,1,135
288,40,53317,5,0
90,163,53826,1,2
302,264,54334,1,2
231,156,54843,5,0
208,184,54970,1,0
200,216,55097,1,0
200,248,55224,1,0
168,232,55351,5,0
168,272,55478,1,0
184,304,55605,1,0
216,336,55733,1,0
240,296,55860,5,0
288,288,55987,1,0
328,304,56114,1,0
344,344,56241,1,0
392,368,56368,5,0
400,312,56495,1,0
440,280,56622,1,0
496,280,56749,1,0
496,224,56877,6,0,B|480:168,3,45
432,192,57385,2,0,B|392:168,3,45
360,216,57894,2,0,B|288:208,3,45
296,264,58402,2,0,B|232:296,3,45
216,248,58911,6,0,B|164:220|168:165,1,90
167,141,59292,1,0
154,107,59419,2,0,B|97:108|84:49,2,90,2|0|2
256,72,60182,1,0
328,152,60436,6,0,B|376:144|416:192|392:256,1,135
360,248,60944,2,0,B|319:284|336:345,2,90,2|0|2
448,312,61707,1,0
448,312,61961,6,0,B|520:280|496:176,1,135
500,199,62470,1,2
467,96,62724,1,0
368,48,62978,2,0,B|312:64|256:32,1,90,2|0
176,16,63487,6,0,B|208:52|168:116,1,90
280,120,63995,2,0,B|265:168|290:220,1,90,2|0
176,216,64504,1,2
94,355,64885,1,0
94,355,65012,1,0
72,249,65266,2,0,B|18:231|18:170,2,90,0|2|0
202,330,66029,2,0,B|214:367|276:386|340:338,1,135,2|0
319,351,66538,5,0
408,272,66792,1,0
296,232,67046,1,2
296,232,67173,1,0
296,232,67300,2,0,B|242:218|194:250,1,90,0|2
112,176,67809,1,0
8,206,68063,2,0,B|-16:264|17:323|96:312,1,135
57,311,68572,1,2
160,280,68826,1,0
160,280,68953,1,0
160,280,69080,1,0
256,336,69334,1,0
256,336,69588,6,0,B|256:272|312:240,1,90,0|0
440,176,70097,2,0,B|432:232|376:256,1,90,2|0
336,155,70605,1,2
383,252,70860,1,0
272,240,71114,6,0,B|213:228|208:168,1,90,0|0
345,69,71622,2,0,B|362:126|334:158,1,90,2|0
259,77,72131,1,2
198,167,72385,1,0
112,104,72639,6,0,B|54:181|120:288,1,180,0|2
224,280,73402,1,0
317,335,73656,2,0,B|382:300|389:215,1,135,2|0
387,189,74165,5,0
448,104,74419,1,0
448,104,74546,1,0
448,104,74673,1,2
384,16,74927,1,0
281,54,75182,1,2
281,162,75436,2,0,B|249:194|193:202,1,90
85,316,76072,5,0
85,316,76199,1,2
160,296,76453,1,0
240,312,76707,2,0,B|278:332|336:320,1,90,2|0
432,352,77216,5,0
373,199,77597,1,0
373,199,77724,1,2
472,248,77978,2,0,B|480:152,1,90,0|2
367,20,78487,2,0,B|399:108,1,90
224,144,78995,5,0
237,167,79122,1,0
248,192,79249,1,2
296,288,79504,1,0
184,280,79758,1,2
248,192,80012,5,0
274,186,80139,1,0
300,177,80266,1,0
396,228,80521,1,0
472,151,80775,2,0,B|508:192|496:263,1,90,2|0
472,336,81283,5,0
384,320,81538,1,0
296,352,81792,2,0,B|240:360|200:328,1,90,0|0
88,196,82300,2,0,B|136:220|136:276,1,90,2|0
112,355,82809,1,2
112,355,83063,1,0
237,259,83317,6,0,B|285:219|285:171,1,90,0|0
384,224,83826,2,0,B|405:180|392:120,1,90,2|0
352,35,84334,1,2
352,35,84588,1,0
352,35,84843,5,0
256,256,90944,6,0,B|192:288|152:240,1,90
336,200,91453,2,0,B|384:168|448:208,1,90,2|0
403,272,91961,1,2
326,329,92216,1,0
416,136,92470,6,0,B|432:40,1,90
297,184,92978,1,2
297,184,93487,2,0,B|240:216|184:176,1,90,2|0
104,144,93995,5,0
142,61,94249,1,0
122,244,94504,2,0,B|138:292|90:348,2,90,2|0|2
222,224,95266,1,0
307,282,95521,2,0,B|351:186|455:167,2,180,0|2|2
424,287,96792,1,0
424,287,96919,1,0
424,287,97046,6,0,B|488:360,2,90,0|0|2
336,312,97809,2,0,B|264:224,1,90,0|2
224,176,98317,1,0
160,112,98572,6,0,B|72:88|8:168,1,135
34,140,99080,1,2
256,304,99843,2,0,B|224:336,1,45
176,328,100097,6,0,B|168:232|256:152,2,180,2|2|0
336,328,101622,6,0,B|344:232|256:152,1,180,0|2
264,72,102385,1,0
352,40,102639,1,2
456,232,103148,5,0
415,210,103275,1,0
371,222,103402,1,0
357,265,103529,1,0
400,272,103656,5,0
376,312,103783,1,0
328,320,103911,1,0
296,288,104038,1,0
296,240,104165,5,0
328,208,104292,1,0
328,160,104419,1,0
304,120,104546,1,0
272,152,104673,5,0
247,200,104800,1,0
193,211,104927,1,0
147,180,105055,1,0
128,128,105182,2,0,B|80:112|29:195|56:248|80:280,1,180,2|0
168,304,105944,1,2
256,368,106199,5,0
296,336,106326,1,0
352,336,106453,1,0
400,360,106580,1,0
432,312,106707,5,0
408,264,106834,1,0
360,240,106961,1,0
304,248,107088,1,0
288,200,107216,5,0
336,192,107343,1,0
376,176,107470,1,0
400,136,107597,1,0
392,88,107724,6,0,B|384:56|352:32,2,45
282,88,108233,1,2
205,164,108487,1,0
205,272,108741,1,2
281,348,108995,1,0
281,348,109249,6,0,B|184:384|80:320,2,180,0|2|0
368,232,110775,2,0,B|317:148|384:48,2,180,0|2|0
456,240,112047,1,2
456,240,112174,1,0
456,240,112301,1,2
448,328,112555,1,2
368,352,112809,2,0,B|304:368|256:360,1,90,0|2
214,298,113318,5,0
256,168,113699,1,0
256,168,113826,1,2
192,104,114081,1,0
104,112,114335,1,2
64,192,114589,1,0
112,272,114843,2,0,B|80:328|16:320,2,90,0|0|2
248,248,115733,5,0
248,248,115860,1,2
331,283,116115,1,0
408,240,116369,2,0,B|408:176|464:152,2,90,0|0|2
480,296,117131,1,0
480,296,117259,1,0
480,296,117386,2,0,B|464:352|416:368,2,90,2|0|0
480,160,118276,1,0
480,160,118403,6,0,B|440:120|384:128,2,90,2|0|2
339,192,119165,2,0,B|280:186|257:134,1,90
246,58,119674,1,0
246,58,119801,1,0
246,58,119928,6,0,B|144:40,1,90,2|0
40,120,120437,2,0,B|120:168,1,90,2|0
203,216,120945,1,0
256,304,121199,1,0
352,328,121454,6,0,B|376:272|440:272,1,90,2|0
320,288,121962,1,2
392,216,122216,1,0
384,120,122470,2,0,B|352:50|248:72,1,135
270,68,122979,5,2
182,116,123233,1,0
182,116,123360,1,0
182,116,123487,1,2
252,186,123742,1,0
256,288,123996,2,0,B|216:320|144:296,1,90,2|0
256,288,124504,2,0,B|296:320|368:296,1,90,2|0
412,232,125013,1,0
387,135,125267,1,0
424,40,125521,6,0,B|328:24|264:128,1,180,0|2
80,176,126538,1,2
136,96,126793,1,0
192,176,127047,1,0
336,224,127428,1,0
336,224,127555,1,2
406,294,127809,1,0
476,223,128064,1,2
408,152,128318,1,0
408,48,128572,6,0,B|304:48|232:16,1,180,0|2
256,112,129335,1,0
288,208,129589,1,2
256,304,129843,1,0
160,328,130098,2,0,B|72:288|48:168,2,180,0|2|2
176,232,131369,1,0
262,182,131623,5,0
349,230,131877,1,0
349,230,132004,1,0
349,230,132131,1,2
437,184,132386,1,0
416,88,132640,2,0,B|379:49|327:55,1,90,2|0
283,141,133148,2,0,B|201:123|152:216,1,135
167,191,133657,1,2
104,264,133911,1,0
32,200,134165,1,2
256,307,134674,5,0
312,219,134928,1,0
312,219,135055,1,0
312,219,135182,1,2
360,307,135437,1,0
459,307,135691,2,0,B|483:259|459:203,1,90,2|0
392,144,136199,6,0,B|438:69|366:7,1,135
380,20,136708,1,0
380,20,136835,1,0
380,20,136962,1,0
278,7,137216,1,2
230,95,137470,1,0
296,176,137725,6,0,B|216:232|104:184,1,180,0|2
40,248,138487,1,0
129,292,138742,2,0,B|177:292|216:320,1,90,2|0
304,352,139250,2,0,B|360:352|392:320,1,90
428,232,139759,1,2
349,48,140267,5,2
397,135,140521,1,0
428,232,140776,1,0
280,192,141157,1,0
280,192,141284,1,2
184,208,141538,1,0
248,288,141792,1,2
280,192,142047,1,0
133,300,142301,6,0,B|28:312|9:200,2,180,0|2|2
247,288,143572,2,0,B|247:226|327:202,1,90
397,186,144081,1,0
397,186,144208,1,0
397,186,144335,6,0,B|360:288,1,90,2|0
320,120,144843,2,0,B|299:30,1,90,2|0
256,192,145352,1,0
256,192,145860,1,2
80,64,146369,6,0,B|112:112|80:152,1,90
168,224,146877,2,0,B|184:320|312:304,1,180,2|0
382,227,147640,1,0
459,149,147894,2,0,B|360:99|285:180,1,180,2|2
232,80,148657,1,0
232,80,148784,1,0
232,80,148911,1,0
192,184,149165,1,0
104,248,149420,1,2
192,184,149674,1,0
248,280,149928,6,0,B|336:336|432:280,1,180,0|2
472,192,150691,1,0
408,104,150945,2,0,B|351:82|344:32,1,90,2|0
200,144,151454,6,0,B|256:152|272:200,1,90
120,320,151962,2,0,B|36:316|16:216,1,135,2|0
22,240,152470,1,2
127,211,152725,1,0
216,264,152979,6,0,B|320:296|400:248,1,180,0|2
444,157,153742,1,0
388,63,153996,1,2
290,110,154250,1,0
212,32,154504,5,0
216,192,154886,1,0
216,192,155013,1,2
290,110,155267,1,0
400,104,155521,1,2
290,110,155776,1,0
352,200,156030,6,0,B|360:264|320:304,1,90
225,271,156538,2,0,B|193:327|145:327,1,90,2|0
113,218,157047,2,0,B|49:250|-7:162|33:98,1,180,2|0
136,120,157809,1,0
136,120,157937,1,0
136,120,158064,1,2
296,160,158445,5,0
296,160,158572,1,2
240,64,158826,1,0
384,80,159081,2,0,B|431:136|352:208|388:258,2,180,0|2|2
296,160,160352,1,0
256,264,160606,2,0,B|208:296|136:240|80:264,1,180,0|2
0,320,161369,1,0
0,320,161623,1,2
96,368,161877,1,0
208,352,162131,6,0,B|256:248|376:272,1,180,0|2
317,371,162894,1,0
424,344,163148,1,2
480,248,163403,1,0
456,144,163657,6,0,B|448:104|392:80|328:80|296:120,2,180,0|2|0
368,224,164928,1,0
256,192,165182,1,0
184,288,165437,2,0,B|152:328|96:312,2,90,0|2|0
120,192,166199,1,2
184,96,166454,1,0
304,80,166708,6,0,B|400:96|416:216,2,180,0|2|0
296,200,167979,1,0
328,312,168233,1,0
216,288,168487,2,0,B|160:304|112:264,2,90,0|2|0
328,312,169250,2,0,B|424:256|512:312,2,180,2|0|2
256,88,170776,5,0
256,88,171030,1,0
200,184,171284,2,0,B|256:256|208:368,1,180,2|0
408,288,172301,5,2
408,288,172555,1,0
464,192,172809,2,0,B|408:120|456:8,2,180,2|0|2
256,264,174335,5,0
448,320,174843,1,2
370,242,175098,1,0
256,264,175352,1,2
216,368,175606,1,0
256,264,175860,5,0
449,320,176369,1,2
256,264,176877,1,0
256,120,177386,5,0
64,64,177894,1,2
142,142,178148,1,0
256,120,178403,1,2
296,16,178657,1,0
256,120,178911,5,0
63,64,179420,1,2
257,120,179928,1,2
352,112,180182,1,0
376,208,180437,1,0
208,320,180945,6,0,B|168:296|112:328,1,90,2|0
280,272,181454,2,0,B|304:310|368:320,1,90,2|0
201,233,181962,2,0,B|161:137|209:57,2,180,0|2|2
288,184,183233,5,0
288,184,183360,1,0
288,184,183487,2,0,B|376:216|472:192,2,180,0|2|2
224,200,185013,2,0,B|136:168|40:192,2,180,0|2|2
280,280,186284,1,0
256,376,186538,5,0
256,192,186665,12,0,189589
