osu file format v9

[General]
AudioFilename: still doll.mp3
AudioLeadIn: 0
PreviewTime: 60432
Countdown: 0
SampleSet: Soft
StackLeniency: 0.7
Mode: 0
LetterboxInBreaks: 1

[Editor]
Bookmarks: 58906,113313
DistanceSpacing: 0.8
BeatDivisor: 4
GridSize: 16

[Metadata]
Title:Still Doll
Artist:Wakeshima Kanon
Creator:eveless
Version:Collab
Source:Vampire Knight
Tags:Pokie LKs Neethime Colin Hou

[Difficulty]
HPDrainRate:5
CircleSize:4
OverallDifficulty:7
ApproachRate:7
SliderMultiplier:1.5
SliderTickRate:1

[Events]
//Background and Video events
0,0,"BG.jpg"
//Break Periods
2,25043,28003
2,42840,45291
2,85043,90037
2,144026,144952
//Storyboard Layer 0 (Background)
//Storyboard Layer 1 (Fail)
//Storyboard Layer 2 (Pass)
//Storyboard Layer 3 (Foreground)
Sprite,Foreground,Centre,"pokie.png",320,240 M,0,3480,,539,428 F,2,3480,4496,0,1 S,2,3480,4496,1.2,0.7 F,0,4496,54835,1 F,0,54835,55344,1,0
Sprite,Foreground,Centre,"neethime.png",320,240 M,0,58903,,490,428 F,2,58903,59920,0,1 S,2,58903,59920,1.2,0.7 F,0,59920,109242,1 F,0,109242,109751,1,0
Sprite,Foreground,Centre,"lks.png",320,240 M,0,113310,,546,428 F,2,113310,114327,0,1 S,2,113310,114327,1.2,0.7 F,0,114327,186530,1 F,0,186530,187039,1,0
//Storyboard Sound Samples
//Background Colour Transformations
3,100,163,162,255

[TimingPoints]
3488,508.474576271186,3,2,1,40,1,0
3488,-200,3,2,1,40,0,0
4123,-100,3,2,1,40,0,0
4886,-200,3,2,1,40,0,0
6411,-200,3,2,1,40,0,0
7174,-100,3,2,1,40,0,0
7937,-200,3,2,1,40,0,0
9081,-200,3,2,1,0,0,0
9335,-200,3,2,1,30,0,0
12513,-100,3,2,1,40,0,0
14928,-100,3,2,1,0,0,0
15437,-100,3,2,1,40,0,0
21284,-100,3,2,1,0,0,0
21538,-100,3,2,1,40,0,0
24589,-100,3,2,1,20,0,0
28657,-100,3,2,1,40,0,0
28911,508.474576271186,3,2,1,40,1,0
36538,-100,3,2,1,25,0,0
36793,-100,3,2,1,40,0,0
42386,-100,3,2,1,25,0,0
45945,-100,3,2,1,40,0,0
51030,-100,3,2,1,0,0,0
51665,-100,3,2,1,40,0,0
54843,-100,3,2,1,25,0,0
54907,-100,3,2,1,0,0,0
58403,-100,3,2,1,30,0,0
58911,508.474576271186,3,2,1,30,1,0
60055,-100,3,2,1,40,0,0
66411,-100,3,2,1,30,0,0
80140,-200,3,2,1,40,0,0
80776,-100,3,2,1,40,0,0
82682,-200,3,2,1,40,0,0
83191,-100,3,2,1,0,0,0
90691,-100,3,2,1,20,0,0
96284,-100,3,2,1,30,0,0
101496,-100,3,2,1,40,0,0
102767,-100,3,2,1,30,0,0
108996,-100,3,2,1,0,0,0
111793,508.474576271186,3,2,1,0,1,0
112810,-100,3,2,1,36,0,0
115098,-100,3,2,1,21,0,0
115987,-100,3,2,1,36,0,0
119293,-100,3,2,1,16,0,0
119547,-100,3,2,1,21,0,0
120055,-100,3,2,1,16,0,0
120691,-100,3,2,1,36,0,0
126411,-100,3,2,1,26,0,0
126920,-100,3,2,1,21,0,0
127174,-100,3,2,1,36,0,0
127937,-100,3,2,1,21,0,0
128191,-100,3,2,1,31,0,0
133911,-100,3,2,1,21,0,0
134547,-100,3,2,1,36,0,0
137089,-100,3,2,1,46,0,0
176115,-200,3,2,1,46,0,0
177132,-100,3,2,1,46,0,0
179165,-200,3,2,1,46,0,0
180182,-100,3,2,1,46,0,0

[Colours]
Combo1 : 240,5,5
Combo2 : 123,0,0
Combo3 : 255,132,135

[HitObjects]
256,88,3488,2,0,B|256:176,1,75
248,240,4250,1,2
200,296,4504,1,0
128,288,4759,1,0
64,248,5013,6,0,B|32:216|48:168,2,75,0|2|0
256,232,6538,2,0,B|344:232,1,75,0|2
392,192,7301,1,0
440,128,7555,1,2
400,64,7810,1,0
328,40,8064,6,0,B|288:48|248:40,2,75,0|2|0
296,184,9589,2,0,B|296:272,1,75
248,320,10352,1,2
176,304,10606,2,0,B|160:264,1,37.5
104,216,11115,1,0
144,152,11369,1,2
112,80,11623,6,2,B|200:80,1,75,0|4
328,40,12640,2,0,B|360:72|328:120,1,75,0|2
328,184,13149,2,0,B|368:160|408:168,1,75
464,200,13657,1,2
480,272,13911,1,0
424,328,14165,2,0,B|344:344|272:312,1,150,0|2
276,314,15182,1,0
224,56,15691,6,0,B|176:40|144:48,1,75,0|0
88,88,16199,2,0,B|128:104|144:160,1,75,2|0
160,216,16708,1,2
128,280,16962,1,0
56,288,17216,2,0,B|0:232|32:136,1,150,0|2
72,88,17979,1,0
72,88,18233,1,0
224,272,18742,6,0,B|264:288|312:264,1,75,0|2
368,240,19250,1,0
408,176,19504,1,0
408,104,19759,2,0,B|392:64|344:56,1,75,2|0
280,40,20267,2,0,B|208:96|256:192,2,150,0|2|0
448,192,21793,6,0,B|456:272,1,75,0|0
392,312,22301,1,2
320,336,22555,1,0
247,327,22810,2,0,B|208:328|176:307,1,75,0|2
112,272,23318,1,0
176,232,23572,1,0
176,307,23826,2,0,B|208:328|248:328,2,75,0|2|0
320,320,24843,5,4
256,192,28911,12,0,30182
256,120,30436,5,2
256,272,30944,2,0,B|264:304|256:352,2,75
216,208,31707,1,2
160,160,31961,2,0,B|96:112|8:136,2,150,0|2|0
216,208,33233,5,0
288,232,33487,2,0,B|344:240|408:224,1,112.5
432,200,33995,1,2
464,128,34249,2,0,B|480:80|464:40,2,75
376,64,35012,6,0,B|344:120|368:184,1,112.5,0|0
384,208,35521,1,2
328,256,35775,1,0
256,256,36029,6,0,B|208:232|168:288|104:248,1,150,0|6
48,96,37046,1,0
112,136,37300,1,0
112,208,37555,1,2
72,272,37809,1,0
136,312,38063,6,0,B|208:344|288:320,2,150,0|2|0
72,272,39334,1,0
96,200,39588,2,0,B|120:120|104:72,1,112.5
80,64,40097,1,2
80,64,40605,5,0
144,96,40860,1,0
216,80,41114,2,0,B|288:64|344:72,1,112.5,2|0
360,56,41622,1,0
418,110,41877,1,0
344,136,42131,1,0
216,81,42639,5,4
256,46,46199,6,0,B|221:68|208:118,1,75,0|0
239,174,46707,1,2
253,247,46961,1,0
224,316,47216,2,0,B|274:346|352:345,1,112.5,0|0
359,319,47724,2,0,B|342:237|381:165,1,150,2|0
447,40,48741,5,2
419,109,48995,1,0
355,148,49249,1,2
280,151,49504,1,0
212,118,49758,1,0
40,262,50266,5,2
107,294,50521,1,0
181,282,50775,1,0
181,282,51283,1,0
324,326,51792,2,0,B|350:283|320:232,1,75,2|0
405,253,52300,6,0,B|334:212|318:129,1,150,2|0
247,120,53063,1,0
173,105,53317,2,0,B|130:160|154:224,1,112.5
116,228,53826,2,0,B|171:264|169:344,1,112.5,2|0
134,339,54334,2,0,B|201:358|309:333,1,150,0|4
256,192,54970,12,0,56877
48,240,58911,6,0,B|56:288|88:304,1,75
156,280,59419,2,0,B|148:232|116:216,1,75,2|0
64,166,59927,1,2
64,166,60182,1,0
170,97,60436,6,0,B|252:90|337:97,1,150,2|0
394,105,61199,1,0
465,128,61453,2,0,B|501:202|423:259,1,150,2|0
353,280,62216,1,0
277,283,62470,1,2
313,217,62724,1,0
353,280,62978,1,0
277,283,63233,6,0,B|237:293|200:281,1,75,0|2
129,264,63741,2,0,B|86:252|46:268,2,75
182,211,64504,2,0,B|242:161|262:81,1,150,2|0
326,50,65266,1,0
399,63,65521,2,0,B|417:137|477:187,1,150,2|0
508,256,66283,1,0
440,288,66538,6,0,B|364:277|287:292,1,150,2|0
217,307,67300,1,0
142,303,67555,1,2
83,255,67809,1,0
59,183,68063,2,0,B|60:101|131:50,1,150,0|2
275,48,69080,5,0
275,48,69334,1,2
275,48,69588,2,0,B|357:54|431:82,2,150,0|0|2
207,107,70860,1,0
151,178,71114,2,0,B|69:184|-5:212,2,150,0|2|0
292,290,72639,6,0,B|339:287|374:270,1,75,2|0
255,300,73148,2,0,B|208:303|173:320,1,75
254,229,73656,2,0,B|219:78,1,150,2|0
220,82,74419,1,0
276,33,74673,2,0,B|309:179,1,150,2|0
309,179,75436,5,0
384,184,75690,2,0,B|432:112|424:40,2,150,2|0|2
320,224,76961,1,0
248,248,77216,2,0,B|176:272|136:272,1,112.5,2|0
112,240,77724,2,0,B|160:176|160:136,1,112.5,2|0
176,104,78233,2,0,B|256:120|336:104,1,150,2|2
400,96,78995,5,0
472,72,79249,2,0,B|472:152,1,75
400,176,79758,2,0,B|400:264,1,75,2|0
328,272,80266,6,0,B|320:288|336:336|328:352,1,75,0|2
184,304,81283,5,0
120,272,81538,1,2
64,224,81792,2,0,B|32:200|16:160,2,75,2|0|0
208,184,82809,6,0,B|256:168|280:136,1,75,2|0
256,192,83444,12,0,84843
400,104,90944,6,0,B|312:80|240:88,1,150,2|0
176,96,91707,1,0
224,152,91961,2,0,B|264:192|264:232,1,75,2|0
200,256,92470,2,0,B|160:216|160:176,1,75
161,192,92978,1,2
161,192,93487,1,0
248,72,93995,6,0,B|320:80|400:112,1,150,2|0
456,64,94758,1,0
464,136,95012,2,0,B|464:176|440:208,1,75,2|0
376,176,95521,2,0,B|328:168|288:184,1,75
301,179,96029,1,2
360,320,96538,5,2
288,336,96792,2,0,B|288:376,2,37.5,0|0|2
192,192,97555,2,0,B|192:104,2,75,0|2|0
192,264,98317,1,2
256,232,98572,2,0,B|408:232,1,150,0|2
232,88,99843,6,0,B|232:40,2,37.5,0|0|2
296,128,100351,1,0
448,128,100860,1,0
392,176,101114,1,2
232,216,101622,2,0,B|368:288,2,150,2|0|0
128,112,103148,6,0,B|72:120|48:152,1,75,2|0
112,200,103656,2,0,B|80:224|72:264,1,75,2|0
144,272,104165,2,0,B|120:312|144:344,1,75,2|0
208,304,104673,2,0,B|288:288|320:208,2,150,0|2|0
384,112,106199,6,0,B|440:120|464:152,1,75,0|2
400,200,106707,2,0,B|432:224|440:264,1,75,0|2
368,272,107216,2,0,B|392:312|368:344,1,75,0|2
304,304,107724,2,0,B|224:288|192:208,2,150,0|0|2
256,192,109249,12,0,111793
256,48,113318,5,2
145,69,113699,1,0
108,77,113826,2,0,B|38:87|19:146|24:197,1,150,0|2
98,181,114589,1,0
172,182,114843,1,2
288,288,115352,2,0,B|318:329|361:350|432:336,1,150,0|2
353,247,116242,5,0
385,228,116369,2,0,B|412:156|378:64,1,150,2|0
288,32,117259,1,0
251,25,117386,1,0
208,176,117894,1,2
352,240,118403,2,0,B|268:262|256:352,2,150,0|2|4
408,190,119674,5,0
454,248,119928,1,2
401,301,120182,1,2
354,242,120437,1,0
240,272,120818,1,0
208,304,120945,5,2
128,176,121454,2,0,B|144:256|96:320,2,150,0|2|0
256,96,122979,1,2
256,240,123487,1,0
336,256,123742,2,0,B|368:286|369:337,1,75,0|2
368,176,124504,2,0,B|352:96|400:32,2,150,0|2|0
417,232,125776,5,0
386,254,125903,1,0
350,264,126030,1,2
275,254,126284,1,0
226,197,126538,1,2
227,121,126793,1,0
277,65,127047,5,4
127,66,127555,2,0,B|131:112|114:154,1,75
86,207,128064,1,0
170,281,128445,2,0,B|203:321,1,37.5,0|2
336,336,129081,6,0,B|332:290|349:248,2,75,0|0|2
480,304,130098,1,0
368,208,130606,1,2
448,80,131115,1,0
464,224,131623,1,2
427,158,131877,5,2
363,117,132131,1,0
289,100,132386,1,0
214,101,132640,2,0,B|225:143|206:191,1,75,2|0
144,140,133148,2,0,B|71:168,1,75
36,161,133530,2,0,B|79:199,1,37.5,0|2
118,46,134165,5,0
189,68,134420,1,0
263,58,134674,2,0,B|251:111|279:144,1,75,2|0
333,91,135182,2,0,B|350:143|398:171|474:146,1,150,0|2
446,226,135945,1,0
371,224,136199,2,0,B|363:278|384:314,3,75,0|0|2|0
304,304,137216,5,2
160,336,137725,5,4
176,256,137979,1,0
192,176,138233,2,0,B|128:192,3,37.5,2|0|2|0
119,196,138742,1,2
140,124,138996,2,0,B|59:97,1,75,0|2
165,91,139504,2,0,B|246:118,1,75,2|0
304,304,140267,5,2
384,288,140521,1,0
448,240,140776,2,0,B|448:192|384:192|384:128,1,112.5,2|0
368,112,141284,5,2
240,32,141792,2,0,B|288:64|299:137|228:177,1,150,0|2
196,104,142555,1,0
272,352,142809,6,2,B|224:320|213:247|284:207,1,150,0|2
316,280,143572,1,0
272,352,143826,1,2
256,48,145860,6,0,B|256:176,1,112.5,2|0
256,192,146369,1,0
320,240,146623,2,0,B|311:288|276:322,1,75,0|2
224,352,147131,1,0
187,286,147386,1,0
95,221,147767,1,0
58,214,147894,1,2
100,151,148148,1,0
130,82,148403,5,2
240,176,148911,2,0,B|256:80,2,75,0|0|0
304,208,149674,1,0
368,240,149928,6,0,B|438:194|432:80,1,150,2|0
352,112,150691,2,0,B|352:32,1,75,0|0
448,144,151454,1,2
439,218,151708,1,0
368,240,151962,1,0
295,260,152216,1,2
268,286,152343,1,0
259,322,152470,1,2
333,324,152725,5,0
231,217,152979,2,0,B|97:326,1,150,0|2
39,309,153742,1,2
14,238,153996,1,0
36,89,154504,5,0
97,45,154759,2,0,B|182:21,1,75,0|2
231,65,155267,2,0,B|267:161,1,75
367,33,156030,2,0,B|369:121|451:165,1,150,2|0
386,212,157047,1,0
386,212,157555,2,0,B|448:236|462:311,1,112.5,2|0
468,329,158064,1,0
393,330,158318,1,0
318,333,158572,5,2
263,281,158826,1,0
191,256,159081,2,0,B|219:161,1,75
233,103,159589,2,0,B|323:205,1,112.5,2|0
343,216,160098,2,0,B|210:243,1,112.5
192,256,160606,5,2
256,48,161115,1,2
302,107,161369,1,0
339,42,161623,2,0,B|396:66|394:142|341:171,1,150,0|2
161,219,162640,2,0,B|118:242|116:318|173:342,1,150,0|2
233,299,163403,1,0
296,259,163657,5,0
196,146,164165,2,0,B|119:114|42:147,1,150,2|0
49,143,164928,1,0
78,213,165182,2,0,B|94:256|70:301,1,75,2|0
43,353,165691,1,0
174,281,166199,2,0,B|163:326|187:369,1,75,2|0
244,315,166708,1,2
318,305,166962,1,0
370,251,167216,1,0
489,341,167725,2,0,B|464:277|469:177,1,150
468,193,168487,5,0
418,137,168742,2,0,B|368:72,1,75,2|0
297,71,169250,1,0
313,144,169504,1,0
251,186,169759,2,0,B|303:262|241:341,2,150,2|0|0
193,137,171030,1,0
119,122,171284,2,0,B|28:134,2,75,2|0|2
170,66,172047,1,0
225,15,172301,6,0,B|298:28|287:69|370:80,1,150,2|0
432,93,173064,1,0
466,159,173318,2,0,B|369:187,1,75,0|0
435,241,173826,2,0,B|338:269,1,75,0|0
400,326,174335,5,0
252,350,174843,2,0,B|248:297|194:273,1,75,2|0
176,349,175352,1,0
144,280,175606,2,0,B|131:190,1,75,0|2
368,104,176369,2,0,B|381:194,1,75,2|0
112,58,177386,5,0
260,34,177894,2,0,B|264:87|318:111,1,75,2|0
336,35,178403,1,0
368,104,178657,2,0,B|381:194,1,75,0|2
144,280,179420,2,0,B|131:190,1,75,2|0
32,96,180437,5,0
176,144,180945,2,0,B|96:192,1,75,2|0
36,183,181454,2,0,B|34:226|77:251,1,75,2|0
141,267,181962,1,0
256,352,182470,1,2
371,267,182979,1,0
400,256,183233,1,0
432,240,183487,5,0
464,96,183996,2,0,B|384:128,1,75,2|0
365,193,184504,2,0,B|276:176,1,75,2|0
323,110,185013,1,0
263,247,185521,1,2
382,337,186030,1,0
240,352,186538,5,0
256,192,186665,12,0,189589
