osu file format v14

[General]
AudioFilename: danmachi.mp3
AudioLeadIn: 1500
PreviewTime: 51367
Countdown: 0
SampleSet: Soft
StackLeniency: 0.3
Mode: 0
LetterboxInBreaks: 0
WidescreenStoryboard: 0

[Editor]
DistanceSpacing: 1.4
BeatDivisor: 4
GridSize: 4
TimelineZoom: 1

[Metadata]
Title:RIGHT LIGHT RISE
TitleUnicode:RIGHT LIGHT RISE
Artist:Wakeshima Kanon
ArtistUnicode:分島花音
Creator:guineaQ
Version:Normal
Source:ダンジョンに出会いを求めるのは間違っているだろうか
Tags:Dungeon ni Deai wo Motomeru no wa Machigatteiru Darou ka Is It Wrong to Try Pick Up Girls in a DanMachi ダンまち ed ending Lanturn tv size
BeatmapID:685211
BeatmapSetID:305531

[Difficulty]
HPDrainRate:4
CircleSize:3.5
OverallDifficulty:4
ApproachRate:5
SliderMultiplier:1.2
SliderTickRate:1

[Events]
//Background and Video events
0,0,"danmachi.jpg",0,0
Video,-27,"DungeonED.avi"
//Break Periods
//Storyboard Layer 0 (Background)
//Storyboard Layer 1 (Fail)
//Storyboard Layer 2 (Pass)
//Storyboard Layer 3 (Foreground)
//Storyboard Sound Samples

[TimingPoints]
1020,461.538461538462,4,2,1,60,1,0
7481,447.761194029851,4,2,1,60,1,0
8376,447.761194029851,4,2,1,40,1,0
22704,-100,4,2,1,40,0,0
33450,-100,4,2,2,50,0,0
49346,-100,4,2,2,40,0,0
50465,-100,4,2,2,50,0,0
51361,-100,4,2,2,70,0,1
80017,-100,4,2,2,55,0,1
86958,-100,4,2,2,40,0,0
88973,-100,4,2,2,10,0,0

[Colours]
Combo1 : 255,203,21
Combo2 : 15,135,255
Combo3 : 255,164,11
Combo4 : 90,190,243

[HitObjects]
228,186,1020,6,0,P|236:103|200:59,2,120,4|0|0,0:0|0:0|0:0,0:0:0:0:
118,279,2404,1,0,0:0:0:0:
36,159,2866,6,0,P|90:135|149:136,1,120,4|0,0:0|0:0,0:0:0:0:
263,224,3789,2,0,L|396:229,1,120,0|0,0:0|0:0,0:0:0:0:
457,268,4481,1,0,0:0:0:0:
457,268,4712,6,0,L|472:338,2,60,2|0|2,0:1|0:0|0:1,0:0:0:0:
484,126,5635,1,2,0:1:0:0:
382,228,6096,2,0,P|358:248|315:253,1,60,2|0,0:1|0:0,0:0:0:0:
320,170,6558,6,0,P|239:87|113:94,1,240,2|8,0:1|0:0,0:0:0:0:
185,218,7928,1,0,0:0:0:0:
320,170,8376,6,0,L|455:169,1,120,4|0,0:0|0:0,0:0:0:0:
324,255,9271,2,0,P|280:247|234:176,1,120,0|0,0:0|0:0,0:0:0:0:
184,123,9943,1,0,0:0:0:0:
184,123,10167,6,0,B|103:123|103:123|48:149,2,120,0|0|0,0:0|0:0|0:0,0:0:0:0:
320,170,11510,2,0,L|402:170,1,60,0|0,0:0|0:0,0:0:0:0:
446,117,11958,6,0,P|425:165|456:241,1,120,0|0,0:0|0:0,0:0:0:0:
337,325,12853,2,0,P|289:304|213:335,1,120,0|0,0:0|0:0,0:0:0:0:
155,367,13525,1,0,0:0:0:0:
155,367,13749,6,0,L|138:234,1,120,0|0,0:0|0:0,0:0:0:0:
165,106,14644,2,0,L|157:39,2,60,0|2|2,0:0|0:0|0:0,0:0:0:0:
200,182,15316,1,0,0:0:0:0:
200,182,15540,6,0,P|254:204|324:193,1,120,0|0,0:0|0:0,0:0:0:0:
392,76,16435,2,0,P|338:54|268:65,1,120,0|0,0:0|0:0,0:0:0:0:
194,51,17107,1,0,0:0:0:0:
194,51,17331,6,0,L|94:125,1,120,0|2,0:0|0:0,0:0:0:0:
15,141,18002,2,0,P|82:163|114:223,1,120,0|2,0:0|0:0,0:0:0:0:
129,283,18674,2,0,L|209:288,1,60,2|2,0:0|0:0,0:0:0:0:
267,254,19122,6,0,P|316:280|403:273,1,120,0|0,0:0|0:0,0:0:0:0:
356,138,20017,2,0,P|312:133|260:140,2,90,0|0|0,0:0|0:0|0:0,0:0:0:0:
439,150,20913,5,2,0:0:0:0:
379,281,21361,1,4,0:0:0:0:
242,235,21808,2,0,B|149:245|149:245|116:228,1,120,2|2,0:0|0:0,0:0:0:0:
52,191,22480,1,2,0:0:0:0:
52,191,22704,6,0,P|99:153|172:162,1,120,6|0,0:0|0:0,0:0:0:0:
221,207,23376,2,0,L|350:191,1,120,0|0,0:0|0:0,0:0:0:0:
420,216,24047,1,0,0:0:0:0:
289,277,24495,6,0,L|169:291,1,120,2|0,0:0|0:0,0:0:0:0:
96,334,25167,2,0,P|89:266|139:216,1,120,0|2,0:0|0:0,0:0:0:0:
187,180,25838,2,0,P|192:137|188:104,1,60,8|0,0:0|0:0,0:0:0:0:
149,46,26286,5,0,0:0:0:0:
274,116,26734,2,0,P|334:121|382:85,2,120,0|0|0,0:0|0:0|0:0,0:0:0:0:
190,120,27853,1,2,0:0:0:0:
190,120,28077,5,0,0:0:0:0:
311,41,28525,1,2,0:0:0:0:
348,180,28973,2,0,B|352:273|352:273|330:298,1,120,2|8,0:0|0:0,0:0:0:0:
273,350,29644,1,0,0:0:0:0:
273,350,29868,6,0,L|206:345,1,60,0|0,0:0|0:0,0:0:0:0:
135,312,30316,2,0,L|69:316,2,60,0|0|0,0:0|0:0|0:0,0:0:0:0:
259,239,31211,2,0,L|256:169,1,60,0|0,0:0|0:0,0:0:0:0:
292,102,31659,5,0,0:0:0:0:
398,198,32107,1,0,0:0:0:0:
259,239,32555,2,0,P|206:223|162:164,1,120,0|2,0:0|0:1,0:0:0:0:
172,89,33226,1,2,0:1:0:0:
172,89,33450,6,0,L|300:102,1,120,6|0,0:0|0:0,0:0:0:0:
360,148,34122,1,0,0:0:0:0:
360,148,34346,2,0,P|372:106|337:34,1,120,0|8,0:0|0:0,0:0:0:0:
209,94,35241,6,0,L|207:230,1,120,0|0,0:0|0:0,0:0:0:0:
213,298,35913,1,0,0:0:0:0:
213,298,36137,1,8,0:0:0:0:
347,247,36584,1,0,0:0:0:0:
207,213,37032,6,0,P|156:235|128:310,1,120,6|0,0:0|0:0,0:0:0:0:
68,349,37704,1,8,0:0:0:0:
23,278,37928,2,0,L|19:156,1,120,0|8,0:0|0:0,0:0:0:0:
138,76,38823,5,0,0:0:0:0:
138,76,39047,2,0,L|136:8,2,60,8|0|0,0:0|0:0|0:0,0:0:0:0:
103,153,39719,2,0,P|152:165|234:156,1,120,8|0,0:0|0:0,0:0:0:0:
355,107,40614,6,0,P|414:101|472:113,1,120,6|0,0:0|0:0,0:0:0:0:
507,191,41286,1,8,0:0:0:0:
426,213,41510,2,0,L|421:336,1,120,0|8,0:0|0:0,0:0:0:0:
307,244,42405,5,0,0:0:0:0:
307,244,42629,2,0,L|311:166,2,60,8|4|0,0:0|0:0|0:0,0:0:0:0:
240,295,43301,2,0,P|182:307|112:289,1,120,2|8,0:0|0:0,0:0:0:0:
66,162,44196,6,0,P|124:150|194:168,1,120,6|8,0:0|0:0,0:0:0:0:
253,207,44868,2,0,P|224:149|243:90,1,120,2|2,0:0|0:0,0:0:0:0:
313,62,45540,1,8,0:0:0:0:
387,21,45764,6,0,P|362:128|298:142,1,180,2|8,0:0|0:0,0:0:0:0:
185,66,46883,2,0,L|60:79,1,120,2|0,0:0|0:0,0:0:0:0:
18,214,47778,6,0,L|137:201,1,120,6|0,0:0|0:0,0:0:0:0:
217,226,48450,2,0,L|293:218,2,60,2|8|8,0:0|0:0|0:0,0:0:0:0:
156,284,49122,1,8,0:0:0:0:
156,284,49346,1,0,0:0:0:0:
363,242,50465,6,0,P|370:191|354:113,1,120,2|8,0:0|0:0,0:0:0:0:
245,34,51361,6,0,L|118:40,1,120,6|8,0:0|0:0,0:0:0:0:
92,117,52032,1,0,0:0:0:0:
92,117,52257,2,0,L|21:122,2,60,0|0|8,0:0|0:0|0:0,0:0:0:0:
205,205,53152,6,0,P|165:246|84:256,1,120,2|8,0:0|0:0,0:0:0:0:
28,293,53823,1,0,0:0:0:0:
28,293,54047,2,0,B|18:208|18:208|35:161,1,120,2|8,0:0|0:0,0:0:0:0:
135,77,54943,6,0,B|167:65|167:65|252:75,1,120,2|8,0:0|0:0,0:0:0:0:
302,142,55614,1,0,0:0:0:0:
370,190,55838,2,0,P|384:134|348:71,1,120,2|8,0:0|0:0,0:0:0:0:
275,62,56510,1,0,0:0:0:0:
275,62,56734,6,0,L|156:108,1,120,2|8,0:0|0:0,0:0:0:0:
126,180,57405,1,0,0:0:0:0:
85,253,57629,2,0,P|52:270|-3:277,2,90,2|0|0,0:0|0:0|0:0,0:0:0:0:
154,205,58525,5,6,0:0:0:0:
256,308,58973,1,8,0:0:0:0:
256,308,59196,2,0,P|331:289|383:298,1,120,0|0,0:0|0:0,0:0:0:0:
452,320,59868,2,0,P|452:271|441:246,1,60,8|0,0:0|0:0,0:0:0:0:
381,210,60316,6,0,B|377:140|377:140|415:88,1,120,2|8,0:0|0:0,0:0:0:0:
463,37,60987,1,0,0:0:0:0:
380,21,61211,1,2,0:0:0:0:
256,92,61659,2,0,L|191:94,1,60,8|0,0:0|0:0,0:0:0:0:
112,78,62107,6,0,P|154:116|161:198,1,120,6|8,0:0|0:0,0:0:0:0:
140,256,62778,1,0,0:0:0:0:
98,329,63002,2,0,P|149:339|209:302,1,120,2|8,0:0|0:0,0:0:0:0:
255,238,63674,1,0,0:0:0:0:
282,158,63898,6,0,B|343:150|343:150|412:170,2,120,2|8|2,0:0|0:0|0:0,0:0:0:0:
224,219,65017,1,0,0:0:0:0:
224,219,65241,1,8,0:0:0:0:
290,346,65689,5,2,0:0:0:0:
163,276,66137,2,0,P|143:240|172:158,1,120,12|2,0:0|0:0,0:0:0:0:
219,106,66808,2,0,L|224:37,2,60,0|8|0,0:0|0:0|0:0,0:0:0:0:
245,186,67480,6,0,B|324:179|324:179|371:196,1,120,6|8,0:0|0:0,0:0:0:0:
266,300,68376,1,2,0:0:0:0:
266,300,68599,2,0,L|188:308,1,60,0|8,0:0|0:0,0:0:0:0:
124,283,69047,1,0,0:0:0:0:
124,283,69271,6,0,P|125:232|91:159,1,120,2|8,0:0|0:0,0:0:0:0:
175,46,70167,2,0,P|226:47|299:13,1,120,2|8,0:0|0:0,0:0:0:0:
351,76,70838,1,0,0:0:0:0:
351,76,71062,6,0,L|366:213,1,120,2|8,0:0|0:0,0:0:0:0:
353,279,71734,1,0,0:0:0:0:
430,245,71958,2,0,P|473:251|528:286,2,90,2|0|0,0:0|0:0|0:0,0:0:0:0:
353,279,72853,6,0,L|228:279,1,120,6|8,0:0|0:0,0:0:0:0:
162,326,73525,2,0,P|189:268|168:202,1,120,0|0,0:0|0:0,0:0:0:0:
141,139,74196,1,8,0:0:0:0:
141,139,74420,6,0,L|273:138,1,120,0|0,0:0|0:0,0:0:0:0:
335,177,75092,2,0,P|344:127|337:97,2,60,8|0|2,0:0|0:0|0:0,0:0:0:0:
233,279,75987,2,0,P|198:281|170:300,1,60,8|0,0:0|0:0,0:0:0:0:
108,342,76435,6,0,P|168:343|247:370,1,120,6|8,0:0|0:0,0:0:0:0:
303,328,77107,1,0,0:0:0:0:
303,328,77331,2,0,L|309:192,1,120,2|8,0:0|0:0,0:0:0:0:
256,72,78226,5,2,0:0:0:0:
427,303,79122,2,0,P|477:326|531:330,2,90,2|2|0,0:0|0:0|0:0,0:0:0:0:
363,247,80017,6,0,P|325:187|340:126,1,120,6|8,0:0|0:0,0:0:0:0:
293,65,80689,2,0,P|361:62|407:104,1,120,0|0,0:0|0:0,0:0:0:0:
410,176,81361,1,8,0:0:0:0:
273,220,81808,6,0,P|237:239|154:218,1,120,2|8,0:0|0:0,0:0:0:0:
134,144,82480,2,0,B|150:112|136:76|120:46|143:18,1,120,0|0,0:0|0:0,0:0:0:0:
217,52,83152,2,0,L|289:61,1,60,8|0,0:0|0:0,0:0:0:0:
323,128,83599,6,0,P|354:174|344:248,1,120,6|8,0:0|0:0,0:0:0:0:
309,310,84271,2,0,P|255:332|200:311,1,120,2|2,0:0|0:0,0:0:0:0:
162,236,84943,1,8,0:0:0:0:
161,236,85167,6,0,P|157:177|189:128,1,120,6|2,0:0|0:0,0:0:0:0:
256,77,85838,1,8,0:0:0:0:
323,128,86062,2,0,B|371:158|371:158|447:159,1,120,6|2,0:0|0:0,0:0:0:0:
494,218,86734,1,8,0:0:0:0:
434,277,86958,1,6,0:0:0:0:
256,192,87181,12,0,88973,0:0:0:0:
